#VERSION:0.82;
#TITLE:Guruguru Volcano;
#SUBTITLE:;
#ARTIST:Kenji Ito;
#TITLETRANSLIT:;
#SUBTITLETRANSLIT:;
#ARTISTTRANSLIT:;
#GENRE:VIDEO GAME SOUNDTRACK;
#ORIGIN:;
#CREDIT:;
#BANNER:Guruguru Volcano.png;
#BACKGROUND:Guruguru Volcano-bg.png;
#PREVIEWVID:;
#JACKET:Guruguru Volcano-jacket.png;
#CDIMAGE:;
#DISCIMAGE:;
#LYRICSPATH:;
#CDTITLE:;
#MUSIC:Guruguru Volcano.ogg;
#OFFSET:0.000000;
#SAMPLESTART:13.379999;
#SAMPLELENGTH:13.440000;
#SELECTABLE:YES;
#BPMS:0.000=143.015;
#STOPS:96.000=1.259,
177.000=1.259,
182.000=1.259;
#DELAYS:;
#WARPS:;
#TIMESIGNATURES:0.000=4=4;
#TICKCOUNTS:0.000=4;
#COMBOS:0.000=1;
#SPEEDS:0.000=1.000=0.000=0;
#SCROLLS:0.000=1.000;
#FAKES:;
#LABELS:0.000=Song Start;
#BGCHANGES:;
#KEYSOUNDS:;
#ATTACKS:
;

//---------------dance-single - ----------------
#NOTEDATA:;
#CHARTNAME:;
#STEPSTYPE:dance-single;
#DESCRIPTION:;
#CHARTSTYLE:;
#DIFFICULTY:Hard;
#METER:10;
#RADARVALUES:0.833979,0.852448,0.000000,0.202002,1.000000,558.000000,0.000000,20.000000,0.000000,0.000000,0.000000,0.000000,0.000000,0.833979,0.852448,0.000000,0.202002,1.000000,558.000000,0.000000,20.000000,0.000000,0.000000,0.000000,0.000000,0.000000;
#CREDIT:;
#NOTES:
0000
0000
0000
0000
,
0000
0000
0000
0000
,
0000
0000
0000
0000
,
0000
0000
0000
0000
,
1000
0100
0000
0100
0010
0000
0010
0001
0000
0001
1000
0000
0010
0100
0010
0000
,
0100
0001
0000
0001
1000
0000
1000
0010
0000
0010
0100
0000
0001
1000
0001
0000
,
0010
0100
0000
0100
1000
0000
1000
0001
0000
0001
0010
0000
0100
1000
0100
0000
,
0010
0001
0000
0001
1000
0000
1000
0100
0000
0100
0010
0000
0001
0100
0001
0000
,
1000
0100
0010
0000
0001
0100
0010
0100
0010
1000
0100
0010
0100
0010
0001
0100
,
0010
1000
0100
0010
0001
0100
0010
0100
0020
0000
0000
0000
0000
0000
0000
0000
,
1030
0000
0001
0000
0100
0010
1000
0010
1000
0100
1000
0001
0010
0100
1000
0100
,
1000
0010
1000
0001
0100
0010
0100
0010
0200
0000
0000
0000
0000
0000
0000
0000
,
0310
0000
1000
0000
0100
0010
0001
0010
0001
0100
0010
1000
0001
0010
0100
0010
,
0100
1000
0001
0010
0100
1000
0010
1000
0020
0000
0000
0000
0000
0000
0000
0000
,
0130
0001
1000
0010
0100
0001
1000
0010
0200
0000
0000
0000
0000
0000
0000
0000
,
0001
0010
1000
0010
,
0310
0000
1000
0000
0001
0010
0100
1000
0001
0100
0010
0100
0010
1000
0100
0010
,
0001
1000
0010
1000
0010
0100
0001
1000
0020
0000
0000
0000
0000
0000
0000
0000
,
0130
0000
0001
0000
1000
0010
0100
0001
0010
0100
1000
0100
1000
0010
1000
0001
,
0100
0001
0010
0001
0010
0100
1000
0001
0020
0000
0000
0000
0000
0000
0000
0000
,
0130
0000
1000
0000
0010
1000
0001
0100
0010
1000
0100
1000
0100
0010
0001
1000
,
0100
1000
0001
1000
0001
0100
0001
1000
0020
0000
0000
0000
0000
0000
0000
0000
,
1030
0001
0010
0100
1000
0001
0010
0100
2000
0000
0000
0000
0000
0000
0000
0000
,
3010
0100
0010
0100
0001
1000
0001
1000
0010
0100
0010
0100
0001
1000
0001
1000
,
0020
0000
0000
0000
0130
0001
0100
0000
0100
0010
0100
0001
1000
0100
0010
0000
,
0100
1000
0010
0100
0001
0100
0001
0000
0010
0100
0010
0100
0010
0100
0010
0100
,
0010
0100
0010
0100
0010
1000
0010
0100
0001
1000
0001
0100
0010
0100
0010
1000
,
0100
1000
0100
0010
0001
0100
0000
0100
0010
0000
0010
1000
0000
1000
0001
0100
,
0001
0010
0100
1000
0001
0000
0100
0000
0010
1000
0100
1000
0100
0001
0100
0010
,
0001
1000
0010
1000
0010
0001
1000
0100
0010
0100
0001
0100
0002
0000
0000
0000
,
0000
0000
0000
0000
0103
0000
0010
0000
0100
0001
0010
0001
0010
1000
0001
0100
,
0010
0001
1000
0001
1000
0010
0001
1000
0100
0010
1000
0010
2000
0000
0000
0000
,
0000
0000
0000
0000
3001
0000
0010
0000
0100
1000
0010
1000
0010
0001
1000
0100
,
0010
0100
0001
0100
0001
0010
1000
0001
0100
1000
0010
1000
0020
0000
0000
0000
,
0000
0000
0000
0000
0130
0001
1000
0010
0100
0001
1000
0010
0200
0000
0000
0000
,
0000
0010
1000
0010
,
0001
0000
0000
0000
0301
0000
1000
0000
0010
0100
0001
0100
0001
0100
1000
0001
,
0010
0100
0001
0100
0001
0010
1000
0001
0100
0010
0001
0010
0002
0000
0000
0000
,
0000
0000
0000
0000
0103
0000
0010
0000
1000
0001
0100
0001
0100
0010
0001
1000
,
0100
0010
1000
0010
1000
0100
0001
1000
0010
0100
1000
0100
2000
0000
0000
0000
,
0000
0000
0000
0000
3001
0000
0010
0000
0100
1000
0001
1000
0001
0100
1000
0001
,
0010
0100
0001
0100
0001
0010
1000
0001
0100
0010
0001
0010
0002
0000
0000
0000
,
0000
0000
0000
0000
1003
0010
0100
0001
1000
0010
0100
0001
2000
0000
0000
0000
,
0000
0000
0000
0000
3100
1000
0100
0010
0100
0001
0100
0010
0100
1000
0001
0100
,
0010
1000
0001
1000
0002
0000
0000
0000
0103
0010
0100
0000
0000
0010
1000
0010
,
0100
0000
0000
0000
0001
0100
0001
0000
0020
0000
0000
0000
0130
1000
0001
0010
,
0100
0010
0001
1000
0010
0100
0010
0100
0001
0100
0001
0100
0020
0000
0000
0000
,
0000
0000
0000
0000
0000
0000
0000
0000
0000
0000
0000
0000
1030
0100
1000
0100
,
1000
0100
1000
0100
1000
0010
1000
0010
1000
0010
1000
0010
0100
0001
0010
0100
,
1000
0001
0100
0010
0100
0001
1000
0010
0100
0001
1000
0010
1000
0100
0010
0001
,
1000
0010
0100
0001
0010
0001
1000
0100
0010
0001
1000
0100
0010
0100
0000
0100
,
1000
0000
1000
0001
0000
0001
0100
0000
0100
0010
0100
0001
1000
0100
0000
0100
,
0010
0000
0010
0001
0000
0001
1000
0000
0010
0100
0010
1000
0001
0000
0000
0000
;

//---------------dance-single - ----------------
#NOTEDATA:;
#CHARTNAME:;
#STEPSTYPE:dance-single;
#DESCRIPTION:;
#CHARTSTYLE:;
#DIFFICULTY:Medium;
#METER:6;
#RADARVALUES:0.409775,0.426224,0.010100,0.181802,0.045450,265.000000,1.000000,18.000000,0.000000,0.000000,0.000000,0.000000,0.000000,0.409775,0.426224,0.010100,0.181802,0.045450,265.000000,1.000000,18.000000,0.000000,0.000000,0.000000,0.000000,0.000000;
#CREDIT:;
#NOTES:
0000
0000
0000
0000
,
0000
0000
0000
0000
,
0000
0000
0000
0000
,
0000
0000
0000
0000
,
1000
0000
0000
0001
0000
0000
1000
0000
0000
0010
0000
0000
0100
0000
0001
0000
,
0100
0000
0000
0010
0000
0000
0100
0000
0000
0001
0000
0000
1000
0000
0100
0000
,
1000
0000
0000
0100
0000
0000
1000
0000
0000
0001
0000
0000
0010
0000
0100
0000
,
0010
0000
0000
0001
0010
0000
0100
0010
0000
0100
1000
0000
0001
0000
0100
0000
,
0010
1000
0100
0001
1000
0010
0100
1000
,
0010
0001
1000
0100
0020
0000
0000
0000
,
0130
0001
1000
0100
0001
1000
0010
0001
,
0100
1000
0001
0010
0200
0000
0000
0000
,
0310
1000
0001
0100
1000
0001
0010
0100
,
0001
0010
1000
0001
0200
0000
0000
0000
,
0310
0001
2000
0000
,
0000
0000
0000
0000
,
3010
0100
0001
0010
1000
0001
0100
1000
,
0010
0001
1000
0100
0002
0000
0000
0000
,
1003
0100
0010
0100
1000
0010
0001
1000
,
0100
0010
1000
0100
0020
0000
0000
0000
,
0130
1000
0001
0100
1000
0001
0010
0100
,
0001
0010
1000
0001
0200
0000
0000
0000
,
0310
0100
2000
0000
,
0000
0000
0000
0000
,
0000
3001
0001
0100
,
0100
0010
0010
1000
,
1000
0000
0001
0100
0010
1000
0001
0010
,
0100
1000
0001
0100
0010
0100
0001
0010
,
0100
0010
0100
1000
0001
0100
0010
0100
,
0001
1000
0100
0001
1000
0010
0002
0000
,
0000
0000
0013
0100
1000
0010
0100
0010
,
1000
0100
0001
1000
0010
0100
2000
0000
,
0000
0000
3001
0100
0010
1000
0100
0010
,
0001
0100
1000
0001
0010
0100
0002
0000
,
0000
1003
0001
0200
,
0000
0000
0000
0000
,
0000
0000
0310
1000
0001
0100
0010
0100
,
0001
1000
0010
0001
1000
0100
0020
0000
,
0000
0000
0130
0001
1000
0100
0010
0100
,
1000
0010
0100
1000
0100
0001
0020
0000
,
0000
0000
0130
1000
0010
0100
0001
0100
,
0010
1000
0100
0001
1000
0010
0200
0000
,
0000
1300
0001
0020
,
0000
0000
0000
0000
,
0000
0000
0000
0000
0130
1000
0000
0001
,
0200
0000
0000
0000
0000
0000
0310
1000
,
0001
0100
0010
1000
0001
0100
0020
0000
,
0000
0000
0000
0000
,
0000
0000
0000
0000
0000
0000
0130
0001
,
0010
0100
1000
0001
0010
0100
0010
0001
,
0100
0010
0100
0001
0010
0100
1000
0010
,
1000
0100
0010
0001
0010
0100
1000
0001
,
1000
0010
0100
0001
0010
0100
0110
0000
;

//---------------dance-single - ----------------
#NOTEDATA:;
#CHARTNAME:;
#STEPSTYPE:dance-single;
#DESCRIPTION:;
#CHARTSTYLE:;
#DIFFICULTY:Easy;
#METER:4;
#RADARVALUES:0.326089,0.372946,0.020200,0.232302,0.000000,201.000000,2.000000,23.000000,0.000000,0.000000,0.000000,0.000000,0.000000,0.326089,0.372946,0.020200,0.232302,0.000000,201.000000,2.000000,23.000000,0.000000,0.000000,0.000000,0.000000,0.000000;
#CREDIT:;
#NOTES:
// measure 0
0000
0000
0000
0000
,  // measure 1
0000
0000
0000
0000
,  // measure 2
0000
0000
0000
0000
,  // measure 3
0000
0000
0000
0000
,  // measure 4
1000
0000
0000
0001
0000
0000
0100
0000
,  // measure 5
0010
0000
0000
0100
0000
0000
0001
0000
,  // measure 6
1000
0000
0000
0100
0000
0000
0010
0000
,  // measure 7
0002
0000
0000
0000
,  // measure 8
0103
0000
0010
1000
0010
0000
0100
0010
,  // measure 9
0100
0000
0001
1000
0002
0000
0000
0000
,  // measure 10
0013
0000
0100
1000
0100
0000
0010
0001
,  // measure 11
0010
0000
0100
0010
0200
0000
0000
0000
,  // measure 12
1300
0000
0001
0100
0001
0000
0010
0100
,  // measure 13
0010
0000
0100
1000
0200
0000
0000
0000
,  // measure 14
0310
0001
2000
0000
,  // measure 15
0000
0000
0000
0000
,  // measure 16
3010
0000
0100
0001
0100
0000
0010
1000
,  // measure 17
0010
0000
1000
0001
2000
0000
0000
0000
,  // measure 18
3100
0000
0010
0100
0010
0000
0001
0100
,  // measure 19
0001
0000
0100
0010
0200
0000
0000
0000
,  // measure 20
0310
0000
1000
0100
1000
0000
0001
0010
,  // measure 21
0001
0000
0010
0100
0020
0000
0000
0000
,  // measure 22
0031
0100
0020
0000
,  // measure 23
0000
0000
0000
0000
,  // measure 24
0000
2030
0000
3200
,  // measure 25
0000
0320
0000
0032
,  // measure 26
0000
0000
0103
0001
1000
0001
0010
0100
,  // measure 27
0010
0001
1000
0010
0100
0010
1000
0001
,  // measure 28
0100
0001
0010
0000
0100
1000
0100
0000
,  // measure 29
0010
0100
0010
0000
0001
0100
0002
0000
,  // measure 30
0000
0000
0013
0000
0100
0010
0100
0000
,  // measure 31
1000
0010
1000
0000
0010
0100
0020
0000
,  // measure 32
0000
0000
0130
0000
0001
1000
0001
0000
,  // measure 33
0010
0100
0010
0000
0100
1000
0200
0000
,  // measure 34
0000
0310
0001
2000
,  // measure 35
0000
0000
0000
0000
,  // measure 36
0000
0000
3001
0000
0100
0010
1000
0000
,  // measure 37
0100
0010
0001
0000
0100
0010
2000
0000
,  // measure 38
0000
0000
3001
0000
0010
0100
1000
0000
,  // measure 39
0010
0100
0001
0000
1000
0100
0020
0000
,  // measure 40
0000
0000
0130
0000
1000
0010
0100
0000
,  // measure 41
0001
0010
0100
0000
1000
0001
0200
0000
,  // measure 42
0000
0310
1000
0002
,  // measure 43
0000
0000
0000
0000
,  // measure 44
0000
0000
0000
0000
1003
0100
0000
0010
,  // measure 45
0100
0000
0000
0000
2000
0000
3001
0100
,  // measure 46
0001
0010
0001
0100
0010
0100
0002
0000
,  // measure 47
0000
0000
0000
0000
,  // measure 48
0000
0000
0000
0000
0000
0000
1003
0100
,  // measure 49
1000
0010
0100
0001
0100
0010
1000
0001
,  // measure 50
1000
0100
0010
0100
0010
0001
0100
0000
,  // measure 51
0000
0101
0000
0000
1000
0100
0010
0000
,  // measure 52
0000
0110
0000
0000
0001
1000
0001
0000
;
