#VERSION:0.81;
#TITLE:Endgame;
#SUBTITLE:;
#ARTIST:Waterflame;
#TITLETRANSLIT:;
#SUBTITLETRANSLIT:;
#ARTISTTRANSLIT:;
#GENRE:;
#ORIGIN:;
#CREDIT:;
#BANNER:banner.png;
#BACKGROUND:bg.png;
#PREVIEWVID:;
#JACKET:;
#CDIMAGE:;
#DISCIMAGE:;
#LYRICSPATH:;
#CDTITLE:;
#MUSIC:Waterflame - Endgame.ogg;
#OFFSET:-0.105000;
#SAMPLESTART:99.628983;
#SAMPLELENGTH:15.609756;
#SELECTABLE:YES;
#BPMS:0.000=61.500,
8.000=123.000,
24.000=61.500,
26.000=123.000,
190.000=61.500,
192.000=123.000,
258.500=61.500;
#STOPS:256.000=0.732;
#DELAYS:;
#WARPS:;
#TIMESIGNATURES:0.000=4=4;
#TICKCOUNTS:0.000=4;
#COMBOS:0.000=1;
#SPEEDS:0.000=1.000=0.000=0;
#SCROLLS:0.000=1.000;
#FAKES:;
#LABELS:0.000=Song Start;
#BGCHANGES:;
#KEYSOUNDS:;
#ATTACKS:
;

//---------------dance-single - ----------------
#NOTEDATA:;
#CHARTNAME:;
#STEPSTYPE:dance-single;
#DESCRIPTION:;
#CHARTSTYLE:;
#DIFFICULTY:Hard;
#METER:9;
#RADARVALUES:0.673283,0.579318,0.235292,0.242423,0.620316,594.000000,33.000000,34.000000,0.000000,0.000000,0.000000,0.000000,0.000000,0.673283,0.579318,0.235292,0.242423,0.620316,594.000000,33.000000,34.000000,0.000000,0.000000,0.000000,0.000000,0.000000;
#CREDIT:MRace2010;
#NOTES:
0000
0000
0000
0000
,
0000
0000
0000
0000
,
1000
0000
0000
0000
0000
0010
0100
0000
0000
0000
0000
0000
0001
0000
0000
0000
0000
0010
0100
0000
0010
0100
0000
0000
,
1000
0000
0000
0000
0000
0001
0100
0000
0000
1000
0000
0000
0100
0000
0001
0000
0000
0001
0010
0000
0100
1000
0000
0000
,
0001
0000
0000
0000
0000
0100
0010
0000
0000
1000
0000
0000
1000
0000
0000
0000
0000
0100
0010
0000
0100
0010
0000
0000
,
0001
0000
0000
0000
0000
1000
0001
0000
0000
1000
0000
0000
0010
0000
0100
0000
0000
0100
0001
0000
1000
0001
1000
0001
,
1000
0000
0000
0000
0000
0000
0000
0000
0000
0000
0000
0000
1000
0000
0000
0001
0000
1000
0002
0000
0000
0013
0000
0000
0010
0000
0000
0000
0000
0000
0010
0000
0000
0000
0000
0000
0010
0000
0000
0000
0001
0000
0000
0000
0000
0000
0001
0000
,
0100
0000
0000
0100
0000
0000
0110
0000
0000
0000
0000
0010
1000
0000
0000
1000
0000
0000
0001
0000
0010
0000
0000
0001
,
1000
0000
0000
1000
0000
0000
1000
0000
1000
0010
0000
0100
0010
0000
0000
0010
0000
0000
0010
0000
1000
0000
0000
1000
,
0100
0000
0000
0100
0000
0000
0110
0000
0000
0010
0000
0000
0011
0000
0000
0000
0000
0000
0000
0000
0001
1000
0000
0001
,
1000
0000
0000
0010
0000
0001
0000
0000
0010
1000
0000
0000
1000
0000
0000
1000
0000
0000
0001
0000
1000
0000
0000
0001
,
0100
0000
0000
0100
0000
0000
0110
0000
0000
0000
0000
0010
1000
0000
0000
1000
0000
0000
0001
0000
0010
0000
0000
0100
,
1000
0000
0000
1000
0000
0000
0001
0000
0001
0100
0000
0010
1000
0000
0000
1000
0000
0000
0001
0000
1000
0000
0000
0001
,
0010
0000
0000
0010
0000
0000
0110
0000
0000
0100
0000
0000
0110
0000
0000
0000
0000
0000
0000
0000
0010
0100
0000
1000
,
0002
0000
0000
0203
0000
0000
0320
0000
0000
1030
0000
0000
0001
0000
1000
0001
0000
0000
1000
0000
0000
0100
0000
0000
,
0010
0000
0000
1000
0000
0000
0001
0000
0000
1000
0000
0010
0001
0000
1000
0001
0000
0000
0100
0000
0000
0010
0000
1000
,
0100
0000
0000
0010
0000
0001
0100
0000
0000
0010
0000
1000
0001
0000
0000
0100
0000
0000
0010
0000
0000
1000
0000
0000
,
0001
0000
0001
0100
0000
0100
0010
0000
0010
1000
0000
0000
0001
0000
0000
0000
0000
1000
0100
0000
0000
2000
0000
0000
,
0002
0000
0000
3003
0000
1000
0001
0000
0000
0001
0000
0100
0010
0000
0100
0010
0000
0000
1000
0000
0000
0100
0000
0000
,
0001
0000
0000
0100
0000
0000
1000
0000
0000
0001
0000
0010
0100
0000
0010
0100
0000
0000
1000
0000
0000
0010
0000
0000
,
0001
0000
0000
0010
0000
0000
1000
0000
0000
0010
0000
0100
0001
0000
0000
0010
0000
0000
0100
0000
0000
1000
0000
0000
,
0001
0000
0001
0010
0000
0010
0100
0000
0100
1000
0000
0000
0001
0000
0000
0000
0000
0100
0001
0000
0000
2000
0000
0000
,
0002
0000
0000
0000
0000
0000
0000
3003
0000
0000
0000
1000
0001
0000
0000
1000
0000
0000
0010
0000
0000
0100
0000
0000
,
0001
0000
0000
1000
0000
0000
1010
0000
0000
1000
0000
0001
0010
0000
0010
0001
0000
0000
1000
0000
0000
0100
0000
0000
,
0010
0000
0000
0001
0000
0000
0011
0000
0000
0001
0000
1000
0001
0000
0001
1000
0000
0000
0001
0000
0000
1000
0000
0000
,
0001
0000
1000
0100
0000
1000
0001
0000
0100
0001
0000
0000
1001
0000
0000
0000
0000
1000
0100
0000
0000
0010
0000
0000
,
0220
0000
0000
0330
0000
0010
0100
0000
0000
0100
0000
0010
0001
0000
0001
1000
0000
0000
0100
0000
0000
0010
0000
0000
,
0001
0000
0000
1000
0000
0000
1001
0000
0000
0001
0000
0001
1000
0000
1000
0001
0000
0000
1000
0000
0000
0010
0000
0000
,
0100
0000
0000
0001
0000
0000
1001
0000
0000
0001
0000
0001
1000
0000
1000
0001
0000
0000
0100
0000
0000
1000
0000
0000
,
0100
0000
0001
0100
0000
1000
0100
0000
0001
0100
0000
0000
1001
0000
0000
0000
0000
0001
0010
0000
0000
0100
0000
0000
,
0220
0000
0000
0000
0000
0000
0330
0000
0000
0000
0000
0000
1001
0000
0000
0000
0000
0000
2001
0000
0000
0000
0000
0100
,
3010
0000
0000
0010
0000
0000
0001
0000
0000
0000
0000
0001
1000
0000
0000
0000
0000
0000
2001
0000
0000
0000
0000
0010
,
3100
0000
0000
0100
0000
0000
0001
0000
1000
0001
0000
1000
0100
0000
0000
0100
0000
0000
0100
0000
0010
0000
0000
0001
,
1000
0000
0000
1000
0000
0000
0001
0000
0000
0100
0000
0000
0110
0000
0000
0000
0000
0000
0000
0000
0010
1000
0000
0001
,
1000
0000
0000
0100
0000
0010
0000
0000
0001
1000
0000
0000
0010
0000
0000
0010
0000
0000
1000
0000
0010
0000
0000
0010
,
1000
0000
0000
0001
0000
0000
0010
0000
0000
0000
0000
0001
0100
0000
0000
0100
0000
0000
0001
0000
0100
0000
0000
0001
,
1000
0000
0000
1000
0000
0000
0100
0000
0100
1000
0000
0100
1000
0000
0000
0001
0000
0000
0100
0000
0001
0000
0000
1000
,
0100
0000
0000
0100
0000
0000
1000
0000
0000
0001
0000
0000
1001
0000
0000
0000
0000
0000
0000
0000
1000
0001
0000
1000
,
0100
0000
0000
0100
0000
0000
0100
0000
0000
0100
0000
0000
1001
0000
0000
0000
0000
0001
0100
0000
0000
0100
0000
0000
,
0010
0000
0100
0000
0000
0010
1000
0000
0010
0100
0000
0000
1001
0000
0000
0000
0000
1000
0100
0000
0000
0100
0000
0000
,
0010
0000
1000
0000
0000
0001
0200
0000
0000
0000
0000
0000
2300
0000
0000
0000
0000
0000
0010
0000
0000
0001
0000
0000
,
3020
0000
0000
0000
0000
0000
0100
0000
0000
0001
0000
0000
0130
0000
0000
0000
0000
0010
0100
0000
0000
0001
0000
0000
,
1000
0000
0000
0000
0000
0000
2001
0000
0000
0000
0000
0000
3010
0000
0000
0000
0000
1000
0010
0000
0000
0010
0000
0000
,
0100
0000
0010
0000
0000
0100
0001
0000
0100
0010
0000
0000
1001
0000
0000
0000
0000
0001
0010
0000
0000
0010
0000
0000
,
0100
0000
0001
0000
0000
1000
0020
0000
0000
0000
0000
0000
0032
0000
0000
0000
0000
0000
0100
0000
0000
1000
0000
0000
,
0203
0000
0010
1000
0320
0000
1000
0001
,
1030
0000
1000
0001
0000
0001
1000
0000
0000
0000
0000
0000
0010
0000
0000
0000
0000
0000
0010
0000
0000
0000
0000
0000
,
0200
0000
0000
0000
0000
0000
0302
0000
0000
0000
0000
0000
2003
0000
0000
0000
0000
0000
3200
0000
0000
0000
0000
0000
0310
0000
0000
0000
0000
0000
0010
0000
0000
0001
0000
0000
0000
0000
0000
1000
0000
0000
1000
0001
1000
0001
1000
0001
,
1000
0000
0001
1000
0000
0000
0001
0000
0000
0010
0000
0000
0100
0000
0000
0001
0000
0000
1000
0000
0000
0001
0000
0100
,
1000
0000
0001
1000
0000
0000
0010
0000
0000
0100
0000
0001
0010
0000
0000
0100
0000
1000
0010
0000
0000
0100
0000
0001
,
1000
0000
0000
0010
0000
0000
0100
0000
0000
0001
0000
0000
1000
0000
1000
0010
0000
0010
0100
0000
0100
0001
0000
0000
,
1000
0000
0000
0000
0000
0001
0010
0000
0000
0002
0000
0000
2000
0000
0000
3003
0000
0001
1000
0000
0000
1000
0000
0010
,
0100
0000
0010
0100
0000
0000
0001
0000
0000
0010
0000
0000
1000
0000
0000
0010
0000
0000
0001
0000
0000
1000
0000
0100
,
0010
0000
0100
0010
0000
0000
0001
0000
0000
0100
0000
0000
1000
0000
0000
0100
0000
0000
0001
0000
0000
0100
0000
0010
,
1000
0000
0000
0100
0000
0000
0010
0000
0000
0001
0000
0000
1000
0000
1000
0100
0000
0100
0010
0000
0010
0001
0000
0000
,
1000
0000
0000
0000
0000
0010
1000
0000
0000
0002
0000
0000
2000
0000
0000
0000
0000
0000
0000
3003
0000
0000
0000
0001
,
1000
0000
0000
0001
0000
0000
0100
0000
0000
0010
0000
0000
1000
0000
0000
0001
0000
0000
0101
0000
0000
0001
0000
1000
,
0100
0000
0100
1000
0000
0000
0001
0000
0000
0010
0000
0000
0100
0000
0000
1000
0000
0000
1100
0000
0000
1000
0000
0001
,
1000
0000
1000
0001
0000
0000
1000
0000
0000
0001
0000
0000
1000
0000
0001
0010
0000
0001
1000
0000
0010
1000
0000
0000
,
1001
0000
0000
0000
0000
0001
0010
0000
0000
0100
0000
0000
0220
0000
0000
0330
0000
0100
0010
0000
0000
0010
0000
0100
,
1000
0000
1000
0001
0000
0000
0010
0000
0000
0100
0000
0000
1000
0000
0000
0001
0000
0000
1001
0000
0000
1000
0000
1000
,
0001
0000
0001
1000
0000
0000
0001
0000
0000
0100
0000
0000
0010
0000
0000
1000
0000
0000
1001
0000
0000
1000
0000
1000
,
0001
0000
0001
1000
0000
0000
0010
0000
0000
0001
0000
0000
0010
0000
1000
0010
0000
0001
0010
0000
1000
0010
0000
0000
,
1001
0000
0000
0000
0000
1000
0100
0000
0000
0010
0000
0000
0220
0000
0000
0000
0000
0000
0330
0000
0000
0000
0000
0000
,
1001
0000
0000
0000
0000
0000
0010
0000
0000
0000
0000
0000
1000
0000
0000
0000
0001
0000
0010
0000
0000
0000
0001
0000
1000
0000
0000
0000
0000
0000
0010
0000
0000
0000
0000
0000
0010
0000
0000
0100
0000
0000
0000
0000
0100
0010
0000
0000
,
1001
0000
0000
0000
;

//---------------dance-single - ----------------
#NOTEDATA:;
#CHARTNAME:;
#STEPSTYPE:dance-single;
#DESCRIPTION:;
#CHARTSTYLE:;
#DIFFICULTY:Beginner;
#METER:1;
#RADARVALUES:0.132416,0.139036,0.114081,0.028520,0.000000,110.000000,16.000000,4.000000,0.000000,0.000000,0.000000,0.000000,0.000000,0.132416,0.139036,0.114081,0.028520,0.000000,110.000000,16.000000,4.000000,0.000000,0.000000,0.000000,0.000000,0.000000;
#CREDIT:;
#NOTES:
0000
0000
0000
0000
,
0000
0000
0000
0000
,
0010
0000
0000
0000
,
0100
0000
0000
0000
,
0001
0000
0000
0000
,
1000
0000
0000
0000
,
1001
0000
1000
0000
,
1000
0000
0001
0000
,
0000
0000
0100
0000
,
0100
0000
0010
0000
,
0000
0000
1000
0000
,
0100
0000
0010
0000
,
0000
0000
0001
0000
,
0100
0000
0010
0000
,
0000
0000
1000
0000
,
1000
0000
0001
0000
,
0001
0000
0100
0000
,
0010
0000
1000
0000
,
1001
0000
0001
0000
,
0001
0000
1000
0000
,
1000
0000
0100
0000
,
0010
0000
0001
0000
,
1001
0000
0100
0000
,
0100
0000
0010
0000
,
0010
0000
1000
0000
,
0100
0000
0010
0000
,
0110
0000
0010
0000
,
0010
0000
0100
0000
,
0100
0000
1000
0000
,
0010
0000
0100
0000
,
0110
0000
1001
0000
,
0000
0000
0010
0000
,
0000
0000
0100
0000
,
0000
0000
0001
0000
,
0000
0000
1001
0000
,
0000
0000
0010
0000
,
0000
0000
0100
0000
,
0000
0000
1000
0000
,
0000
0000
0001
0000
,
0001
0000
1000
0000
,
1000
0000
0002
0000
,
2003
0000
3001
0000
,
0100
0000
0010
0000
,
0010
0000
0100
0000
,
0100
0000
0020
0000
,
0230
0000
0310
0000
,
0110
0000
1001
0000
,
0000
0000
1001
0000
,
0001
0000
0001
0000
,
1000
0000
1000
0000
,
0010
0000
0100
0000
,
0001
0000
1001
0000
,
1000
0000
1000
0000
,
0001
0000
0001
0000
,
0010
0000
0100
0000
,
1000
0000
1001
0000
,
0010
0000
0010
0000
,
0100
0000
0100
0000
,
0001
0000
0010
0000
,
0100
0000
0110
0000
,
0100
0000
0100
0000
,
0010
0000
0010
0000
,
0001
0000
0100
0000
,
0010
0000
0110
0000
,
1001
0000
0000
0000
0000
0010
0000
0000
,
1001
0000
0000
0000
;

//---------------dance-single - ----------------
#NOTEDATA:;
#CHARTNAME:;
#STEPSTYPE:dance-single;
#DESCRIPTION:;
#CHARTSTYLE:;
#DIFFICULTY:Easy;
#METER:3;
#RADARVALUES:0.261776,0.301246,0.185382,0.099821,0.003565,217.000000,26.000000,14.000000,0.000000,0.000000,0.000000,0.000000,0.000000,0.261776,0.301246,0.185382,0.099821,0.003565,217.000000,26.000000,14.000000,0.000000,0.000000,0.000000,0.000000,0.000000;
#CREDIT:;
#NOTES:
0000
0000
0000
0000
,
0000
0000
0000
0000
,
1000
1001
0001
0100
,
0010
0110
0010
1000
,
0001
1001
1000
0100
,
0010
0110
0010
0001
,
1000
0000
0001
0101
,
0001
1000
0100
0100
,
0010
0100
1000
1010
,
0100
0001
0010
0000
,
0010
0001
1000
1100
,
0010
0001
0100
0100
,
0010
0100
0001
0011
,
0010
0100
1000
0000
,
0001
1000
0001
0100
,
0010
1000
1000
0100
,
0010
0001
0001
0100
,
1000
0100
0001
0000
,
1001
0000
1000
0100
,
0010
0001
0001
0100
,
0010
1000
1000
0100
,
0001
0100
1000
0000
,
1001
0000
0001
0001
,
0100
0100
0010
0010
,
1000
1000
0001
0100
,
0010
1000
0001
0000
,
1001
0000
1000
1000
,
0100
0100
0010
0010
,
0001
0001
1000
0100
,
0010
0001
1000
0000
,
1001
0000
0010
0000
,
0010
1000
0001
0000
,
1000
0000
0010
0000
,
0010
0100
1001
0000
,
1000
0000
0000
0000
0000
1000
0000
0000
0000
1000
0000
0000
0100
0000
0000
0000
0000
0000
0000
0000
0000
0000
0000
0000
,
0100
0001
1000
0000
,
0001
0000
0100
0000
,
0100
0010
1001
0000
,
0001
1000
0020
0100
,
0000
0130
2000
0001
,
0000
3001
0022
0033
,
2200
3300
0001
1000
,
0001
1000
0020
0100
,
0000
0100
2030
0001
,
0000
3001
2020
3030
,
0202
0303
2002
3003
,
1000
0001
0100
0000
,
0010
0010
1001
0000
,
1000
0100
0010
0001
,
0001
0100
0010
1000
,
1000
0100
0001
0100
,
1000
0001
1001
0000
,
0001
0100
0010
1000
,
1000
0100
0010
0001
,
0001
0100
1000
0100
,
0001
1000
1001
0000
,
1000
1000
0100
0100
,
0010
0010
0100
0100
,
1000
1000
0001
0001
,
0100
0100
0110
0000
,
0010
0010
1000
1000
,
0001
0001
0010
0010
,
0100
0100
1000
1000
,
0001
0001
1001
0000
,
0110
0000
0000
0000
0000
0001
0000
1000
,
1001
0000
0000
0000
;

//---------------dance-single - ----------------
#NOTEDATA:;
#CHARTNAME:;
#STEPSTYPE:dance-single;
#DESCRIPTION:;
#CHARTSTYLE:;
#DIFFICULTY:Medium;
#METER:6;
#RADARVALUES:0.472622,0.486628,0.256683,0.242423,0.032085,394.000000,36.000000,34.000000,0.000000,0.000000,0.000000,0.000000,0.000000,0.472622,0.486628,0.256683,0.242423,0.032085,394.000000,36.000000,34.000000,0.000000,0.000000,0.000000,0.000000,0.000000;
#CREDIT:;
#NOTES:
0000
0000
0000
0000
,
0000
0000
0000
0000
,
1000
0000
1001
0000
0001
0000
0100
0010
,
1000
0000
1001
0001
0001
0000
0010
0100
,
1000
0000
1001
1000
1000
0000
0010
0100
,
0001
0000
1001
0001
0001
0000
0010
0100
,
1001
0000
0000
0000
1000
0010
0100
0001
,
1000
0001
0100
0000
0001
0010
0100
1000
,
0001
0000
0000
1000
0000
0000
0100
0000
0000
0010
0000
0000
0001
0000
0000
0001
0000
0000
1000
0000
0001
0000
0000
0001
,
1000
1000
0010
0100
0110
0000
0000
0010
,
0020
0000
0000
0000
0000
2030
0000
0000
0000
3001
0000
0000
1000
0000
0000
0010
0000
0000
0100
0000
0000
0001
0000
0000
,
1000
1000
0001
0000
0001
0010
0100
1000
,
0001
0001
1000
0001
1000
0010
0100
0001
,
0010
0000
0000
0100
0000
0000
1000
0000
0000
0001
0000
0000
1001
0000
0000
0000
0000
0000
0000
0000
0010
1000
0000
0010
,
1000
0001
1000
0001
0010
0001
0010
0001
,
1000
0010
0100
0001
1000
0100
1000
0100
,
1000
0001
0100
0001
0010
0010
0010
0010
,
0100
1000
0001
1000
1001
0000
0001
0100
,
0020
0000
1030
0000
1000
0001
0010
0100
,
1000
0001
0010
0100
1000
0010
0100
0001
,
1000
0001
0010
0001
1000
1000
1000
1000
,
0010
0010
0100
0100
0001
0000
1000
0001
,
2002
0000
3003
0000
0001
0100
0201
0000
,
0310
0010
1010
0000
1000
0001
1001
0000
,
0001
0010
0011
0000
0001
0000
1000
0010
,
0100
0000
0001
0010
0100
0000
1000
0001
,
2000
3001
1001
0011
,
0001
1000
1001
0000
0010
0000
1010
0000
,
1000
0100
1100
0100
1000
0000
0001
0100
,
0010
0000
1000
0100
0010
0000
0001
1000
,
0002
0003
1100
0010
,
0001
0001
0100
0000
0101
0000
0010
0000
,
1000
1000
0100
0010
0001
0000
1000
0000
,
0010
0010
1000
0001
0001
0000
1000
0000
,
0001
0000
0000
0001
0000
0000
0010
0000
0000
0000
0000
0000
0100
0000
0000
1000
0000
0000
0000
0000
0001
0000
0000
0000
,
0100
0000
0000
0100
0000
0000
0010
0000
0000
0000
0000
0000
0010
0000
0000
1000
0000
0000
0000
0000
0001
0000
0000
0000
,
0010
0000
0000
0001
0000
0000
0000
0000
1000
0000
0000
0000
0010
0000
0000
1000
0000
0000
0000
0000
0000
0001
0000
0000
,
0010
0000
0001
0000
0100
0000
0000
0010
,
1000
0001
1000
0001
2000
0000
0100
0000
,
0001
3002
0203
0000
0320
0000
1000
0000
,
0001
0001
1030
0000
2020
3030
0100
0001
,
0022
0033
0100
1000
1001
0000
1000
0100
,
0010
0100
1000
0000
1002
0000
0100
0000
,
1000
1000
0023
0000
0230
0000
0001
0000
,
1000
1000
0301
0000
2200
3300
0010
0001
,
0202
0303
0010
1000
2002
3003
1000
0001
,
0100
0001
1000
0000
0001
0000
0001
0000
,
1000
0001
1000
0001
2000
0000
0000
0000
,
3100
1000
0100
1000
0001
0100
0010
1000
,
0001
0010
0001
0010
0001
1000
0010
1000
,
0100
0100
0100
0100
0010
0001
1000
0001
,
1001
0000
1000
0010
0200
0000
0301
0000
,
0001
1000
0100
0010
0001
1000
0100
0010
,
0001
0100
0010
1000
0001
1000
0100
1000
,
0001
0001
0001
0001
0100
0100
0010
0010
,
1000
0000
0001
1000
2002
0000
3003
0000
,
1000
0001
0011
0000
0001
0010
0011
0000
,
0001
1000
1010
0000
0010
1000
1010
0000
,
1000
0000
0100
0010
0001
0000
0010
0100
,
2000
3001
2002
3003
,
1000
0000
0000
0100
0000
0000
0010
0000
0000
0001
0000
0000
1000
0000
0000
0001
0000
0000
1000
0000
0000
0000
0000
0010
,
1000
0010
0100
0001
0010
0001
1000
0010
,
0100
0100
0100
0100
0001
0001
1000
1000
,
0001
0000
0010
0100
2002
0000
3003
0000
,
0000
0001
1000
0001
0000
1000
0100
0010
,
0110
0000
0000
0000
;

//---------------dance-single - ----------------
#NOTEDATA:;
#CHARTNAME:;
#STEPSTYPE:dance-single;
#DESCRIPTION:;
#CHARTSTYLE:;
#DIFFICULTY:Challenge;
#METER:10;
#RADARVALUES:0.789401,0.695182,0.356504,0.221032,0.887694,694.000000,50.000000,31.000000,0.000000,7.000000,16.000000,0.000000,0.000000,0.789401,0.695182,0.356504,0.221032,0.887694,694.000000,50.000000,31.000000,0.000000,7.000000,16.000000,0.000000,0.000000;
#CREDIT:;
#NOTES:
// measure 0
0000
0000
0000
0000
,  // measure 1
0000
0000
0000
0000
,  // measure 2
1000
0000
0000
0010
0000
0100
0010
0000
0000
1000
0000
0100
0010
0000
0001
0100
0000
0001
1000
0000
0001
1000
0000
0000
,  // measure 3
1001
0000
0000
0001
0000
0100
0010
0000
0000
0100
0000
0001
0010
0000
0100
1000
0000
0001
1000
0000
0001
1000
0000
0000
,  // measure 4
1000
0000
0000
0100
0000
0010
0001
0000
0000
0011
0000
0000
1100
0000
0000
1000
0000
0001
0100
0000
0001
1000
0000
0000
,  // measure 5
1001
0000
0000
1000
0000
0100
0010
0000
0000
0010
0000
0100
1000
0000
0001
0100
0000
0001
0010
0001
0010
0001
0010
0001
,  // measure 6
0010
0000
0010
0100
0000
0100
1000
0000
1000
0001
0000
0000
0100
0000
0000
0100
0000
0000
0010
0000
0100
0000
0000
0000
0001
0000
0000
0000
0000
0000
0001
0000
0000
0000
0000
0000
0010
0000
0000
0000
0001
0000
0000
0000
0000
0000
1000
0000
,  // measure 7
0010
0000
0000
0100
0000
0000
0110
0000
0000
0000
0000
0010
1000
0000
0000
1000
0000
0000
0010
0000
1000
0000
0000
0100
,  // measure 8
0001
0000
0000
0001
0000
0000
0100
0000
0100
0001
0000
0100
1000
0000
0000
1000
0000
0000
0010
0000
0100
0000
0000
0010
,  // measure 9
1000
0000
0000
1000
0000
0000
0100
0000
0000
0010
0000
0000
1001
0000
0000
0002
0000
0000
0103
0000
0001
0100
0000
0010
,  // measure 10
1000
0000
0000
0100
0000
0001
0000
0000
0100
1000
0000
0000
0001
0000
0000
0001
0000
0000
1000
0000
0100
0000
0000
1000
,  // measure 11
0001
0000
0000
0001
0000
0000
0101
0000
0000
0000
0000
0010
1000
0000
0000
1000
0000
0000
0100
0000
1000
0000
0000
0010
,  // measure 12
0001
0000
0000
0001
0000
0000
0010
0000
0010
0001
0000
1000
0100
0000
0000
0100
0000
0000
0010
0000
1000
0000
0000
0001
,  // measure 13
0010
0000
0000
0010
0000
0000
0001
0000
0000
1000
0000
0000
1001
0000
0000
2000
0000
0000
3100
0000
1000
0100
0000
1000
,  // measure 14
0200
0000
0000
0320
0000
0000
0032
0000
0000
2003
0000
0000
3010
0000
1000
0010
0000
0000
1000
0000
1000
0100
0000
0100
,  // measure 15
0001
0000
0001
0100
0000
0100
1000
0000
0000
0010
0000
0100
0001
0000
0100
0001
0000
0000
0010
0000
0000
1000
0000
1000
,  // measure 16
0010
0000
0010
0001
0000
0001
0100
0000
0000
0010
0000
1000
0001
0000
0010
0100
0000
1000
0001
0000
0100
0010
0000
1000
,  // measure 17
0001
0000
0010
1000
0000
0010
0001
0000
1000
0001
0000
0000
1002
0000
0000
0103
0000
0010
1000
0000
0000
1000
0000
0000
,  // measure 18
4004
0000
0000
0000
0000
0000
3000
0003
0000
0100
0000
0001
0100
0000
0000
0020
0000
0000
1000
0000
0000
0032
0000
0000
,  // measure 19
1000
0000
0000
0023
0000
0000
0130
0000
0000
0001
0000
0001
1000
0000
1000
0002
0000
0000
0010
0000
0000
0013
0000
0100
,  // measure 20
1000
0000
0001
0100
0000
0010
1000
0000
0000
0001
0000
0001
1000
0000
0100
0010
0000
0001
1000
0000
0010
0100
0000
0001
,  // measure 21
1000
0000
0010
0001
0000
0010
1000
0000
0001
1000
0000
0000
2002
0000
0000
3003
0000
1000
0100
0000
0000
0010
0000
0000
,  // measure 22
4004
0000
0000
0000
0000
0000
3003
0000
0000
0000
0000
0001
1000
0000
0010
1000
0000
0000
0100
0000
0000
0100
0000
0000
,  // measure 23
1001
0000
0000
1010
0000
0000
2001
0000
0000
3010
0000
0100
0001
0000
1000
0001
0000
0000
0100
0000
0000
0100
0000
0001
,  // measure 24
1000
0000
0000
0001
0000
0010
0001
0000
0000
1000
0000
0010
0100
0000
0100
0001
0000
0001
1000
0000
1000
0100
0000
0100
,  // measure 25
0010
0000
0010
0001
0000
0001
1000
0000
1000
0010
0000
0000
0110
0000
0000
0000
0000
1000
0001
0000
0000
1000
0000
0000
,  // measure 26
4400
0000
0000
0000
0000
0000
3300
0000
0000
0100
0000
0010
0001
0000
1000
0010
0000
0000
0010
0000
0000
0010
0000
0100
,  // measure 27
0001
0000
0000
1000
0000
0000
0100
0000
0000
0010
0000
0001
0010
0000
0001
1000
0000
0000
0010
0000
0000
0010
0000
0100
,  // measure 28
0001
0000
0001
1000
0000
1000
0001
0000
0000
1000
0000
0100
0010
0000
0010
0001
0000
0001
1000
0000
1000
0010
0000
0010
,  // measure 29
0100
0000
0100
0001
0000
0001
1000
0000
1000
0100
0000
0000
0110
0000
0000
0000
0000
1000
0001
0000
0000
0100
0000
0000
,  // measure 30
0404
0000
0000
0000
0000
0000
0303
0000
0000
0000
0000
0001
2000
0000
0000
0000
0000
0000
0200
0000
0000
0000
0000
0000
,  // measure 31
0001
0000
0000
0010
0000
0000
3311
0000
0000
0000
0000
0000
0102
0000
0000
0000
0000
0000
0200
0000
0000
0000
0000
0010
,  // measure 32
1000
0000
0000
1000
0000
0000
1313
0000
0000
0101
0000
0000
0001
0000
0000
0001
0000
0000
1000
0000
0001
0000
0000
0001
,  // measure 33
0010
0000
0000
0010
0000
0000
0100
0000
0000
0010
0000
0000
1001
0000
0000
0002
0000
0000
1003
0000
0010
1000
0000
0001
,  // measure 34
0100
0000
0000
0100
0000
0001
0000
0000
0001
1000
0000
0000
0002
0000
0000
0010
0000
0000
0000
0000
0010
0000
0000
0000
,  // measure 35
0010
0000
0000
1000
0000
0000
0203
0000
0000
0000
0000
0000
0320
0000
0000
1000
0000
0000
0000
0000
1000
0000
0000
0000
,  // measure 36
1000
0000
0000
0130
0000
0000
0000
0000
0100
0000
0000
0100
0001
0000
0000
0001
0000
0000
1000
0000
0000
0100
0000
0001
,  // measure 37
1000
0000
1000
0001
0000
0000
0100
0000
1000
0001
0000
0000
1001
0000
0000
0002
0000
0000
0103
0000
0001
0100
0000
0001
,  // measure 38
0200
0000
0000
0320
0000
0000
2030
0000
0000
3002
0000
0000
1003
0000
0000
1000
0000
0100
0010
0000
0000
0010
0000
0100
,  // measure 39
0001
0000
0100
0010
0000
0000
0001
0000
1000
0001
0000
0000
0001
0000
0000
0001
0000
0010
0100
0000
0000
0100
0000
0010
,  // measure 40
1000
0000
0010
0100
0000
0000
1000
0000
0001
1000
0000
0000
1001
0000
0000
0000
0000
1000
0001
0000
0100
0010
0000
0000
,  // measure 41
0110
0000
0000
0000
0000
0010
0100
0000
0001
1000
0000
0000
1001
0000
0000
0000
0000
0001
1000
0000
0100
1000
0000
0000
,  // measure 42
0011
0000
0000
0001
0010
0001
1000
0001
1000
0010
1000
0010
1000
0000
0000
1000
0000
0001
0010
0000
0000
0010
0000
0000
,  // measure 43
0001
0000
1000
0000
0000
0010
1000
0000
0100
0010
0000
0000
0001
0000
0000
0001
0000
1000
0100
0000
0000
0100
0000
0000
,  // measure 44
1000
0000
0001
0000
0000
0100
0001
0000
0010
0100
0000
0000
1001
0000
0000
0000
0000
0001
1000
0000
0010
0100
0000
0000
,  // measure 45
0110
0000
0000
0000
0000
0010
0100
0000
0001
1000
0000
0000
1001
0000
0000
0001
0100
0001
1000
0001
1000
0100
1000
0100
,  // measure 46
1000
0000
0000
0100
0000
0010
0001
0000
0000
1000
0000
0000
0010
0000
0000
0000
0000
0010
1000
0000
1000
0001
0000
0000
,  // measure 47
1100
0000
0000
0000
0000
0000
0110
0000
0000
0000
0000
0000
0011
0000
0000
0000
0000
0000
0101
0000
0000
0000
0000
0000
1002
0000
0000
0000
0000
0000
1000
0000
0000
1000
0000
0000
0000
0000
0000
0013
0000
0000
0100
0010
0100
0010
0100
0010
,  // measure 48
0100
0000
0100
1000
0000
0000
0001
0000
0000
0100
0000
0000
1000
0000
0000
0100
0000
0000
0001
0000
0000
1000
0000
0100
,  // measure 49
1000
0000
0001
1000
0000
0000
0010
0000
0000
0001
0000
1000
0100
0000
0000
0100
0000
0001
1000
0000
0000
1000
0000
0001
,  // measure 50
1000
0000
0100
0010
0000
0001
1000
0000
0010
0100
0000
0001
1000
0000
0100
0001
0000
0100
1000
0000
0001
1000
0000
0000
,  // measure 51
2020
0000
0000
3030
0000
1000
0010
0000
0000
0100
0000
0000
4004
0000
0000
0000
0000
0000
3003
0000
0000
0001
0000
1000
,  // measure 52
0001
0000
0000
0100
0000
0000
1000
0000
0000
0100
0000
0100
0001
0000
0001
0010
0000
0010
1000
0000
0000
0010
0000
0010
,  // measure 53
0001
0000
0000
1000
0000
0000
0010
0000
0000
0100
0000
0100
0001
0000
0001
1000
0000
1000
0100
0000
0000
0010
0100
0000
,  // measure 54
1000
0000
0010
0100
0000
0001
1000
0000
0100
0010
0000
0001
1000
0000
0010
0001
0000
0010
1000
0000
0001
1000
0000
0000
,  // measure 55
1001
0000
0000
0000
0000
1000
0100
0000
0000
0010
0000
0000
0440
0000
0000
0000
0000
0000
0330
0000
0000
0000
0000
0010
,  // measure 56
0001
0000
0100
0001
0000
0000
0010
0000
0000
0010
0000
0000
1001
0000
0000
0011
0000
0000
1002
0000
0000
0103
0000
0010
,  // measure 57
1000
0000
0001
1000
0000
0000
0010
0000
0000
0010
0000
1000
0001
0000
0000
1000
0000
0100
1000
0000
0000
0001
0000
0100
,  // measure 58
0010
0000
0010
1000
0000
1000
0001
0000
0001
0010
0000
0010
0100
0000
0100
1000
0000
1000
0001
0000
0001
0100
0000
0000
,  // measure 59
0110
0000
0000
0000
0000
0001
1000
0000
0000
0001
0000
0000
0044
0000
0000
0000
0000
0000
0033
0000
0000
0010
0000
0100
,  // measure 60
1000
0000
0001
0100
0000
0000
0100
0000
0000
0100
0000
0010
1000
0000
0000
0001
0000
0000
0010
0000
0000
0100
0000
1000
,  // measure 61
0100
0000
1000
0001
0000
0000
0100
0000
0000
0100
0000
0010
1000
0000
0000
0001
0000
0000
1000
0000
0000
0001
0000
0010
,  // measure 62
0100
0000
0100
1000
0000
1000
0001
0000
0001
0100
0000
0100
0010
0000
0010
1000
0000
1000
0001
0000
0001
0010
0000
0000
,  // measure 63
0110
0000
0000
0000
0000
0001
1000
0000
0000
0010
0000
0000
4040
0000
0000
0000
0000
0000
3030
0000
0000
0000
0000
0000
,  // measure 64
1001
0000
0000
0000
0000
0000
1000
0000
0000
0000
0000
0000
0001
0000
0000
0000
0100
0000
0001
0000
0000
0000
1000
0000
0010
0000
0000
0000
0000
0000
1000
0000
0000
0000
0000
0000
0001
0000
0000
0100
0000
0000
0000
0000
0001
1000
0000
0000
,  // measure 65
1001
0000
0000
0000
;
