#TITLE:Can't Take My Eyes Off You;
#SUBTITLE:(Almighty Definitive Mix);
#ARTIST:Jimmy Somerville;
#TITLETRANSLIT:;
#SUBTITLETRANSLIT:;
#ARTISTTRANSLIT:;
#CREDIT:;
#BANNER:Can't Take My Eyes Off You (Almighty Definitive Mix).png;
#BACKGROUND:Can't Take My Eyes Off You (Almighty Definitive Mix)-bg.png;
#LYRICSPATH:;
#CDTITLE:;
#MUSIC:Can't Take My Eyes Off You (Almighty Definitive Mix).mp3;
#OFFSET:-0.004;
#SAMPLESTART:88.651;
#SAMPLELENGTH:14.769;
#SELECTABLE:YES;
#BPMS:0.000=130.000;
#STOPS:;
#BGCHANGES:;

//---------------dance-single - Copied from----------------
#NOTES:
     dance-single:
     Copied from:
     Hard:
     7:
     0.369,0.376,0.288,0.148,0.023: // measure 1
0000
0000
0000
0000
,  // measure 2
0000
0000
0000
0000
,  // measure 3
0000
0000
0000
0000
,  // measure 4
0000
0000
0000
0000
,  // measure 5
0000
0000
0000
0000
1000
0001
0000
1000
,  // measure 6
0001
1000
0000
0010
0100
0010
0000
1000
,  // measure 7
0010
1000
0000
0100
0001
0100
0000
0010
,  // measure 8
1000
0010
0000
0100
0010
0100
0000
0000
,  // measure 9
1000
1100
0100
1100
,  // measure 10
0010
0000
0100
0010
0000
0010
0000
0001
,  // measure 11
1000
1010
1000
1010
,  // measure 12
1000
0000
0001
0100
0000
0100
0000
0100
,  // measure 13
0010
0011
0010
0011
,  // measure 14
0010
0000
0001
1000
0000
1000
0000
0010
,  // measure 15
0100
0110
0100
0110
,  // measure 16
0020
0000
0000
0000
0000
0000
0000
0030
,  // measure 17
1000
0001
1000
0010
,  // measure 18
0200
0000
0010
0000
0310
0000
0001
1000
,  // measure 19
0002
0100
0100
0100
,  // measure 20
0100
0000
0100
0000
0100
0003
0100
0000
,  // measure 21
1000
1000
0000
0000
0100
0100
0010
0000
,  // measure 22
0100
0100
0001
0000
1000
1000
0010
0000
,  // measure 23
0100
0100
0001
0000
0010
0010
1000
0000
,  // measure 24
0100
0100
0001
0000
1000
1000
0010
0000
,  // measure 25
1000
0000
0000
0010
0000
0000
0100
0000
0000
0000
0202
0000
0000
0000
0000
0000
,  // measure 26
0000
0303
0000
0000
1000
0000
0010
0000
,  // measure 27
0200
0000
0300
0001
0000
2002
0000
0000
,  // measure 28
0000
3003
0000
0000
0000
0000
0000
0000
0001
0000
0000
0100
0000
0000
0001
0000
,  // measure 29
0100
0000
0000
0001
0000
0000
1000
0000
0000
0000
2002
0000
0000
0000
0000
0000
,  // measure 30
3003
0000
0000
0000
0001
0100
0001
0100
,  // measure 31
0010
0000
1000
0000
0000
0001
0000
1001
,  // measure 32
0000
0010
0010
0000
0100
0000
1000
0000
,  // measure 33
0010
0000
0100
0001
0100
0000
0010
0000
,  // measure 34
1000
0010
1000
0000
0001
0000
0100
0000
,  // measure 35
0010
1000
0001
0200
,  // measure 36
0310
0001
1000
0010
,  // measure 37
1000
0000
0000
0010
0000
0000
0100
0000
0000
0000
0002
0000
0000
0000
0000
0000
,  // measure 38
0000
0000
0003
0000
0000
0000
0000
0000
1000
0000
0000
0010
0000
0000
0100
0000
,  // measure 39
0002
0000
0000
0000
0000
0003
0000
0100
0000
0000
0220
0000
0000
0000
0000
0000
,  // measure 40
0000
0330
0000
0000
0000
0000
0000
0000
1000
0000
0000
0000
0001
0000
0000
0000
,  // measure 41
1001
1001
1001
1001
,  // measure 42
0010
0000
0100
0010
0000
0010
0000
0100
,  // measure 43
0010
0110
0110
0110
,  // measure 44
0110
0000
1000
0010
0000
0010
0000
1000
,  // measure 45
0010
1010
0010
1010
,  // measure 46
1000
0000
0010
0100
0000
0100
0000
0010
,  // measure 47
0100
0101
0100
0101
,  // measure 48
0002
1000
1000
1003
,  // measure 49
1000
0001
1000
0001
,  // measure 50
1001
0000
0010
0100
0000
0010
1000
0000
,  // measure 51
0010
0010
0000
0100
0000
0001
0100
0010
,  // measure 52
0100
0000
0000
0001
0000
1000
0010
1000
,  // measure 53
0010
1000
0000
0001
0000
0100
0010
0100
,  // measure 54
0001
0000
0000
1000
0000
0000
0000
0000
,  // measure 55
0001
0100
0000
0010
0000
1000
0001
0000
,  // measure 56
2000
0001
0001
0001
,  // measure 57
3001
0100
0010
0100
,  // measure 58
0110
0000
1000
0010
0000
1000
0001
0000
,  // measure 59
0100
0010
0000
1000
0000
0001
0100
0001
,  // measure 60
0100
0000
0000
0101
0000
0010
1000
0010
,  // measure 61
1000
0010
0000
1010
0000
0100
0001
0000
,  // measure 62
1010
0000
0000
1100
0000
0000
0110
0000
,  // measure 63
0000
1001
0000
0000
1100
0000
0110
0000
,  // measure 64
0101
0000
0000
0022
0000
0000
0000
0000
,  // measure 65
0000
0000
0000
0033
0000
0000
0000
0000
,  // measure 66
1000
0000
0010
0000
1000
0010
1000
0000
,  // measure 67
0001
0000
0100
0000
0001
0100
0001
0000
,  // measure 68
0100
0000
0010
0000
0100
0010
0100
0000
,  // measure 69
0001
0000
1000
0000
0001
0100
1000
0010
;

//---------------dance-single - ----------------
#NOTES:
     dance-single:
     :
     Easy:
     3:
     0.206,0.295,0.171,0.101,0.000:
0000
0000
0000
0000
,
0000
0000
0000
0000
,
0000
0000
0000
0000
,
0000
0000
0000
0000
,
0100
0000
0100
0000
,
0001
0000
0001
0000
,
0010
0000
0010
0000
,
1000
0000
1000
0000
,
1001
0000
1001
0000
,
0100
0000
0100
0000
,
0110
0000
0110
0000
,
0001
0000
0001
0000
,
1100
0000
1100
0000
,
0010
0000
0010
0000
,
0011
0000
0011
0000
,
2000
0000
0000
0000
0000
0000
0000
3000
,
0000
0000
0001
0000
,
0100
0000
0001
0000
,
0100
0000
0001
0000
,
0100
0000
0001
0000
,
0010
0000
1000
0000
,
0010
0000
1000
0000
,
0010
0000
1000
0000
,
0010
0000
0000
0000
,
1000
0000
0200
0000
,
0300
0000
0010
0000
,
0001
0000
0020
0000
,
0000
0030
0000
0000
0001
0000
0000
0000
,
1000
0000
0001
0000
,
0000
0000
0100
0100
,
0010
0000
0000
1000
,
0001
0000
0100
0000
,
0010
0000
0001
0000
,
0000
0000
1000
0000
,
0001
0000
0100
1000
,
0000
0000
0010
0000
,
0100
0000
0001
1000
,
0010
0000
0100
0000
,
0001
0000
0000
1000
,
0000
0000
0000
0000
,
0110
0000
1100
0000
,
0110
0000
0011
0000
,
0110
0000
1100
0000
,
0010
0000
0100
0000
,
0011
0000
1100
0000
,
0110
0000
0000
0000
,
0011
0000
1100
0000
,
0002
0000
0000
0000
0000
0000
0000
0003
,
0000
1000
0001
1000
,
0010
0010
0100
0100
,
0001
0001
0100
0100
,
1000
1000
0100
0100
,
0001
0001
0010
0010
,
1000
1000
0010
0010
,
0001
1000
0001
1000
,
0002
0000
0000
0003
,
0000
0110
0110
0110
,
0100
0100
0001
0001
,
0010
0010
1000
1000
,
0100
0100
0100
0010
,
0100
0010
0100
0001
,
2000
0000
3000
0002
0000
0003
0200
0000
,
0300
0020
0000
0030
2000
0000
3002
0000
,
0203
0000
0300
0020
0000
0000
0000
0000
,
0000
0030
0000
0000
,
1000
0001
1000
0001
,
0100
0010
0100
0010
,
1000
0010
1000
0010
,
0100
0001
0100
0001
;

//---------------dance-single - Copied from----------------
#NOTES:
     dance-single:
     Copied from:
     Medium:
     6:
     0.308,0.375,0.047,0.117,0.019:
0000
0000
0000
0000
,
0000
0000
0000
0000
,
0000
0000
0000
0000
,
0000
0000
1000
0001
,
1000
0000
0001
0000
0100
0010
0000
0000
,
1000
0001
0000
0000
1000
0010
0000
0000
,
0100
0001
0000
0000
0010
1000
0000
0000
,
0001
0100
0000
0000
0001
0010
0000
0000
,
1000
0100
0010
0001
,
1000
0000
0001
0100
0000
0100
0000
0001
,
1000
0001
1000
0001
,
0100
0000
0010
1000
0000
1000
0000
0010
,
0100
0001
1000
0001
,
0100
0000
0010
0100
0000
0100
0000
0001
,
0100
0010
1000
0010
,
0200
0001
0001
0001
,
0301
0000
1000
0000
,
0010
1000
0010
0100
,
2000
0000
0001
3000
,
0002
0000
0103
0000
,
1000
0010
1000
0010
,
0100
0001
0100
0001
,
0020
0000
0130
0000
,
0200
0000
0310
0001
,
1000
0000
0000
0010
0000
0000
0100
0000
0000
0000
0002
0000
0000
0000
0000
0000
,
0000
0003
0000
0000
1000
0000
0010
0000
,
0200
0000
0300
0001
0000
2000
0000
0000
,
0000
3000
0000
0000
0000
0000
0000
0000
0001
0000
0000
0100
0000
0000
0001
0000
,
0100
0000
0000
0001
0000
0000
1000
0000
0000
0000
0002
0000
0000
0000
0000
0000
,
0003
0000
0000
0000
1000
0010
1000
0010
,
0100
0001
0000
1000
,
0001
0000
0100
0010
,
0001
1000
0010
1000
,
0001
1000
0010
0100
,
1000
0001
1000
0001
,
1000
0010
0100
0001
,
1000
0010
0000
0100
0000
0002
0000
0000
,
0000
0000
0003
0000
0000
0000
0000
0000
1000
0000
0000
0010
0000
0000
0100
0000
,
0002
0000
0000
0000
0000
0003
0000
1000
0000
0000
0020
0000
0000
0000
0000
0000
,
0000
0030
0000
0000
0000
0000
0000
0000
1000
0000
0000
0000
0001
0000
0000
0000
,
0011
0011
1100
1100
,
0001
0000
0100
0010
0000
0010
0000
0100
,
1000
0010
0100
0001
,
1000
0000
0010
0100
0000
0100
0000
0010
,
1000
0001
1000
0001
,
0100
0000
0001
0100
0000
0100
0000
0001
,
1000
0001
1000
0001
,
0200
0010
0010
0010
,
0310
1000
0001
1000
,
1100
0000
0000
0000
0000
0001
1000
0001
,
1000
0000
0000
0001
0000
0100
0010
0100
,
1000
0000
1000
0000
1000
0000
0001
1000
,
0001
1000
0000
0010
0000
0100
0010
0100
,
0010
0000
0010
0000
0100
0010
0100
0000
,
0001
0000
1000
0000
0010
0100
0001
0000
,
2000
0001
0001
0001
,
3001
0100
1000
0001
,
0011
0000
0100
0000
0010
0000
1000
0010
,
1000
0010
0000
0100
0000
0001
1000
0001
,
1000
0010
0100
0010
,
1000
0010
1000
0000
0001
0000
0100
0000
,
0001
0000
0000
1000
0000
0000
0010
0000
,
0000
0100
0000
0000
0001
0000
1000
0000
,
0010
0000
0000
0200
0000
0000
0000
0000
,
0000
0300
0000
0001
,
1000
0000
0010
0000
1000
0010
1000
0000
,
0001
0000
1000
0000
0010
0100
0010
0000
,
0100
0000
0001
0000
0100
0001
0100
0000
,
0010
0000
1000
0000
0001
1000
0001
0000
;

//---------------dance-single - Copied from----------------
#NOTES:
     dance-single:
     Copied from:
     Beginner:
     1:
     0.100,0.133,0.008,0.039,0.000:
0000
0000
0000
0000
,
0000
0000
0000
0000
,
0000
0000
0000
0000
,
0000
0000
0000
0000
,
1000
0000
1000
0000
,
1000
0000
1000
0000
,
0001
0000
0001
0000
,
0001
0000
0001
0000
,
0010
0000
0010
0000
,
0010
0000
0000
0000
,
0100
0000
0100
0000
,
0100
0000
0000
0000
,
1000
0000
1000
0000
,
1000
0000
0000
0000
,
0001
0000
0001
0000
,
0020
0000
0000
0000
,
0030
0000
0000
0000
,
0200
0000
0000
0000
,
0000
0300
0000
0000
0000
0000
0000
0000
,
0000
0000
0000
0000
,
2000
0000
0000
0000
,
0000
0000
0000
3000
0000
0000
0000
0000
,
0002
0000
0000
0000
,
0000
0000
0000
0003
0000
0000
0000
0000
,
0100
0000
0000
0000
0000
0010
0000
0000
,
0000
0000
0000
0000
,
0010
0000
0000
0000
0000
0100
0000
0000
,
0000
0000
0001
0000
,
1000
0000
0000
1000
,
0000
0000
0010
0000
,
0010
0000
0000
0000
0000
0000
0000
0100
,
0000
0000
0001
0000
,
1000
0000
0000
0000
0000
0001
0000
0000
,
0000
0000
0100
0000
,
0010
0000
0000
1000
,
0000
0000
0001
0000
,
0001
0000
0000
0000
0000
1000
0000
0000
,
0000
0000
1000
0000
,
0010
0000
0000
0000
0000
0100
0000
0000
,
0000
0000
0000
0000
,
0001
0000
0001
0000
,
0001
0000
0000
0000
,
0010
0000
0010
0000
,
0010
0000
0000
0000
,
0100
0000
0100
0000
,
0100
0000
0000
0000
,
1000
0000
1000
0000
,
2000
0000
0000
0000
0000
0000
0000
3000
,
0000
0001
0100
0001
,
0100
0000
0000
0000
,
0100
0000
0000
0000
,
0010
0000
0000
0000
,
0001
0000
0000
0000
,
1000
0000
0000
0000
,
0010
0000
0000
0000
,
1001
0000
0000
0000
,
0000
0100
1000
0010
,
0100
0000
0000
0000
,
0001
0000
0000
0000
,
0010
0000
0000
0000
,
0100
0000
0000
0000
,
1000
0000
0000
0000
,
0000
0000
0000
0000
,
0001
0000
0000
0000
,
0000
0000
0000
0000
,
0100
0000
0100
0000
,
1000
0000
1000
0000
,
0010
0000
0010
0000
,
0001
0000
0001
0000
;
