#VERSION:0.81;
#TITLE:Breaking The Habit;
#SUBTITLE:;
#ARTIST:Linkin Park;
#TITLETRANSLIT:;
#SUBTITLETRANSLIT:;
#ARTISTTRANSLIT:;
#GENRE:;
#ORIGIN:;
#CREDIT:;
#BANNER:banner.png;
#BACKGROUND:bg.png;
#PREVIEWVID:;
#JACKET:jkt.png;
#CDIMAGE:;
#DISCIMAGE:;
#LYRICSPATH:;
#CDTITLE:;
#MUSIC:Breaking the Habit.ogg;
#OFFSET:-10.645659;
#SAMPLESTART:48.774807;
#SAMPLELENGTH:24.293072;
#SELECTABLE:YES;
#BPMS:0.000=200.057;
#STOPS:;
#DELAYS:;
#WARPS:;
#TIMESIGNATURES:0.000=4=4;
#TICKCOUNTS:0.000=4;
#COMBOS:0.000=1;
#SPEEDS:0.000=1.000=0.000=0;
#SCROLLS:0.000=1.000;
#FAKES:;
#LABELS:0.000=Song Start;
#BGCHANGES:;
#KEYSOUNDS:;
#ATTACKS:
;

//---------------dance-single - ----------------
#NOTEDATA:;
#CHARTNAME:;
#STEPSTYPE:dance-single;
#DESCRIPTION:;
#CHARTSTYLE:;
#DIFFICULTY:Hard;
#METER:8;
#RADARVALUES:0.554836,0.546300,0.227625,0.021340,0.000000,511.000000,32.000000,3.000000,0.000000,0.000000,0.000000,0.000000,0.000000,0.554836,0.546300,0.227625,0.021340,0.000000,511.000000,32.000000,3.000000,0.000000,0.000000,0.000000,0.000000,0.000000;
#CREDIT:;
#DISPLAYBPM:0.000000;
#NOTES:
1100
0000
1000
0001
0000
0001
0100
0000
,
0110
0000
0010
1000
0000
1000
0001
0000
,
0011
0000
0010
1000
0000
1000
0010
0000
,
0110
0000
0100
1000
0000
1000
0001
0000
,
0101
0000
0100
0010
0000
0010
1000
0000
,
1010
0000
1000
0001
0000
0001
0010
0000
,
0110
0000
0100
0001
0000
0001
0100
0000
,
1100
0000
1000
0001
0000
0001
0100
0000
,
0010
0000
1000
0010
0000
0010
1000
0000
,
0001
0000
0010
0001
0000
0001
0010
0000
,
0100
0000
1000
0100
0000
0100
1000
0000
,
0001
0000
0100
0001
0000
0001
0100
0000
,
0010
0000
0100
0010
0000
0010
0100
0000
,
0001
0000
1000
0001
0000
0001
1000
0000
,
0100
0000
0100
0010
0000
0010
0100
0000
,
1000
0000
1000
0001
0000
0001
1000
0000
,
0001
0000
0100
0010
0000
0100
0001
0000
,
1000
0000
0100
0010
0000
0100
1000
0000
,
0001
0000
0100
1000
0000
0100
0001
0000
,
1000
0000
0100
0001
0000
0100
1000
0000
,
0010
0000
0100
0001
0000
0001
0100
0000
,
0010
0000
1000
0001
0000
0001
1000
0000
,
0001
0000
0010
1000
0000
0010
0001
0000
,
1000
0000
0010
0001
1000
0100
0001
0000
,
0010
0000
0001
1000
0000
0000
1010
0000
,
0100
0000
0001
1000
0000
0000
0000
0100
,
1000
0010
0000
0100
0000
0001
0000
0201
,
0000
0010
0000
0310
,
1000
0000
0000
1100
0000
0000
0011
0000
,
0100
0000
0000
1100
0000
0000
0000
1000
,
0001
0000
0100
0010
0000
0000
0100
0000
,
0002
0003
0000
1000
,
1001
0000
0001
0010
0100
1000
0010
0000
,
1000
0000
0001
0010
0100
1000
0001
0000
,
0100
0000
0010
0100
0001
1000
0100
0000
,
0010
0000
0100
1000
0010
1000
0001
0000
,
0100
0000
0010
0100
0001
0010
0100
0000
,
1000
0000
0100
0010
0001
1000
0010
0000
,
0100
0000
0001
1000
0100
0010
0100
0000
,
1000
0000
0010
0100
0001
0100
0010
0000
,
1000
0000
0001
0010
0001
1000
0010
0000
,
0110
0000
0101
0000
1001
0000
1000
0100
,
1000
0000
0001
0010
0000
0110
0000
1100
,
0000
1000
0001
0100
0010
0000
0100
0000
,
0001
0100
0001
0100
0010
1000
0001
0000
,
0010
0001
0010
0001
1000
0100
0010
0000
,
0100
0010
0100
0010
0100
1000
0010
0000
,
1000
0010
1000
0010
1000
0001
0010
0000
,
0100
0010
0100
0010
0100
1000
0001
0000
,
0100
0001
0100
0001
0100
0010
1000
0000
,
0001
0000
0010
0001
0010
0001
1000
0000
,
0010
0000
0100
0001
0100
0001
1000
0100
,
0010
0000
0001
0010
0100
1000
0001
0000
,
0101
0000
0100
0010
0000
1010
0000
0000
,
0101
0000
0001
0000
1000
0100
1000
0000
,
0010
0000
0100
0000
0001
1000
0100
0000
,
0010
0000
0100
1000
0010
1000
0001
0000
,
0011
0000
0010
0001
0000
1001
0000
0000
,
1010
0000
0010
0100
0001
0100
0010
0000
,
1000
0000
0001
0010
0100
0010
0001
0000
,
0011
0000
0001
1000
0010
1000
0100
0000
,
0110
0000
0010
0001
0000
1001
0000
1000
,
0010
1000
0001
0010
0100
0010
0001
1000
,
0010
0100
0001
0100
0010
1000
0001
0010
,
0100
0000
1000
0100
0000
0010
0001
1000
,
0010
0000
0010
1000
0000
0001
0010
0000
,
0100
1000
0100
0010
0001
0100
0010
1000
,
0000
1000
0001
0010
0001
1000
0010
0000
,
1000
0100
0010
0001
0000
1000
0010
0000
,
1000
0001
0010
0100
0000
1000
0100
0000
,
0010
0001
0100
1000
0000
1000
0100
0000
,
0001
1000
0100
0001
0000
0001
0100
0000
,
0010
0001
1000
0010
0000
0100
0001
0000
,
1000
0100
0010
0100
0000
1000
0001
0000
,
1000
0010
0001
0010
0000
0010
1000
0000
,
0001
0010
1000
0010
0000
0010
0001
0000
,
1000
0010
0100
0001
0000
0001
0100
0000
,
0110
0000
1010
0000
1001
0000
0001
0010
,
0100
0000
1000
0100
0000
0010
0000
0011
,
0000
0100
0000
1000
0001
0000
0100
0000
,
0010
0000
1000
0100
1000
0010
0100
0000
,
0001
0000
0010
0001
1000
0100
0010
0000
,
0100
0000
1000
0001
0100
0010
1000
0000
,
0001
0000
0010
0001
1000
0010
0100
0000
,
0001
0000
0100
0010
1000
0001
0010
0000
,
0100
0000
1000
0100
0001
0100
0010
0000
,
0001
0000
1000
0010
0100
0001
0010
0000
,
0100
0000
1000
0010
0001
0010
1000
0100
,
0010
0000
0001
0100
1000
0100
0001
0010
,
0100
0000
1000
0010
0001
0010
0100
0001
,
0010
0000
1000
0010
0001
1000
0010
0100
,
0001
0000
0100
0010
1000
0001
0010
0200
,
0000
0000
0000
0000
,
0000
0000
0000
0000
,
0000
0000
0000
0000
,
0000
0000
0000
0000
,
0300
0000
0000
0000
;

//---------------dance-single - ----------------
#NOTEDATA:;
#CHARTNAME:;
#STEPSTYPE:dance-single;
#DESCRIPTION:;
#CHARTSTYLE:;
#DIFFICULTY:Medium;
#METER:6;
#RADARVALUES:0.444072,0.409725,0.270305,0.391231,0.000000,344.000000,38.000000,55.000000,0.000000,0.000000,0.000000,0.000000,0.000000,0.444072,0.409725,0.270305,0.391231,0.000000,344.000000,38.000000,55.000000,0.000000,0.000000,0.000000,0.000000,0.000000;
#CREDIT:;
#DISPLAYBPM:0.000000;
#NOTES:
1100
0000
0000
1001
0000
1000
0010
0000
,
0110
0000
0000
0101
0000
0001
0010
0000
,
0110
0000
0000
0011
0000
0100
1000
0000
,
1001
0000
0000
1100
0000
1000
0010
0000
,
0110
0000
0000
0101
0000
0100
0010
0000
,
1010
0000
0000
1001
0000
0001
0010
0000
,
0110
0000
0000
1100
0000
1000
0001
0000
,
0101
0000
0000
1010
0000
0010
0100
0000
,
0002
0000
2003
0000
,
3200
0000
0320
0000
,
0032
0000
0000
0103
,
0010
0000
0100
0002
0000
0000
1003
0200
,
0000
0000
0000
0310
,
0100
0000
1000
0001
0000
0000
0100
0000
,
0010
0000
1000
0200
0000
0000
0010
0000
,
0010
0010
0010
0010
,
0310
0100
2000
0000
,
3002
0000
0203
0000
,
0320
0000
1030
0100
,
1000
0000
0001
0200
0000
0000
0310
0200
,
0000
0001
0000
0301
,
1000
0000
0100
0010
0000
0000
0100
0000
,
1000
0000
0001
0020
0000
0000
0100
0000
,
0100
0000
0100
0000
0130
0100
0100
0000
,
0010
0000
0100
1000
0000
0000
0001
0000
,
0100
0000
0010
1000
0000
0000
0001
0000
,
0010
0001
0000
1000
0000
0010
0000
0210
,
0000
0001
0000
0310
,
2000
0000
0000
0100
0000
0000
3001
0000
,
0002
0000
0000
0010
0000
0000
1003
0000
,
1000
0000
1000
0010
0000
0000
0100
0000
,
0002
0000
0000
1003
,
0010
0000
1000
0100
0000
0010
0000
0000
,
0001
1000
0000
0010
0000
0000
0000
0100
,
0001
0000
0010
0100
0000
1000
0000
2001
,
0000
0000
0000
3001
,
0100
0000
0010
0100
0000
0001
0000
0000
,
0011
0000
0010
0100
0000
0000
0000
1000
,
0100
0000
0010
0001
0000
1000
0000
2010
,
0000
0000
0000
3001
,
0100
0000
0010
0100
0000
0001
0000
0000
,
0101
0000
0110
0000
1010
0000
0000
1000
,
0001
0000
0010
0100
0000
1000
0000
0002
,
0000
0000
1003
0010
,
0200
0001
0001
0001
,
0302
0000
1000
0000
2000
0003
0100
0000
,
3200
0010
0010
0010
,
0320
0100
0100
0100
,
0230
1000
1000
1000
,
2300
0001
3002
0100
,
0203
0010
0010
0010
,
0320
0000
0100
0000
0100
0000
0130
0010
,
1000
0100
1000
0001
,
0010
0000
0001
0100
0000
0010
0000
0000
,
2010
0100
0001
0100
,
0010
0001
0010
0001
,
3100
0010
0001
1000
,
0010
0000
0100
0001
0000
0010
0000
0000
,
0012
0100
1000
0010
,
0100
0010
1000
0100
,
0013
0001
0100
0010
,
1000
0000
0100
0010
0000
0001
0000
0000
,
0201
1000
0010
0001
,
1000
0010
0001
0310
,
0100
0001
0100
0010
,
1000
0000
0001
0010
0000
0100
0000
0000
,
2100
0001
0001
0001
,
3002
1000
1000
1003
,
1010
0000
0010
0100
0000
0001
0000
0000
,
1000
0100
0000
0010
0000
0000
0000
0100
,
1000
0000
0001
0100
0000
0010
0000
0210
,
0000
0000
0000
0310
,
0100
0000
0001
1000
0000
0100
0000
0000
,
0110
0000
0010
0001
0000
0000
0000
1000
,
0100
0000
1000
0010
0000
0100
0000
0102
,
0000
1000
0000
1003
,
0100
0000
0010
0001
0000
0010
0000
0000
,
0011
0000
0110
0000
1100
0000
0000
1000
,
0001
0000
0100
0010
0000
0100
0000
0101
,
0000
0000
0110
1010
,
2001
0100
0001
0100
,
3002
0010
2003
0010
,
3002
0100
1000
0100
,
2003
0010
0100
0001
,
3020
1000
0100
1000
,
0230
0001
0320
1000
,
0230
0001
0010
1000
,
0320
1000
0100
0001
,
2030
0100
0001
0010
,
3200
0001
0320
1000
,
0032
0100
1000
0010
,
0203
0010
1000
0301
,
2000
0000
0000
0000
,
0000
0000
0000
0000
,
0000
0000
0000
0000
,
0000
0000
0000
0000
,
3000
0000
0000
0000
;

//---------------dance-single - ----------------
#NOTEDATA:;
#CHARTNAME:;
#STEPSTYPE:dance-single;
#DESCRIPTION:;
#CHARTSTYLE:;
#DIFFICULTY:Easy;
#METER:4;
#RADARVALUES:0.280467,0.327211,0.042680,0.348551,0.000000,221.000000,6.000000,49.000000,0.000000,0.000000,0.000000,0.000000,0.000000,0.280467,0.327211,0.042680,0.348551,0.000000,221.000000,6.000000,49.000000,0.000000,0.000000,0.000000,0.000000,0.000000;
#CREDIT:;
#DISPLAYBPM:0.000000;
#NOTES:
1000
0000
0000
0100
0000
0000
1000
0000
,
0001
0000
0000
0100
0000
0000
0001
0000
,
1000
0000
0000
0010
0000
0000
1000
0000
,
0001
0000
0000
0010
0000
0000
0001
0000
,
0100
0000
0000
0010
0000
0000
0100
0000
,
0001
0000
0000
1000
0000
0000
0001
0000
,
0010
0000
0000
0100
0000
0000
1000
0000
,
0010
0000
0000
0100
0000
0000
0001
0000
,
0010
0000
0200
0000
,
2300
0000
3002
0000
,
0203
0000
0000
0310
,
0020
0000
0230
0000
,
0302
0000
0000
1000
,
2003
0000
3200
0000
,
0320
0000
0001
0000
,
0001
0000
0001
0000
,
0032
0000
0203
0000
,
0320
0000
2030
0000
,
3200
0000
0000
1000
,
2300
0000
3002
0000
,
0203
0000
0010
0000
,
0320
0000
2030
0000
,
3200
0000
0320
0000
,
0100
0000
0130
0000
,
1000
0000
1000
0000
,
0001
0000
0001
0000
,
0100
0000
0100
0000
,
0010
0000
0000
0000
,
0100
0000
0100
0000
,
0001
0000
0001
0000
,
1000
0000
0100
0000
,
0010
0000
0000
0010
,
0001
0010
0001
0100
,
0010
1000
0001
0000
,
0010
0001
1000
0010
,
0100
0001
0010
0000
,
0001
1000
0100
1000
,
0010
0100
0001
0000
,
0010
0001
1000
0010
,
0100
0001
0010
0000
,
0001
1000
0010
0100
,
0110
0110
0110
0000
,
0010
1000
0001
0010
,
0100
0000
1000
0001
,
2000
0000
0000
0000
,
3020
0000
0230
0000
,
0302
0000
0000
0000
,
1003
0000
0000
0100
,
2000
0000
0000
0000
,
3020
0000
0230
0000
,
0302
0000
0000
0000
,
1003
0000
0000
1000
,
0010
0100
0001
0010
,
0100
1000
0010
0100
,
0002
0000
0000
0000
,
0000
0000
0000
0000
,
0103
0010
1000
0100
,
0010
0001
0100
0010
,
2000
0000
0000
0000
,
0000
0000
0000
0000
,
3001
0010
0100
1000
,
0010
0100
0001
0010
,
0200
0000
0000
0000
,
0000
0000
0000
0000
,
1300
0010
0100
0001
,
0010
0100
1000
0001
,
0020
0000
0000
0000
,
0230
0000
0000
0000
,
1300
0010
0100
0001
,
0010
0001
1000
0000
,
0010
0100
0001
1000
,
0100
0010
0001
0000
,
0010
0100
1000
0001
,
0100
0010
1000
0000
,
0010
1000
0001
0010
,
0100
0000
0000
0000
,
1000
0010
0100
0001
,
1001
1001
1001
0000
,
0001
0010
0100
1000
,
0010
0100
0001
1000
,
0200
0000
0000
0000
,
0320
0000
0032
0000
,
2003
0000
0000
0000
,
3020
0000
0000
0130
,
0200
0000
0000
0000
,
0302
0000
2003
0000
,
3200
0000
0000
0000
,
0310
0000
0000
0100
,
2000
0000
0000
0000
,
3002
0000
0203
0000
,
0320
0000
0000
0000
,
2030
0000
0000
0000
,
3001
0000
0000
0000
;

//---------------dance-single - ----------------
#NOTEDATA:;
#CHARTNAME:;
#STEPSTYPE:dance-single;
#DESCRIPTION:;
#CHARTSTYLE:;
#DIFFICULTY:Beginner;
#METER:1;
#RADARVALUES:0.086376,0.098163,0.021340,0.071133,0.000000,72.000000,3.000000,10.000000,0.000000,0.000000,0.000000,0.000000,0.000000,0.086376,0.098163,0.021340,0.071133,0.000000,72.000000,3.000000,10.000000,0.000000,0.000000,0.000000,0.000000,0.000000;
#CREDIT:;
#DISPLAYBPM:0.000000;
#NOTES:
1000
0000
0000
0000
,
1000
0000
0000
0000
,
0001
0000
0000
0000
,
0001
0000
0000
0000
,
0100
0000
0000
0000
,
0100
0000
0000
0000
,
0010
0000
0000
0000
,
0010
0000
0000
0000
,
1000
0000
0000
0000
,
0100
0000
0000
0000
,
1000
0000
0000
0000
,
0000
0000
0000
0000
,
0001
0000
0000
0000
,
0100
0000
0000
0000
,
0001
0000
0000
0000
,
0000
0000
0000
0000
,
0010
0000
0000
0000
,
0100
0000
0000
0000
,
0010
0000
0000
0000
,
0000
0000
0000
0000
,
0100
0000
0000
0000
,
1000
0000
0000
0000
,
0001
0000
0000
0000
,
0000
0000
0000
0000
,
0100
0000
0000
0000
,
0010
0000
0000
0000
,
1000
0000
0000
0000
,
0001
0000
0000
0000
,
0010
0000
0000
0000
,
0100
0000
0000
0000
,
1000
0000
0000
0000
,
0000
0000
0000
0000
,
1001
0000
0000
0000
,
0010
0000
0000
0000
,
1000
0000
0000
0000
,
0000
0000
0000
0000
,
0001
0000
0000
0000
,
0010
0000
0000
0000
,
0001
0000
0000
0000
,
0000
0000
0000
0000
,
0100
0000
0000
0000
,
0010
0000
0000
0000
,
0100
0000
0000
0000
,
0000
0000
0000
0000
,
0001
0000
0000
0000
,
1000
0000
0000
0000
,
0001
0000
0000
0000
,
0000
0000
0000
0000
,
1000
0000
0000
0000
,
0001
0000
0000
0000
,
1000
0000
0000
0000
,
0001
0000
0000
0000
,
0110
0000
0000
0000
,
0100
0000
0000
0000
,
0020
0000
0000
0000
,
0030
0000
0000
0000
,
0100
0000
0000
0000
,
0010
0000
0000
0000
,
0200
0000
0000
0000
,
0300
0000
0000
0000
,
0001
0000
0000
0000
,
1000
0000
0000
0000
,
0002
0000
0000
0000
,
0003
0000
0000
0000
,
1000
0000
0000
0000
,
0001
0000
0000
0000
,
2000
0000
0000
0000
,
3000
0000
0000
0000
,
0010
0000
0000
0000
,
0100
0000
0000
0000
,
0010
0000
0000
0000
,
0000
0000
0000
0000
,
1000
0000
0000
0000
,
0001
0000
0000
0000
,
1000
0000
0000
0000
,
0000
0000
0000
0000
,
0001
0000
0000
0000
,
0010
0000
0000
0000
,
0100
0000
0000
0000
,
1000
0000
0000
0000
,
0002
0000
0000
0000
,
0003
0000
0000
0000
,
2000
0000
0000
0000
,
3000
0000
0000
0000
,
0020
0000
0000
0000
,
0030
0000
0000
0000
,
0200
0000
0000
0000
,
0300
0000
0000
0000
,
0002
0000
0000
0000
,
0003
0000
0000
0000
,
2000
0000
0000
0000
,
3000
0000
0000
0000
,
1001
0000
0000
0000
;
