#TITLE:Bamboo on Bamboo;
#SUBTITLE:;
#ARTIST:sampling masters MEGA;
#TITLETRANSLIT:;
#SUBTITLETRANSLIT:;
#ARTISTTRANSLIT:;
#GENRE:;
#CREDIT:;
#BANNER:[Round 8] - Bamboo on Bamboo.png;
#BACKGROUND:[Round 8] - Bamboo on Bamboo-bg.png;
#LYRICSPATH:;
#CDTITLE:cdtitle.png;
#MUSIC:[Round 8] - Bamboo on Bamboo.mp3;
#OFFSET:-0.200000;
#SAMPLESTART:9.765985;
#SAMPLELENGTH:19.200003;
#SELECTABLE:YES;
#BPMS:0.000000=200.000000
,378.000000=50.000000
;
#STOPS:76.000000=0.600000,
90.000000=0.600000,
136.000000=0.600000,
150.000000=0.600000,
264.000000=0.300000,
264.500000=0.300000,
265.000000=0.300000,
265.500000=0.300000,
353.000000=0.300000,
360.000000=0.300000
;
#BGCHANGES:;
#KEYSOUNDS:;
#ATTACKS:;

//---------------dance-single - ----------------
#NOTES:
     dance-single:
     :
     Challenge:
     9:
     0.810708,0.822632,0.489356,0.315714,0.209160,617.000000,62.000000,40.000000,0.000000,0.000000,4.000000,0.810708,0.822632,0.489356,0.315714,0.209160,617.000000,62.000000,40.000000,0.000000,0.000000,4.000000:
0000
0000
0000
0000
,
0000
0000
0000
0000
,
0000
0000
0000
0000
,
0000
0000
0000
0000
,
1001
0000
0001
0100
0000
0001
0010
0000
,
0001
1000
0000
0100
1000
0001
0000
1000
,
0010
0000
1000
0100
0000
1000
0010
0000
,
1000
0000
0001
0000
0000
0000
1000
0000
0001
0000
0100
0000
0010
0100
0010
0100
,
0020
0000
1030
0000
0001
0100
0010
1000
,
0000
1000
0100
0010
0001
0000
0010
0001
,
1000
0000
1001
0001
0100
0000
1001
0000
,
1000
0000
0001
0000
1001
0000
1000
0000
0100
0000
0000
0000
0010
0001
0010
0001
,
2000
0000
3001
0000
0100
0010
1000
0100
,
0000
0010
0001
0100
0010
0000
1000
0001
,
0010
0000
1001
1000
0100
0000
1001
0001
,
0100
0000
0100
0000
0100
0000
0100
0000
0010
0000
0010
0000
0010
1000
0010
1000
,
0001
0000
1001
0000
1000
0100
0001
0100
,
1000
1001
0000
1001
0000
0001
0100
0010
,
1000
0000
1001
0000
0001
0100
1000
0100
,
0110
0000
0000
0000
0001
1000
0001
1000
0001
0000
0000
0000
1001
0000
0000
0000
,
1000
0010
0001
0010
1000
1001
0000
1001
,
0000
0001
0010
0100
1000
0000
1001
0000
,
0001
0010
1000
0010
0110
0000
0110
0000
,
1002
0000
0103
0000
0010
1000
0100
0010
,
0000
0001
0100
0010
1000
0000
0001
1000
,
0100
0000
0110
0010
0001
0000
1001
0000
,
0001
0000
0100
0000
0110
0000
0010
0000
1000
0000
0000
0000
0001
1000
0001
1000
,
0200
0000
0310
0000
0100
1000
0001
0100
,
0000
0010
1000
0001
0010
0000
0001
0100
,
0010
0000
0110
0100
0001
0000
1001
1000
,
0100
0000
0100
0000
0100
0000
0100
0000
0010
0000
0010
0000
0010
0001
0010
0001
,
1000
0000
1100
0000
1000
0010
0001
0010
,
1000
1010
0000
0101
0000
0100
0001
1000
,
0001
0000
0101
0000
0100
1000
0100
0001
,
1001
0000
0000
0000
0001
1000
0001
1000
0001
0000
0000
0000
0101
0000
0000
0000
,
0001
0010
1000
0010
0001
0011
0000
1100
,
0000
0100
1000
0001
1000
0000
1100
0000
,
0100
0000
0001
0000
0100
0000
1000
0000
1002
0000
0003
0000
1000
0001
1000
0001
,
2000
0100
0000
3001
0000
0001
2000
0100
,
0000
0000
3001
0000
0000
0000
0001
0000
1000
0000
0100
0000
0010
0000
0001
1000
,
0002
0100
0000
1003
0000
1000
0002
0100
,
0000
0000
1003
0000
0000
0000
1000
0000
1001
0000
0000
0000
0001
1000
0001
1000
,
0200
0010
0000
1300
0000
1000
0200
0010
,
0000
0000
1300
0000
0000
0000
1000
0000
0100
0000
0010
0000
0001
0000
0100
0010
,
0200
0001
0000
0310
0000
0010
0200
0001
,
0000
0000
0000
0310
0000
0000
0000
0000
0000
0010
0000
0000
1000
0000
0001
0000
1000
0000
0100
0000
0010
0000
0001
0000
,
2000
0100
0000
3001
0000
1000
0002
0100
,
0000
0000
1003
0000
0000
0000
0001
0000
1000
0000
0100
0000
0010
0000
0001
1000
,
0002
0100
0000
1003
0000
0001
2000
0100
,
0000
0000
3001
0000
0000
0000
1000
0000
1010
0000
0000
0000
0010
1000
0010
1000
,
0002
0100
0000
1003
0000
0010
2000
0100
,
0000
0000
3001
0000
0000
0000
0010
0000
0001
0000
0100
0000
0010
0000
1000
0001
,
1000
0100
0000
0110
0000
0010
0001
0100
,
0000
0000
0000
0110
0000
0000
0000
0000
0000
0010
0000
0000
1000
0000
0010
0000
0100
0000
0001
0000
1000
0000
0001
0000
,
1000
0100
0010
0002
0000
0103
0001
0100
,
1000
0100
0000
0100
0001
1000
0100
0020
,
0000
0031
1000
0001
0100
0001
0000
0001
,
0010
0100
1000
0020
0000
0130
1000
0100
,
0010
0100
0000
0100
0001
0010
0100
2000
,
0000
0000
3001
0000
2002
0000
0000
0000
3003
0000
0001
1000
0001
0000
1000
0000
,
0001
0010
0100
2000
0000
3010
0001
0010
,
1000
0010
0000
0010
0100
0001
0010
0200
,
0000
1300
0100
1000
0010
1000
0000
1000
,
0100
0010
0001
0200
0000
0310
0001
0010
,
1000
0010
0000
0010
0100
0001
1000
0200
,
0000
0310
0001
1002
0000
0020
0003
0031
,
0011
1100
1010
0101
1000
0001
1000
0001
,
0010
0100
0010
0100
1000
0001
1000
0001
,
0100
0010
0000
0100
0010
0000
1000
0000
0001
0000
1000
0000
0001
0010
0000
0100
,
0010
0000
0100
0000
1000
0000
0001
0000
0100
0010
0100
0010
0100
0010
0100
0010
,
0400
0040
0000
0000
0000
0000
0300
0030
4000
0004
0000
0000
0000
0000
3000
0003
,
1000
0100
0010
0100
1000
0001
0010
0001
,
0100
0010
1000
0010
0001
0010
1000
0100
,
0110
0000
0010
0001
0100
0000
0110
0000
,
0010
0000
0100
0000
0110
0000
0010
0000
1000
0000
0001
0000
1000
0100
1000
0100
,
0010
0001
0100
0001
0010
0100
1000
0100
,
0010
0001
0100
1000
0100
0001
0010
0100
,
1100
0000
0010
0001
0100
0000
1010
1000
,
0001
0000
0001
0000
0001
0000
0001
0000
1000
0000
1000
0000
0001
1000
0001
1000
,
0200
0000
0301
0200
1000
0300
0110
0000
,
0010
0000
0010
0000
0001
0000
0001
0000
0100
0000
0100
0000
0010
1000
0010
0000
,
0200
0000
1300
0200
0001
0300
0110
0000
,
0010
0000
0010
0010
1000
1000
0001
0010
,
0120
0000
1030
0020
0001
0030
0110
0000
,
0100
0000
0100
0000
1000
0000
1000
0000
0001
0000
0001
0000
1000
0010
1000
0000
,
0020
0000
0031
0020
1000
0030
0110
0000
,
1001
0000
0001
1000
0001
1000
0100
0000
,
1001
0000
0001
0100
0010
0000
0110
0000
,
1001
0000
1001
0110
0000
0001
1000
0000
,
0100
1000
0010
0000
0101
0000
0110
0000
,
0110
1000
0100
0010
0001
1000
0010
0100
,
0000
0010
1000
0100
0010
0000
0001
0010
,
1000
0000
0010
0000
0001
0010
0001
0010
0100
0000
1000
0000
0001
0000
0100
0000
,
0001
1000
0010
1000
0001
0100
1000
0100
,
0001
0000
0010
0000
0001
1000
0001
1000
0200
0000
0000
0000
0300
0000
0000
0000
;

//---------------dance-single - ----------------
#NOTES:
     dance-single:
     :
     Hard:
     8:
     0.629173,0.598278,0.607749,0.252571,0.000000,449.000000,77.000000,32.000000,0.000000,0.000000,0.000000,0.629173,0.598278,0.607749,0.252571,0.000000,449.000000,77.000000,32.000000,0.000000,0.000000,0.000000:
0000
0000
0000
0000
,
0000
0000
0000
0000
,
0000
0000
0000
0000
,
0000
0000
0000
0000
,
1001
0000
1000
0100
0000
0000
1001
0000
,
0001
0100
0001
0000
0000
0000
0110
0000
,
1001
0000
1000
0010
0000
0000
1001
0000
,
0001
0010
0001
0000
1000
0000
0010
0000
,
2002
0000
3003
0000
0001
0100
0000
0010
,
0000
1000
0100
0000
1001
0000
0000
0000
,
1100
0000
0010
0001
0100
0001
1000
0000
,
0001
0010
0001
0010
0100
0000
1100
0000
,
2002
0000
3003
0000
1000
0010
0000
0100
,
0000
0001
0010
0000
1001
0000
0000
0000
,
0101
0000
0010
1000
0100
1000
0001
0000
,
0100
0010
0100
0010
0100
0010
0100
0000
,
1001
0110
1000
0001
,
1000
0001
0000
0110
0000
1000
0001
0000
,
1001
0110
0001
1000
,
1001
0000
0100
0010
0100
0000
1001
0000
,
1000
0000
0001
0000
0100
0010
0000
1001
,
0000
0100
0010
0000
0110
0000
1001
0000
,
0001
1000
0110
0000
,
2002
0000
3003
0000
1000
0010
0000
0001
,
0000
0010
1000
0000
0101
0000
0000
0000
,
1001
0000
0001
0010
0100
1000
0001
0000
,
1000
0010
1000
0010
0100
0000
0110
0000
,
2002
0000
3003
0000
0001
0010
0000
1000
,
0000
0010
0001
0000
1100
0000
0000
0000
,
1001
0000
1000
0010
0100
0001
0010
0000
,
0100
1000
0100
1000
0100
1000
0100
0000
,
1001
0101
0001
1000
,
0001
1000
0000
0110
0000
0001
1000
0000
,
1001
1100
1000
0001
,
0110
0000
1000
0001
1000
0000
1010
0000
,
1000
0000
0001
0000
0100
0010
0000
1001
,
0000
1000
0001
0000
1001
0000
0011
0000
,
0001
0100
1001
0110
,
2001
0000
0000
3100
0000
0000
1000
0002
,
0000
0103
0000
0000
0110
0000
0010
0000
,
1002
0000
0000
0103
0000
0000
0001
2000
,
0000
3100
0000
0000
0220
0000
0330
0000
,
2001
0000
0000
3010
0000
0000
0100
0002
,
0000
0013
0000
0000
1100
0000
1000
0000
,
1002
0000
0000
0013
0000
0000
0100
2000
,
0000
3010
0000
0000
0100
0000
0001
0000
,
1000
0001
0000
0010
0000
0100
1000
0001
,
0000
0100
0010
0000
1010
0000
1000
0000
,
0001
1000
0000
0010
0000
1000
0100
0010
,
0000
0001
0100
0000
0110
0000
0110
0000
,
0001
1000
0000
0100
0000
0010
0001
0100
,
0000
0010
1000
0000
1001
0000
0001
1000
,
0100
0000
0000
0110
0000
0000
1001
0000
,
0000
0110
0000
0000
1001
0000
0000
0000
,
1000
0100
0010
0002
0000
1003
0001
0000
,
0100
0000
0100
0000
0001
0100
0010
2000
,
0000
3001
1000
0000
1000
0100
0000
0100
,
1000
0001
0100
0020
0000
0130
0010
0000
,
1000
0000
1000
0000
0001
0010
0100
1000
,
0001
1001
0000
1001
,
0001
0100
0010
2000
0000
3010
1000
0000
,
0001
0000
0001
0000
0010
0001
1000
0020
,
0000
0130
0001
0000
0001
1000
0000
1000
,
0100
0010
0001
2000
0000
3001
1000
0000
,
0010
0000
0010
0000
0100
0001
1000
0200
,
0000
0310
0100
2000
0000
0002
0000
3003
,
2002
0000
0000
3003
1000
0001
1000
0001
,
1000
0001
1000
0001
1000
0001
1000
0001
,
0100
0010
1000
0001
1000
0001
0010
0100
,
1000
0001
1000
0001
0100
0010
0100
0010
,
0200
0000
0020
0330
,
1000
0010
0000
0100
0000
0001
1000
0100
,
0000
0010
0000
0100
1000
0100
0010
0000
,
0011
0000
0100
1000
0010
1000
0001
0000
,
0100
0010
0100
0010
1000
0000
1001
0000
,
0001
0100
0000
0010
0000
1000
0001
0010
,
0000
0100
0000
0010
0001
1000
0010
0000
,
0110
0000
0001
1000
0100
1000
0001
0000
,
0100
0010
0100
0010
0100
0010
0100
0000
,
1001
0000
0001
1000
0001
0000
0101
0000
,
0010
1000
0010
1000
0001
1000
0100
0000
,
1001
0000
1000
0001
1000
0000
1100
0000
,
0010
0000
0001
1000
0001
1000
0001
0000
,
1001
0000
1000
0010
1000
0000
0101
0000
,
1000
0010
1000
0010
0100
0001
0010
0000
,
0110
0000
1000
0001
1000
0000
0110
0000
,
1001
0000
1000
0001
1000
0001
1000
0000
,
1001
0001
0100
0010
,
1001
0000
1001
0000
0000
0001
1000
0000
,
1000
0100
0010
1001
,
1001
0000
0001
0000
1000
0100
0010
0001
,
0000
0001
0010
0100
1000
0000
1000
0100
,
0010
0001
1000
0000
0001
0100
0010
0000
,
1000
0100
0010
0000
0001
0100
0010
0000
,
1000
0100
0010
0001
0200
0000
0300
0000
;

//---------------dance-single - ----------------
#NOTES:
     dance-single:
     :
     Medium:
     6:
     0.509652,0.486101,0.607749,0.363071,0.000000,329.000000,77.000000,46.000000,0.000000,0.000000,0.000000,0.509652,0.486101,0.607749,0.363071,0.000000,329.000000,77.000000,46.000000,0.000000,0.000000,0.000000:
0000
0000
0000
0000
,
0000
0000
0000
0000
,
0000
0000
0000
0000
,
0000
0000
0000
0000
,
0100
1001
0000
1001
,
0100
1001
0000
1001
,
0100
1001
0000
1001
,
1001
1001
1001
0010
,
2002
3003
1000
0000
,
0100
0010
0001
0000
,
0011
1001
0101
0000
,
0010
1000
0001
1000
0100
0000
0000
0000
,
2002
3003
0001
0000
,
0100
0010
1000
0000
,
1010
1001
1100
0000
,
1000
0001
1000
0001
1000
0001
1000
0000
,
1001
0001
0100
0010
,
1000
0001
0000
1000
0000
0001
1000
0000
,
1001
1000
0100
0010
,
1001
0000
1001
1000
,
0100
0000
0010
0000
0001
1000
0000
0001
,
0000
1000
0001
0000
1001
0000
0001
0000
,
0100
0010
1001
0000
,
2002
3003
0001
0000
,
0010
0001
0100
0000
,
1010
0110
0101
0000
,
0001
0010
0100
1000
0001
0000
0000
0000
,
2002
3003
1000
0000
,
0010
1000
0100
0000
,
0011
0110
1100
0000
,
1000
0001
1000
0001
1000
0001
1000
0000
,
1001
0001
0010
0001
,
0100
0010
0000
1000
0000
0010
1000
0000
,
1010
1000
0100
0010
,
1001
0000
1001
1000
,
0010
0000
1000
0000
0100
0010
0000
0001
,
0000
0010
0001
0000
0011
0000
0001
0000
,
0100
0010
1001
0000
,
2002
0000
0000
0000
3003
0000
0200
0020
,
0000
0330
1001
0000
,
0220
0000
0000
0000
0330
0000
0002
2000
,
0000
3003
1001
0000
,
2200
0000
0000
0000
3300
0000
0020
0002
,
0000
0033
1001
0000
,
0202
0000
0000
0000
0303
0000
0020
2000
,
0000
3030
0101
0000
,
2002
0000
0000
0000
3003
0000
0001
1000
,
0000
1001
0000
0000
1100
0000
0010
0000
,
2002
0000
0000
0000
3003
0000
1000
0001
,
0000
0100
0010
0000
1001
0000
0100
0000
,
2002
0000
0000
0000
3003
0000
2000
0200
,
0000
3300
0011
0001
,
1001
0000
0000
1001
0000
0000
0110
0000
,
0000
0110
0000
0000
1001
0000
0000
0000
,
1000
0000
0100
0020
0000
0031
0000
0000
,
0001
0000
0000
0000
0001
0000
0100
0020
,
0000
0130
0010
0000
0000
0010
0000
0000
,
1000
0000
0001
2000
0000
3100
0000
0000
,
0010
0000
0000
0000
0001
0000
1000
0002
,
0000
0103
0010
0000
0000
0000
0010
0000
,
1000
0000
0010
0200
0000
0301
0000
0000
,
1000
0000
0000
0000
0001
0000
0010
0200
,
0000
1300
0100
0000
0000
0010
0000
0000
,
0001
0000
1000
0020
0000
0130
0000
0000
,
0001
0000
0000
0000
0010
0000
0100
2000
,
0000
3001
1000
0001
0000
1000
0000
0000
,
2002
0000
0000
3003
1000
0000
0001
0000
,
1000
0001
1000
0001
,
1000
0001
1000
0000
0001
0000
1000
0001
,
1000
0000
0001
0000
1000
0001
1000
0001
,
2000
0000
0002
3003
,
1000
0100
0010
0001
,
0100
1000
0100
0001
,
0011
1001
0101
0000
,
0010
1000
0001
1000
0100
0000
0000
0000
,
1000
0001
0010
1000
,
0010
0001
0100
0010
,
1010
1001
1100
0000
,
1000
0001
1000
0001
1000
0001
1000
0000
,
1001
0000
0000
1000
0100
0000
0011
0000
,
0001
0001
0100
0010
,
1010
0000
0000
0100
0001
0000
1001
0000
,
0100
0100
0100
0100
,
1001
0000
0000
0001
0010
0000
1100
0000
,
1000
1000
0010
0100
,
0101
0000
0000
0001
1000
0000
0110
0000
,
1001
1001
1001
1001
,
1000
0100
0010
0100
,
1000
0000
1000
0000
0000
1000
0001
0000
,
0100
0010
0100
0001
,
0001
0000
1000
0000
0001
0000
0100
0010
,
0000
0100
0010
0000
1000
0000
0001
0000
,
0100
0010
1000
0000
0001
0000
0010
0000
,
0100
1000
0001
0100
,
0010
1000
2002
3003
;

//---------------dance-single - ----------------
#NOTES:
     dance-single:
     :
     Easy:
     4:
     0.401408,0.411316,0.662999,0.315714,0.000000,232.000000,84.000000,40.000000,0.000000,0.000000,0.000000,0.401408,0.411316,0.662999,0.315714,0.000000,232.000000,84.000000,40.000000,0.000000,0.000000,0.000000:
0000
0000
0000
0000
,
0000
0000
0000
0000
,
0000
0000
0000
0000
,
0000
0000
0000
0000
,
0000
1000
0000
0001
,
0000
1000
0000
0001
,
0000
1000
0000
0001
,
1000
0001
1000
0010
,
2002
3003
1000
0000
,
0010
0100
0001
0000
,
1001
0000
0110
0000
,
1001
1001
0110
0000
,
2002
3003
0001
0000
,
0010
0100
1000
0000
,
1001
0000
0110
0000
,
1000
1000
0001
0001
,
1001
0000
0100
0000
,
0100
1001
0110
0000
,
1001
0000
0100
0000
,
1001
0000
1001
0000
,
0010
0000
0010
1001
,
0110
0000
1001
0000
,
0010
0000
1001
0000
,
2002
3003
0001
0000
,
0100
0001
1000
0000
,
1010
0000
0101
0000
,
0011
0011
1100
0000
,
2002
3003
1000
0000
,
0100
1000
0001
0000
,
0011
0000
1100
0000
,
1000
1000
0001
0001
,
1001
0000
0010
0000
,
1000
0110
1001
0000
,
1001
0000
0010
0000
,
0110
0000
1001
0000
,
0010
0000
0001
0110
,
1001
0000
1001
0000
,
0010
0000
0110
0000
,
2002
0000
3003
2200
,
0000
3300
1001
0000
,
2002
0000
3003
0202
,
0000
0303
1001
0000
,
2002
0000
3003
2020
,
0000
3030
1001
0000
,
2002
0000
3003
0022
,
0000
0033
1100
0000
,
2001
0000
3001
2001
,
0000
3001
1001
1000
,
1002
0000
1003
1002
,
0000
1003
1001
0100
,
1002
0000
1003
2001
,
0000
3001
1001
1000
,
1001
0000
0000
0001
0000
0000
1000
0000
,
0000
0001
0000
0000
1001
0000
0000
0000
,
1000
0100
0010
0000
,
0001
0000
0010
0001
,
0100
0000
0010
0000
,
1000
0001
0010
0000
,
0001
0000
0100
0010
,
1000
2002
0000
3003
,
0001
0010
0100
0000
,
0010
0000
0100
1000
,
0010
0000
0100
0000
,
0001
1000
0100
0000
,
1000
0000
0010
0100
,
0001
2002
3003
0000
,
2002
0000
0000
3003
1000
0000
1000
0000
,
0001
0001
1000
1000
,
0001
1000
0001
0001
,
1000
0001
1000
0001
,
2000
0000
0002
3003
,
1000
0000
0001
1000
,
0100
0000
1000
0001
,
0101
0000
1010
0000
,
1100
1100
0011
0000
,
0001
0000
0100
0010
,
1000
0000
0100
0010
,
0011
0000
1100
0000
,
1000
1000
0001
0001
,
1001
0000
0101
1010
,
1000
0000
0001
0000
,
1001
0000
1100
0011
,
0001
0000
0100
0000
,
1001
0000
0110
1001
,
1000
0000
0100
0000
,
1001
0000
0110
1001
,
0001
1000
0001
1000
,
0001
0000
0100
0000
,
0100
0100
0000
0001
,
0000
1000
0000
0100
,
0100
0000
1000
0000
,
0010
0000
0001
0000
,
0100
0000
1000
0000
,
0001
0000
1000
1000
,
0001
0001
2002
3003
;

//---------------dance-single - ----------------
#NOTES:
     dance-single:
     :
     Beginner:
     2:
     0.205214,0.223762,0.078928,0.007893,0.000000,171.000000,10.000000,1.000000,0.000000,0.000000,0.000000,0.205214,0.223762,0.078928,0.007893,0.000000,171.000000,10.000000,1.000000,0.000000,0.000000,0.000000:
// measure 0
0000
0000
0000
0000
,  // measure 1
0000
0000
0000
0000
,  // measure 2
0000
0000
0000
0000
,  // measure 3
0000
0000
0000
0000
,  // measure 4
0000
1000
0000
1000
,  // measure 5
0000
1000
0000
1000
,  // measure 6
0000
0001
0000
0001
,  // measure 7
0001
0001
0001
0000
,  // measure 8
1000
0000
1000
0000
,  // measure 9
0001
0000
0001
0000
,  // measure 10
0010
0000
0010
0000
,  // measure 11
0010
0010
0010
0000
,  // measure 12
0001
0000
0001
0000
,  // measure 13
1000
0000
1000
0000
,  // measure 14
0010
0000
0010
0000
,  // measure 15
0010
0010
0010
0000
,  // measure 16
1001
0000
1000
0000
,  // measure 17
0001
0000
0001
0000
,  // measure 18
1000
0000
0001
0000
,  // measure 19
1001
0000
1001
0000
,  // measure 20
0001
0000
1000
0000
,  // measure 21
1000
0000
0001
0000
,  // measure 22
1000
0000
1001
0000
,  // measure 23
1000
0000
1000
0000
,  // measure 24
0010
0000
0010
0000
,  // measure 25
0100
0000
0100
0000
,  // measure 26
0100
0100
0100
0000
,  // measure 27
0001
0000
0001
0000
,  // measure 28
0010
0000
0010
0000
,  // measure 29
0100
0000
0100
0000
,  // measure 30
0100
0100
0100
0000
,  // measure 31
1001
0000
1000
0000
,  // measure 32
0001
0000
1000
0000
,  // measure 33
0001
0000
0001
0000
,  // measure 34
1001
0000
0001
0000
,  // measure 35
0001
0000
1000
0000
,  // measure 36
0001
0000
1000
0000
,  // measure 37
1000
0000
1001
0000
,  // measure 38
1000
0000
0000
1000
,  // measure 39
0000
0000
1000
0000
,  // measure 40
0100
0000
0000
0100
,  // measure 41
0000
0000
0100
0000
,  // measure 42
0010
0000
0000
0010
,  // measure 43
0000
0000
0010
0000
,  // measure 44
0001
0000
0000
0001
,  // measure 45
0000
0000
0001
0000
,  // measure 46
1000
0000
0000
0001
,  // measure 47
0000
0000
1000
0000
,  // measure 48
0001
0000
0000
1000
,  // measure 49
0000
0000
0001
0000
,  // measure 50
1000
0000
0000
0001
,  // measure 51
0000
0000
1000
0000
,  // measure 52
0001
0000
1000
0000
,  // measure 53
0001
0000
1000
0000
,  // measure 54
0001
0000
0000
0000
,  // measure 55
0100
0000
0100
0000
,  // measure 56
0000
0000
0010
0000
,  // measure 57
0010
0000
0000
0000
,  // measure 58
1000
0000
1000
0000
,  // measure 59
0000
1001
0000
0000
,  // measure 60
1000
0000
0000
0000
,  // measure 61
0100
0000
0100
0000
,  // measure 62
0000
0000
0010
0000
,  // measure 63
0010
0000
0000
0000
,  // measure 64
0001
0000
0001
0000
,  // measure 65
0000
0100
0000
0000
,  // measure 66
1001
0000
0000
0000
,  // measure 67
0100
0000
0100
0000
,  // measure 68
0100
0000
0100
0000
,  // measure 69
0100
0000
0100
0000
,  // measure 70
0200
0000
0300
0000
,  // measure 71
1000
0000
0001
0000
,  // measure 72
1000
0000
0001
0000
,  // measure 73
0100
0000
0100
0000
,  // measure 74
0100
0100
0100
0000
,  // measure 75
0001
0000
1000
0000
,  // measure 76
0001
0000
1000
0000
,  // measure 77
0100
0000
0100
0000
,  // measure 78
0100
0100
0100
0000
,  // measure 79
1000
0000
1000
0000
,  // measure 80
0010
0000
0010
0000
,  // measure 81
1000
0000
1000
0000
,  // measure 82
0001
0000
0100
0000
,  // measure 83
0001
0000
0001
0000
,  // measure 84
0010
0000
0010
0000
,  // measure 85
0001
0000
0001
0000
,  // measure 86
1000
0000
0100
0000
,  // measure 87
1000
0000
0001
0000
,  // measure 88
1000
0000
0000
0001
,  // measure 89
0000
1000
0000
0001
,  // measure 90
0000
0000
1000
0000
,  // measure 91
1000
0000
0001
0000
,  // measure 92
0001
0000
1000
0000
,  // measure 93
0001
0000
1000
0000
,  // measure 94
0001
0000
1001
0000
;
