#TITLE:BEFREE;
#SUBTITLE:;
#ARTIST:Des-ROW feat. Vanilla Ice;
#TITLETRANSLIT:;
#SUBTITLETRANSLIT:;
#ARTISTTRANSLIT:;
#GENRE:;
#CREDIT:;
#BANNER:;
#BACKGROUND:;
#LYRICSPATH:;
#CDTITLE:;
#MUSIC:BEFREE.mp3;
#OFFSET:-0.180000;
#SAMPLESTART:61.150002;
#SAMPLELENGTH:12.000000;
#SELECTABLE:YES;
#BPMS:0.000000=120.000000
;
#STOPS:
;
#BGCHANGES:;
#KEYSOUNDS:;
#ATTACKS:;

//---------------dance-single - ----------------
#NOTES:
     dance-single:
     :
     Hard:
     8:
     0.428146,0.435713,0.062253,0.106719,0.293477,318.000000,7.000000,12.000000,0.000000,0.000000,0.000000,0.428146,0.435713,0.062253,0.106719,0.293477,318.000000,7.000000,12.000000,0.000000,0.000000,0.000000:
// measure 0
0000
0000
0000
0000
,  // measure 1
0000
0000
0000
0000
,  // measure 2
0000
0000
0000
0000
,  // measure 3
0000
0000
0000
0000
,  // measure 4
0000
0000
0000
0000
,  // measure 5
0000
0000
0000
0000
0000
0000
0000
0000
1000
0000
0000
0100
0000
0000
1000
0000
,  // measure 6
0001
0000
0000
0000
0100
0000
0001
0000
0010
0000
0000
0100
0000
0000
0010
0000
,  // measure 7
0100
0000
0000
0000
1100
0000
0000
0000
0001
0000
0000
0100
0000
0000
0010
0000
,  // measure 8
1000
0000
0000
0000
0100
0000
0010
0000
0001
0000
1000
0000
0000
0000
1000
0100
,  // measure 9
0010
0000
0001
0000
0100
0010
0100
0010
1000
0000
0000
0000
0001
0000
0000
0000
,  // measure 10
0000
1000
0001
1000
0100
0000
0010
0000
,  // measure 11
0001
1000
0001
0000
0010
0000
0000
0000
0001
0000
0000
0000
1000
0000
0000
0000
,  // measure 12
0000
0000
0001
0000
1000
0000
0001
0000
0100
0000
0000
0000
0010
0000
0000
0010
,  // measure 13
1000
0001
0100
0000
0001
0000
0010
0000
,  // measure 14
0000
0100
1000
0001
1000
0000
0010
0000
,  // measure 15
0000
0100
0001
0000
1000
0000
0001
0000
,  // measure 16
0000
0000
1000
0000
0001
0000
1000
0000
0000
0000
0010
0000
0100
0000
0000
0100
,  // measure 17
0001
0100
0000
0100
0010
0000
1000
0000
0100
0000
0000
0000
0000
0000
0000
0000
,  // measure 18
0010
0000
0000
0000
0000
0000
0001
1000
0001
0000
0000
0100
0000
0000
0100
0000
,  // measure 19
0020
0000
0000
0000
0000
0000
0030
0000
1000
0000
0000
0100
0000
0000
0010
0000
,  // measure 20
0001
0000
0000
0100
0000
0000
0010
0000
1000
0000
0000
0100
0000
0000
0010
0000
,  // measure 21
0200
0000
0000
0000
1300
0100
0010
0001
0010
0000
0000
0001
0000
0000
1000
0000
,  // measure 22
0001
0000
0000
0100
0000
0000
0010
0000
0100
0000
0000
0100
0000
0000
0001
0000
,  // measure 23
2000
0000
0000
0000
3000
0000
0000
0000
0100
0000
0000
1000
0000
0000
0010
0000
,  // measure 24
0100
0000
0000
1000
0000
0000
0100
0000
0001
0000
0000
1000
0000
0000
0100
0000
,  // measure 25
0020
0000
0000
0000
0031
0100
0001
0100
0010
0000
0100
0000
0001
0000
1000
0000
,  // measure 26
0001
0000
0010
0001
0000
1000
0000
0000
0100
0000
1000
0000
0010
0000
0100
0000
,  // measure 27
0001
0000
1000
0001
0000
0010
0000
0000
0100
0000
0010
0000
0001
0000
0100
0000
,  // measure 28
0010
0000
0100
0001
0000
1000
0000
0000
0100
0000
0010
0000
0100
0000
1000
0000
,  // measure 29
0001
0000
0100
0010
0000
0100
0000
0000
0000
0000
0000
0000
0000
0000
0000
0000
,  // measure 30
2002
0000
3003
0000
0001
0010
0001
0100
,  // measure 31
0010
0100
0001
1000
0100
0010
0001
0100
,  // measure 32
0010
0000
0110
0000
0100
0001
0010
0001
,  // measure 33
0100
0010
0100
0010
1000
0100
0001
0100
,  // measure 34
1000
0000
1001
0000
0001
0010
1000
0010
,  // measure 35
0100
0010
0100
0010
0001
0100
1000
0100
,  // measure 36
0001
0000
0101
0000
1000
0100
0001
0100
,  // measure 37
0010
0001
0010
0001
0100
1000
0100
0001
,  // measure 38
0010
0000
0000
0000
0010
0000
0001
0010
0001
0000
0010
0000
0001
0000
1000
0100
,  // measure 39
0000
0100
1000
0000
0010
0000
0100
0000
0001
0000
0100
0000
1000
0000
0100
0010
,  // measure 40
0000
0010
1000
0000
0001
0000
0000
0001
1000
0000
0010
0000
0100
0000
0001
0010
,  // measure 41
0000
0010
0001
0000
0100
0000
0010
0000
1000
0000
0100
0000
0001
0000
0100
0010
,  // measure 42
0000
0010
0001
0000
1000
0000
0000
1000
0001
0000
0010
0000
1000
0000
0010
0100
,  // measure 43
0000
0100
0010
0000
0100
0000
1000
0000
0001
0000
0100
0000
1000
0000
0100
0001
,  // measure 44
0000
0001
1000
0000
0100
0000
0000
0100
1000
0000
0100
0000
0001
0000
0100
0010
,  // measure 45
0000
0010
0100
0000
0010
0000
0001
0000
1000
0000
0010
0000
0001
0000
0010
1000
,  // measure 46
0000
1000
0000
0001
1000
0000
0100
0000
0020
0000
0000
0000
0000
0000
0000
0000
,  // measure 47
0002
0003
0230
0000
,  // measure 48
2000
3000
2300
0000
,  // measure 49
0200
0000
0000
0000
0300
0000
0000
0000
3001
0000
0000
1000
0000
0000
0001
0000
,  // measure 50
1001
0000
0000
0000
0000
0000
0000
0000
0001
0000
0000
0100
0000
0000
0001
0000
,  // measure 51
1000
0000
0000
0100
0000
0000
0010
0000
0001
0000
0000
1000
0000
0000
0001
0000
,  // measure 52
0100
0000
0000
0000
0110
0000
0000
0000
1000
0000
0000
0100
0000
0000
1000
0000
,  // measure 53
0001
0000
0000
0100
0000
0000
0010
0000
1000
0000
0000
0001
0000
0000
1000
0000
,  // measure 54
0100
0010
0100
0010
0100
0010
0100
0010
0000
0000
0000
0000
0000
0000
0000
0000
;

//---------------dance-single - ----------------
#NOTES:
     dance-single:
     :
     Challenge:
     10:
     0.651747,0.580951,0.293477,0.080039,0.764818,471.000000,33.000000,9.000000,32.000000,0.000000,0.000000,0.651747,0.580951,0.293477,0.080039,0.764818,471.000000,33.000000,9.000000,32.000000,0.000000,0.000000:
// measure 0
0000
0000
0000
0000
,  // measure 1
0000
0000
0000
0000
,  // measure 2
0000
0000
0000
0000
,  // measure 3
0000
0000
0000
0000
,  // measure 4
0000
0000
0000
0000
,  // measure 5
0000
0000
0000
0000
0000
0000
0000
0000
0001
0100
0001
0001
0100
0000
0010
1000
,  // measure 6
0010
0000
1000
0100
1000
0000
0100
0010
0001
0000
1000
0001
1000
0000
0001
0100
,  // measure 7
0010
0000
0000
0000
0110
0000
0000
0000
0100
0001
0010
0100
0010
0000
0100
1000
,  // measure 8
0100
0000
1000
0001
1000
0000
0001
0100
0010
0000
0100
0010
0100
0000
0001
1000
,  // measure 9
0100
0010
0100
0010
0001
0100
0010
1000
0100
0000
0100
0000
0000
0010
0001
0000
,  // measure 10
1000
0000
0001
0100
0001
0000
0100
0000
0010
0100
0010
0100
0010
0100
0010
0100
,  // measure 11
0001
1000
0001
0000
1000
0000
0001
0100
0001
0000
1000
0000
0100
1000
0100
0000
,  // measure 12
0010
0000
0001
1000
0000
0001
0000
0100
0010
0000
0010
0000
1000
0001
1000
0000
,  // measure 13
0100
0000
0010
0100
0000
1000
0001
1000
0001
0000
0100
0010
0000
0000
0100
0000
,  // measure 14
0100
0000
0010
1000
0001
0000
0000
0000
0010
0000
0100
1000
0100
1000
0100
1000
,  // measure 15
0010
0000
0000
0000
1001
0000
0001
0100
0010
0000
0010
1000
0001
0000
0001
1000
,  // measure 16
0100
0010
0100
0000
0110
0000
0010
0000
MMMM
0000
0001
0000
1000
0000
0001
0100
,  // measure 17
0010
0100
0010
0100
0010
0000
0110
0000
0000
1000
0000
0001
0100
0000
0100
0000
,  // measure 18
0010
1000
0000
0001
1000
0100
0000
0000
0010
0001
0010
0001
0100
0010
0000
0000
,  // measure 19
1000
0100
1000
0100
1000
0000
0100
0010
0001
0000
1000
0001
0000
0100
0010
0100
,  // measure 20
0001
0000
0000
1000
0001
0000
0000
0010
0001
0000
1000
0001
0000
0100
0010
1000
,  // measure 21
0100
0000
0110
0000
MMMM
0000
0010
0001
0100
0000
0010
0100
0010
0000
0000
0000
,  // measure 22
1000
0000
0100
1000
0100
0000
0010
0000
MMMM
0000
0011
0000
MMMM
0000
0001
0100
,  // measure 23
0000
0010
0100
0001
0010
0000
0100
0000
1000
0000
0000
0000
MMMM
0000
0000
0000
,  // measure 24
1001
0000
0001
0100
0010
0200
0000
0000
0000
0000
0301
1000
0001
0000
0001
1000
,  // measure 25
0001
0000
0000
0000
0100
0010
0100
0010
1000
0100
0010
0000
0010
0000
0001
0100
,  // measure 26
0010
0000
1000
0001
0000
0100
0000
0000
0010
0000
1000
0001
0000
1000
0001
0000
,  // measure 27
0100
0000
0010
0100
0000
0010
0000
0000
1000
0100
1000
0100
0000
0010
0000
0001
,  // measure 28
0100
0000
0010
0100
0000
0010
0000
1000
0001
0100
0001
0100
0010
1000
0010
1000
,  // measure 29
0100
0000
0010
0001
0000
1000
0100
0000
0000
0000
MMMM
0000
0000
0000
MMMM
0000
,  // measure 30
2002
0000
0000
0000
3003
0000
MMMM
0000
0001
0100
0010
0100
0001
0000
0001
0010
,  // measure 31
0100
0000
1000
0010
0100
0000
0010
0100
0001
0000
0001
0010
0100
0000
1000
0100
,  // measure 32
0010
0000
0000
0000
1001
0000
0000
0000
0010
0001
0100
0010
0100
0000
0001
0010
,  // measure 33
0100
0000
0100
1000
0010
0000
1000
0010
0100
0000
0100
0001
1000
0000
1000
0100
,  // measure 34
0010
0000
0000
0000
0011
0000
0000
0000
1000
0010
1000
1000
0100
0000
0100
0010
,  // measure 35
0001
0000
0001
0100
0010
0000
0100
0010
0001
0000
0001
0010
1000
0000
0100
0010
,  // measure 36
0001
0000
0000
0000
1001
0000
0000
0000
0010
1000
0100
0010
0001
0000
0001
0100
,  // measure 37
1000
0000
1000
0100
0010
0000
1000
0100
0010
0000
0001
0100
0010
0000
0100
0001
,  // measure 38
0010
0000
0000
0000
0110
0000
0000
0000
0100
0010
0001
0100
0010
0000
0100
0001
,  // measure 39
0010
0000
0100
1000
0010
0000
0100
0001
1000
0000
0100
1000
0010
0000
0100
0010
,  // measure 40
1000
0000
0000
0000
1100
0000
0000
0000
0010
0001
1000
0001
0100
0000
0010
0100
,  // measure 41
0001
0000
0010
0100
0010
0000
0100
1000
0001
0000
0001
0100
0010
0000
0100
0001
,  // measure 42
1000
0000
0000
0000
1100
0000
0000
0000
1000
0100
0010
1000
0001
0000
0100
1000
,  // measure 43
0001
0000
0100
0001
0010
0000
0100
1000
0010
0000
0100
0001
1000
0000
0010
1000
,  // measure 44
0100
0000
0000
0000
0110
0000
0000
0000
0010
0001
1000
0010
0001
0000
0010
0100
,  // measure 45
0001
0000
1000
0100
0010
0000
1000
0010
0001
0000
0100
0001
0010
0000
0100
1000
,  // measure 46
0001
0000
0000
0000
0110
0000
0000
0000
0001
0100
1000
0100
0002
0000
0000
0000
,  // measure 47
2000
0000
0000
0000
0003
0000
0000
0000
3001
0010
1000
0010
0002
0000
0000
0000
,  // measure 48
0200
0000
0000
0000
0003
0000
0000
0000
0301
0010
0001
0010
0200
0000
0000
0000
,  // measure 49
2000
0000
0000
0000
0300
0000
0000
0000
3100
0000
0000
1100
0000
0000
1100
0000
,  // measure 50
0010
0000
0000
0000
0001
0000
0000
0001
1000
0000
0000
1010
0000
0000
1010
0000
,  // measure 51
0100
0000
0000
0110
0000
0000
0110
0000
0001
0000
0000
0101
0000
0000
0101
0000
,  // measure 52
0010
0000
0000
0000
0110
0000
0000
0000
1000
0000
0000
1100
0000
0000
1100
0000
,  // measure 53
0110
0000
0000
0011
0000
0000
0101
0000
0110
0000
0000
1010
0000
0000
1100
0000
,  // measure 54
1000
0100
1000
0100
0010
0001
0100
0010
0000
0000
0000
0000
0000
0000
0000
0000
;

//---------------dance-single - ----------------
#NOTES:
     dance-single:
     :
     Medium:
     5:
     0.312534,0.339277,0.053359,0.124505,0.000000,226.000000,6.000000,14.000000,0.000000,0.000000,0.000000,0.312534,0.339277,0.053359,0.124505,0.000000,226.000000,6.000000,14.000000,0.000000,0.000000,0.000000:
// measure 0
0000
0000
0000
0000
,  // measure 1
0000
0000
0000
0000
,  // measure 2
0000
0000
0000
0000
,  // measure 3
0000
0000
0000
0000
,  // measure 4
0000
0000
0000
0000
,  // measure 5
0000
0000
0000
0000
1000
0000
0001
0100
,  // measure 6
0010
0000
1000
0100
0010
0000
0100
1000
,  // measure 7
0001
0000
0000
0000
0100
0000
0001
0010
,  // measure 8
0100
0000
1000
0010
0100
0000
0001
1000
,  // measure 9
0200
0000
0310
0001
,  // measure 10
1000
0001
1000
0000
0001
0000
0100
0000
,  // measure 11
0010
0100
0001
0000
1000
0000
0100
0000
,  // measure 12
0010
0001
1000
0000
0010
0000
0100
0000
,  // measure 13
0001
1000
0100
0000
0110
0000
0010
0000
,  // measure 14
0001
1000
0010
0000
0100
0001
1000
0100
,  // measure 15
0020
0000
0130
0000
1000
0001
0100
0000
,  // measure 16
0010
0100
0001
0000
1000
0010
0100
0001
,  // measure 17
1000
0000
1001
0000
,  // measure 18
0001
0000
0000
0000
0010
0100
0010
0100
,  // measure 19
0010
0000
0001
0000
1000
0010
0100
0000
,  // measure 20
0001
1000
0100
0000
0010
0001
0100
0000
,  // measure 21
0020
0000
0030
0000
0100
0000
0001
1000
,  // measure 22
0100
0000
1000
0001
0010
0000
0100
0010
,  // measure 23
0200
0000
0300
0000
1000
0000
1000
0001
,  // measure 24
0100
0000
0010
0100
0010
0000
1000
0100
,  // measure 25
0020
0000
0032
0000
0103
0010
0100
0010
,  // measure 26
1000
0000
1001
0000
0001
0010
0001
0010
,  // measure 27
0100
0110
0020
0000
,  // measure 28
0200
0030
1300
0000
,  // measure 29
0000
0000
0000
0000
,  // measure 30
0000
0000
0000
0000
0001
0000
0100
0010
,  // measure 31
1000
0000
0100
0010
0001
0000
0100
0001
,  // measure 32
0010
0000
0000
0000
0100
0000
1000
0001
,  // measure 33
0100
0000
0010
0100
0001
0000
0010
0001
,  // measure 34
1000
0000
0000
0000
0100
0000
0010
0100
,  // measure 35
1000
0000
0001
0100
0010
0000
0100
0001
,  // measure 36
1000
0000
0000
0000
0100
0000
0010
0100
,  // measure 37
1000
0000
0001
0100
0010
0000
0100
0001
,  // measure 38
0010
0000
0000
0000
0100
0010
0100
0010
,  // measure 39
0100
0010
0100
0000
1000
0000
0001
0100
,  // measure 40
1000
0000
0000
0000
0100
0001
0100
0001
,  // measure 41
0100
0001
0100
0000
0010
0000
1000
0100
,  // measure 42
0001
0000
0000
0000
0100
0010
0100
0010
,  // measure 43
0100
0010
0100
0000
1000
0000
0001
0010
,  // measure 44
1000
0000
0000
0000
0010
0100
0010
0100
,  // measure 45
0010
0100
0010
0000
0001
0100
1000
0100
,  // measure 46
0001
0000
2000
0000
,  // measure 47
0000
0000
0200
0000
,  // measure 48
0000
3000
0020
0000
,  // measure 49
0000
0300
0002
0000
,  // measure 50
0033
0000
0000
0000
1000
0000
0001
0100
,  // measure 51
1000
0000
1000
0100
0001
0000
1000
0001
,  // measure 52
1001
0000
0000
0000
1000
0000
1000
0100
,  // measure 53
0001
0000
0001
0100
1000
0000
0001
1000
,  // measure 54
2002
0000
0000
3003
0100
0000
0000
0000
;

//---------------dance-single - ----------------
#NOTES:
     dance-single:
     :
     Easy:
     3:
     0.199463,0.218107,0.071146,0.062253,0.000000,142.000000,8.000000,7.000000,0.000000,0.000000,0.000000,0.199463,0.218107,0.071146,0.062253,0.000000,142.000000,8.000000,7.000000,0.000000,0.000000,0.000000:
// measure 0
0000
0000
0000
0000
,  // measure 1
0000
0000
0000
0000
,  // measure 2
0000
0000
0000
0000
,  // measure 3
0000
0000
0000
0000
,  // measure 4
0000
0000
0000
0000
,  // measure 5
0000
0000
1000
0000
,  // measure 6
1000
0000
0001
1000
,  // measure 7
0001
0000
0100
0000
,  // measure 8
0100
0000
0010
0000
,  // measure 9
0100
0010
1000
0000
,  // measure 10
0100
0000
0010
0001
,  // measure 11
0010
0000
0001
0000
,  // measure 12
0100
0000
0010
1000
,  // measure 13
0010
0000
1001
0000
,  // measure 14
1000
0000
0100
0010
,  // measure 15
0100
0000
0110
0000
,  // measure 16
0001
0000
1000
0001
,  // measure 17
1000
0000
1001
0000
,  // measure 18
0000
0000
0001
0100
,  // measure 19
0010
0000
1000
0000
,  // measure 20
0100
0000
0010
0100
,  // measure 21
0010
0000
0110
0000
,  // measure 22
1000
0000
0001
1000
,  // measure 23
0010
0000
0100
0000
,  // measure 24
0001
0000
1000
0100
,  // measure 25
0010
0000
0110
0010
,  // measure 26
0001
0000
1000
0001
,  // measure 27
0100
0000
0010
0100
,  // measure 28
0001
0000
1000
0100
,  // measure 29
0010
0001
0000
0000
,  // measure 30
0000
0000
0001
0100
,  // measure 31
0001
0100
0010
1000
,  // measure 32
0001
0000
1000
0100
,  // measure 33
1000
0100
0010
0001
,  // measure 34
1000
0000
0001
0100
,  // measure 35
0010
1000
0001
0010
,  // measure 36
0100
0000
1000
0100
,  // measure 37
0010
0001
1000
0010
,  // measure 38
0100
0000
0001
1000
,  // measure 39
0010
0100
0001
0010
,  // measure 40
0100
0000
1000
0001
,  // measure 41
0100
0010
1000
0100
,  // measure 42
0010
0000
0100
1000
,  // measure 43
0001
0100
1000
0100
,  // measure 44
0001
0000
0100
0001
,  // measure 45
1000
0100
0001
0100
,  // measure 46
1000
0000
0002
0003
,  // measure 47
2000
3000
0200
0300
,  // measure 48
2000
3000
0020
0030
,  // measure 49
0200
0300
0002
1003
,  // measure 50
1001
0000
0001
0001
,  // measure 51
1000
1000
0001
1000
,  // measure 52
1001
0000
0010
0010
,  // measure 53
0100
0100
0010
0100
,  // measure 54
0110
0000
0100
0000
;

//---------------dance-single - ----------------
#NOTES:
     dance-single:
     :
     Beginner:
     1:
     0.137210,0.145404,0.017786,0.044466,0.000000,101.000000,2.000000,5.000000,0.000000,0.000000,0.000000,0.137210,0.145404,0.017786,0.044466,0.000000,101.000000,2.000000,5.000000,0.000000,0.000000,0.000000:
// measure 0
0000
0000
0000
0000
,  // measure 1
0000
0000
0000
0000
,  // measure 2
0000
0000
0000
0000
,  // measure 3
0000
0000
0000
0000
,  // measure 4
0000
0000
0000
0000
,  // measure 5
0000
0000
1000
0000
,  // measure 6
0001
0000
1000
0000
,  // measure 7
0000
0000
0100
0000
,  // measure 8
0010
0000
0100
0000
,  // measure 9
0000
0000
0010
0000
,  // measure 10
0001
0000
1000
0000
,  // measure 11
0000
0000
0010
0000
,  // measure 12
1000
0000
0001
0000
,  // measure 13
0000
0000
0100
0000
,  // measure 14
0001
0000
1000
0000
,  // measure 15
0000
0000
0100
0000
,  // measure 16
0010
0000
0001
0000
,  // measure 17
0000
0000
1001
0000
,  // measure 18
0000
0000
0100
0100
,  // measure 19
0100
0000
0010
0000
,  // measure 20
1000
0000
0001
0001
,  // measure 21
0001
0000
0010
0000
,  // measure 22
0100
0000
0010
0100
,  // measure 23
0010
0000
0100
0000
,  // measure 24
1000
0000
0001
1000
,  // measure 25
0001
0000
0100
0100
,  // measure 26
0100
0000
0010
0010
,  // measure 27
0010
0000
1000
1000
,  // measure 28
0001
0000
1001
0000
,  // measure 29
0000
0000
0000
0000
,  // measure 30
0000
0000
0001
0010
,  // measure 31
0001
0000
0001
0000
,  // measure 32
0001
0000
1000
0010
,  // measure 33
1000
0000
1000
0000
,  // measure 34
1000
0000
0100
0010
,  // measure 35
0100
0000
0100
0000
,  // measure 36
0100
0000
0010
0001
,  // measure 37
0010
0000
0010
0000
,  // measure 38
0010
0000
0001
1000
,  // measure 39
0001
0000
1000
0000
,  // measure 40
1000
0000
0010
0100
,  // measure 41
0010
0000
0100
0000
,  // measure 42
0100
0000
0001
0010
,  // measure 43
0001
0000
0010
0000
,  // measure 44
0010
0000
0100
1000
,  // measure 45
0100
0000
1000
0000
,  // measure 46
1000
0000
0002
0000
,  // measure 47
0000
0003
2000
0000
,  // measure 48
0000
3000
0020
0000
,  // measure 49
0000
0030
0200
0000
,  // measure 50
0300
0000
0001
0000
,  // measure 51
0001
0000
1000
0001
,  // measure 52
1000
0000
0010
0000
,  // measure 53
0010
0000
0100
0010
,  // measure 54
0200
0000
0300
0000
;
