#TITLE:cosmic eyes;
#SUBTITLE:;
#ARTIST:BoA;
#TITLETRANSLIT:;
#SUBTITLETRANSLIT:;
#ARTISTTRANSLIT:;
#CREDIT:;
#BANNER:[Round 7] - cosmic eyes.png;
#BACKGROUND:[Round 7] - cosmic eyes-bg.png;
#LYRICSPATH:;
#CDTITLE:cdtitle.png;
#MUSIC:[Round 7] - cosmic eyes.ogg;
#OFFSET:0.033;
#SAMPLESTART:54.680;
#SAMPLELENGTH:11.960;
#SELECTABLE:YES;
#BPMS:0.000=159.995;
#STOPS:;
#BGCHANGES:;

//---------------dance-single - ----------------
#NOTES:
     dance-single:
     :
     Hard:
     8:
     0.520,0.526,0.251,0.311,0.084: // measure 1
1000
0000
0000
0000
0001
0000
0000
0001
0100
0000
0010
0000
0000
0000
1000
0000
,  // measure 2
0000
0000
0100
0000
0010
0000
0000
0010
0001
0000
1000
0000
0001
0000
0000
0000
,  // measure 3
1000
0000
0000
0000
0001
0000
0000
0001
0010
0000
0100
0000
0000
0000
1000
0000
,  // measure 4
2000
0000
0000
0000
3002
0000
0000
0000
0203
0000
0000
0300
0020
0000
1000
0000
,  // measure 5
1030
0000
0000
0000
1001
0000
0000
0010
0100
0000
0110
0000
0000
0000
1000
0000
,  // measure 6
0000
0100
1000
0001
0100
0001
1000
1000
,  // measure 7
0001
0000
0000
0000
1001
0000
0000
0100
0010
0000
0110
0000
0000
0000
0001
0000
,  // measure 8
0000
0010
0001
1000
0010
1000
0001
0001
,  // measure 9
0010
0000
0000
0000
0110
0000
0000
0001
1000
0000
1001
0000
0000
0000
0010
0000
,  // measure 10
0000
1000
0010
0100
1000
0100
0010
0010
,  // measure 11
0100
0000
0000
0000
0110
0000
0000
1000
0001
0000
1001
0000
0000
0000
0100
0000
,  // measure 12
0000
1000
0100
0010
1000
0010
0100
0100
,  // measure 13
2000
0000
0000
3100
0000
0100
0000
0100
,  // measure 14
0000
0000
0010
0000
0001
0000
1000
0000
0001
0000
0000
0001
1000
0000
1000
0000
,  // measure 15
0010
0000
0100
0010
0000
1010
0000
1000
,  // measure 16
0000
0000
0100
0000
0010
0000
0000
0010
0100
0000
0010
0000
0100
0000
0010
0000
,  // measure 17
0001
0000
0000
0001
0000
0010
0000
0100
,  // measure 18
0000
1000
0001
0000
0100
0000
0010
1000
,  // measure 19
1000
0010
1000
0010
0000
0000
0000
0000
0000
0000
1000
0000
0100
0000
1000
0000
,  // measure 20
0000
0000
1000
0000
0001
0000
0000
1000
0100
0000
1000
0000
0001
0000
0000
0000
,  // measure 21
2000
0000
3000
0010
0000
1000
0000
0100
,  // measure 22
0000
0010
1000
0000
0110
0000
0000
0010
,  // measure 23
0001
0000
0000
1000
0000
0010
0000
0001
,  // measure 24
0000
0020
0000
0000
0030
0000
1000
0001
,  // measure 25
1001
0000
0000
1000
0000
0100
0000
0001
,  // measure 26
0000
0100
0010
0000
0100
0010
0010
0100
,  // measure 27
0000
0000
0000
0100
1000
0010
0001
0010
,  // measure 28
0000
1000
0001
0000
1010
0000
0101
0000
,  // measure 29
2000
0000
3100
0010
0000
1000
0000
0020
,  // measure 30
0000
0030
0000
0001
0001
0000
0200
0000
,  // measure 31
0310
0000
0001
0010
0000
1000
0000
0200
,  // measure 32
0000
0300
0000
0000
1001
0000
0110
0000
,  // measure 33
2000
0000
3100
0010
0000
0001
0000
0200
,  // measure 34
0000
0300
0000
0010
0100
0000
0100
0010
,  // measure 35
0000
0000
0000
1000
0001
0000
0001
1000
,  // measure 36
0000
0002
0000
1003
0000
0100
0000
0010
,  // measure 37
0000
0000
0001
0010
,  // measure 38
0002
0000
0003
0200
0000
0300
0000
0000
,  // measure 39
1001
0001
0100
0001
,  // measure 40
0020
0001
1000
0031
,  // measure 41
0000
0000
0100
0001
,  // measure 42
0201
0000
0000
0000
0000
0300
2010
0000
0000
0000
0000
0000
0000
0000
3010
0000
,  // measure 43
0000
0010
0100
0001
,  // measure 44
0020
0000
0000
0130
0000
1000
0001
1000
,  // measure 45
0000
0010
0100
0000
0110
0000
1001
0000
,  // measure 46
0001
0000
0000
0001
1000
0000
0200
0000
0000
0000
0000
0000
0300
0000
0000
0000
,  // measure 47
1000
0100
0010
0001
,  // measure 48
0200
0000
0001
0300
0020
0000
0030
2000
,  // measure 49
0000
3000
0001
0000
0010
0000
1000
0000
,  // measure 50
0020
0000
0030
0100
0000
1000
0001
0000
,  // measure 51
0100
0000
0000
0000
0010
0000
0000
0100
0010
0000
1000
0000
0010
0000
0000
0000
,  // measure 52
0110
0000
0000
0000
1000
0010
1000
0100
,  // measure 53
0000
1000
0010
0001
,  // measure 54
0020
0000
1000
0000
0001
0000
0000
1000
,  // measure 55
0000
0001
0000
0000
1000
0001
1000
0001
,  // measure 56
0030
0000
0000
0000
;

//---------------dance-single - ----------------
#NOTES:
     dance-single:
     :
     Easy:
     4:
     0.292,0.296,0.000,0.072,0.000:
1000
0000
0001
0000
0000
0001
0000
1000
,
0000
0000
0000
0000
,
0010
0000
0100
0000
0000
0100
0000
0010
,
0000
0000
0000
0000
,
1000
0000
0001
0000
0000
0001
0000
1000
,
0000
1000
0100
1000
,
0001
0000
1000
0000
0000
1000
0000
0001
,
0000
0001
0100
0001
,
1000
0000
0001
0000
0000
1000
0000
0001
,
0000
1000
0010
1000
,
0001
0000
1000
0000
0000
0001
0000
1000
,
0000
0001
0010
0001
,
2000
0000
0000
3001
0000
1000
0000
0001
,
0000
1000
0100
0000
,
1000
0000
0001
0000
,
0100
0010
0000
1000
,
0100
1000
0001
0100
,
0001
1000
0100
1000
,
0002
0000
0003
1000
,
0100
1000
0001
1000
,
0002
0000
0000
1003
0000
0001
0000
1000
,
0000
0001
0010
0000
,
0001
0000
1000
0000
,
0010
0100
0000
0001
,
0010
0001
1000
0010
,
1000
0001
0010
0002
,
0000
0003
1000
0001
,
1000
0000
1000
0000
,
0001
0000
1000
0100
,
1000
0000
0001
0000
,
1000
0000
0001
0010
,
0001
0000
1000
0000
,
0100
0000
1000
0010
,
1000
0000
0001
0000
,
0100
0000
0001
0000
,
1000
0000
0001
0100
,
0001
0000
1000
0001
,
1000
0000
0000
0001
0000
0000
0000
0000
,
1000
0001
1000
0001
,
2000
0000
0000
0000
,
3000
0000
0001
1000
,
0100
0000
0000
1000
0000
0000
0000
0000
,
1000
0001
0010
0001
,
1000
0000
0000
0001
0000
0000
0100
0000
,
0001
1000
0100
1000
,
0001
0000
0000
0010
0000
0000
0000
0000
,
0001
1000
0001
1000
,
0002
0003
1000
0000
,
0100
1000
0001
0100
,
0010
0000
0000
0010
0000
0000
1000
0000
,
0010
1000
0001
0010
,
0001
0100
0001
1000
,
0100
1000
0001
0100
,
0001
1000
0100
0100
,
1000
0100
1000
0001
,
1000
0000
0000
0000
;

//---------------dance-single - Copied from----------------
#NOTES:
     dance-single:
     Copied from:
     Medium:
     6:
     0.432,0.461,0.227,0.287,0.000:
1000
0000
0001
0000
0100
0010
0000
1000
,
0000
0100
0010
0000
0001
1000
0001
0000
,
1000
0000
0001
0000
0010
0100
0000
1000
,
2000
0000
0000
0000
3002
0000
0000
0000
0203
0000
0000
0300
0020
0000
0000
0000
,
1030
0000
1001
0000
0000
0110
0000
1000
,
0000
0100
1000
0001
0100
0001
1000
1000
,
0001
0000
1001
0000
0000
0110
0000
0001
,
0000
0010
0001
1000
0010
1000
0001
0001
,
0010
0000
0110
0000
0000
1001
0000
0010
,
0000
1000
0010
0100
1000
0100
0010
0010
,
0100
0000
0110
0000
0000
1001
0000
0100
,
0000
1000
0100
0010
1000
0010
0100
0100
,
2000
0000
0000
3100
0000
0100
0000
0100
,
0000
0010
0001
1000
0001
0000
0000
1000
,
0010
0000
0100
0010
0000
1010
0000
1000
,
0000
0100
0010
0000
0000
0000
0100
0010
,
0001
0000
0000
0001
0000
0010
0000
0100
,
0000
1000
0001
0000
0100
0000
0010
1010
,
0000
0000
0000
0000
0000
1000
0100
1000
,
0000
0000
0000
0000
,
2000
0000
3000
0010
0000
1000
0000
0100
,
0000
0010
1000
0000
0110
0000
0000
0010
,
0001
0000
0000
1000
0000
0010
0000
0001
,
0000
0010
0000
0000
0000
0000
1000
0001
,
1001
0000
0000
1000
0000
0100
0000
0001
,
0000
0100
0010
0000
0100
0010
0010
0100
,
0000
0000
0000
0100
1000
0010
0001
0010
,
0000
0000
1010
0101
,
2000
0000
3100
0010
0000
1000
0000
0020
,
0000
0030
0000
0001
0001
0000
0200
0000
,
0310
0000
0001
0010
0000
1000
0000
0200
,
0000
0300
0000
0000
1001
0000
0110
0000
,
2000
0000
3100
0010
0000
0001
0000
0100
,
0000
0000
0000
0010
0100
0000
0100
0010
,
0000
0000
0000
1000
0001
0000
0001
1000
,
0000
0002
0000
1003
0000
0100
0000
0010
,
0000
0000
0001
0010
,
0002
0000
0003
0200
0000
0300
0000
0000
,
1001
0001
0100
0001
,
0020
0000
0000
0030
,
0000
0000
0100
0001
,
0200
0000
0000
2300
0000
0000
0000
3010
,
0000
0010
0100
0001
,
0020
0000
0000
0130
0000
1000
0001
1000
,
0000
0010
0100
0000
0110
0000
1001
0000
,
0001
0000
1000
0200
0000
0000
0300
0000
,
1000
0100
0010
0001
,
0200
0000
0000
0300
0020
0000
0030
2000
,
0000
3000
0001
0000
0010
0000
1000
0000
,
0020
0000
0030
0100
0000
0000
0000
0000
,
0100
0000
0000
0010
0000
0000
0010
0000
,
0100
0000
0000
0000
1000
0010
1000
0100
,
0000
1000
0010
0001
,
2000
0000
0000
0000
,
0000
0000
0000
0000
,
3000
0000
0000
0000
;
