#TITLE:Pompeii;
#SUBTITLE:;
#ARTIST:Bastille;
#TITLETRANSLIT:;
#SUBTITLETRANSLIT:;
#ARTISTTRANSLIT:;
#GENRE:;
#CREDIT:;
#BANNER:bn.png;
#BACKGROUND:bg.png;
#LYRICSPATH:;
#CDTITLE:loodeecdtitle.png;
#MUSIC:Pompeii.ogg;
#OFFSET:-1.961;
#SAMPLESTART:41.450;
#SAMPLELENGTH:18.000;
#SELECTABLE:YES;
#DISPLAYBPM:127.000;
#BPMS:0.000=127.500;
#STOPS:;
#BGCHANGES:;
#KEYSOUNDS:;

//---------------dance-single - Loodee----------------
#NOTES:
     dance-single:
     Loodee:
     Challenge:
     10:
     0.668,0.941,0.628,0.141,0.561:
0000
0000
0000
0000
,
0000
0000
0000
0000
,
0000
0000
0000
0000
,
0000
0000
0000
0000
,
0000
0000
0000
0000
,
1100
0000
1100
0000
1000
0000
0001
0100
0000
0100
0000
0000
0010
0000
0010
0000
,
0110
0000
0110
0000
1000
0000
0001
0010
0000
0010
0000
0000
0100
0000
0100
0000
,
1001
0000
1001
0000
0001
0000
0100
0010
0000
0010
0000
0000
1000
0000
1000
0000
,
0011
0000
0011
0000
0001
0000
1000
0100
0000
0001
0000
0000
0100
0000
0100
0000
,
0110
0000
0110
0000
0010
0000
0001
1000
0000
1000
0000
0000
0010
0000
0010
0000
,
0101
0000
0101
0000
0100
0000
0010
1000
0000
1000
0000
0000
0001
0000
0001
0000
,
0011
0000
0011
0000
0010
0000
0100
1000
0000
1000
0000
0000
0100
0000
0100
0000
,
1100
0000
0000
0000
1100
0000
0000
0000
1000
0000
0000
0000
0001
0000
0100
0000
0000
0000
1000
0000
0000
0000
0000
0000
0100
0000
0000
0000
0001
1000
0001
0000
,
0010
0100
1000
0000
1100
0000
1000
0001
0000
0001
0100
0000
0110
0000
0010
1000
,
0001
0000
0001
0000
0101
0000
0100
0010
0000
0010
1000
0000
1001
0000
0001
0000
,
0010
0100
0010
0100
1000
0000
0001
0100
0000
0100
0001
0000
0011
0000
0010
0100
,
1000
0000
1000
0000
1100
0000
1000
0010
0100
1000
0100
0010
1000
0000
0001
0000
,
0010
0100
0010
0000
0011
0000
0001
1000
0000
1000
0010
0000
0101
0000
0001
1000
,
0100
0000
0100
0000
0110
0000
0010
0001
0000
0001
1000
0000
1010
0000
0010
0000
,
0100
0000
0100
0000
0101
0000
0001
0010
0000
0010
0001
0000
1100
0000
1000
0001
,
0100
0000
0100
0000
0101
0000
0001
1000
0010
0001
0010
0100
0001
1000
0001
0000
,
1001
0000
0000
0000
,
0011
0000
0010
0000
0110
0000
1000
0001
1000
0001
0100
0000
0101
0000
0000
0000
,
0001
0000
0001
0000
1001
0000
1000
0100
1000
0100
0010
0000
0011
0000
0000
0000
,
1000
0000
1000
0000
0101
0000
0100
0010
1000
0010
1000
0000
1001
0000
0000
0000
,
0001
0000
1000
0000
1010
0000
0010
0100
1000
0100
0000
0000
1001
0000
0000
0000
,
1100
0000
0100
0000
0110
0000
0001
0010
0100
1000
0100
0000
1100
0000
0000
0000
,
0100
0000
0100
0000
1001
0000
1000
0010
0100
0001
0100
0000
0110
0000
0000
0000
,
0001
0000
0001
0000
0011
0000
0010
0100
1000
0100
0010
0000
0011
0000
0000
0000
,
1000
0000
0010
0000
0101
0000
0001
0100
1000
0100
0000
0000
1010
0000
0000
0000
,
1001
0000
0010
0000
1001
0000
0001
0100
0001
0100
0001
0000
0101
0000
0000
0000
,
1000
0000
0100
0000
0110
0000
0010
1000
0010
1000
0010
0000
0110
0000
0000
0000
,
0001
0000
0100
0000
1010
0000
0010
0001
0010
0001
0010
0000
1010
0000
0000
0000
,
1000
0000
0010
0000
0101
0000
0100
0010
0001
0010
0100
0000
1001
0000
0000
0000
,
1000
0000
0000
0000
,
0100
0000
0010
0000
,
0001
0000
0000
0000
,
0100
0000
0000
0000
0010
0000
0000
2000
,
0000
3200
0320
0032
0000
0203
0000
2300
,
0000
0000
3100
0000
0000
0000
0002
0023
,
0000
0230
0000
0320
0000
0230
0000
2300
,
0000
0000
0000
3000
0000
0000
0000
1000
,
0001
0100
0001
0100
0010
0000
1000
0000
0001
0010
0100
1000
0001
0100
0001
1000
,
0100
1000
0100
0010
0001
0010
0001
0000
1000
0100
1000
0001
0100
0001
0010
0001
,
0010
0100
1000
0100
0010
0000
0001
0000
1000
0010
0100
0001
0100
0001
0010
0100
,
1000
0100
0010
0001
1000
0001
0100
0000
0010
0100
0001
0100
0010
1000
0001
1000
,
0001
0000
0010
0000
0100
0000
0010
0000
0100
0000
0010
0000
0001
0000
0010
0000
0100
0000
0010
0000
0001
0000
0100
0000
0001
0000
0100
0000
0001
1000
0001
1000
,
0001
0000
0100
0000
0010
0000
1000
0000
0010
0000
0100
0000
0001
0000
0100
0000
0001
0000
1000
0000
0001
0000
1000
0000
0100
0000
0010
0000
0001
0010
0001
0010
,
0001
1000
0001
1000
0010
1000
0010
1000
0001
0100
0001
0100
0001
0010
0100
1000
,
0001
0000
0101
0000
1001
0000
0001
1000
0000
1100
0000
1000
0010
0000
0110
0000
,
1001
0000
0000
0000
,
1001
0000
0100
0000
1001
0000
0001
0010
0100
1000
0010
0000
1010
0000
0000
0000
,
1000
0000
0010
0000
0110
0000
0100
0001
0010
0001
0100
0000
0101
0000
0000
0000
,
0001
0000
0010
0000
0110
0000
0100
1000
0100
0010
0001
0000
1001
0000
0000
0000
,
1000
0000
0010
0000
0101
0000
0100
0001
0100
1000
0000
0000
1100
0000
0000
0000
,
0110
0000
0001
0000
1001
0000
1000
0100
0010
0001
0010
0000
0011
0000
0000
0000
,
0010
0000
0010
0000
1001
0000
0001
0100
0010
1000
0010
0000
0110
0000
0000
0000
,
1000
0000
1000
0000
1001
0000
0001
0100
0010
1000
0100
0000
1100
0000
0000
0000
,
0001
0000
0100
0000
1010
0000
1000
0010
0001
0010
0000
0000
0110
0000
0200
0000
,
0000
0300
0100
0000
0001
0000
0000
0000
1000
0000
0001
0000
0000
0000
0020
0000
,
0000
0030
0010
0000
0100
0000
0000
0000
1000
0000
0100
0000
0000
0000
2000
0000
,
0000
3000
1000
0000
0100
0000
0000
0000
0010
0000
0001
0000
0000
0000
0002
0000
,
0000
0003
0001
0000
0100
0000
0000
0000
0010
0000
0100
0000
0000
0000
0020
0000
,
0000
0030
0010
0000
1000
0000
0000
0000
0001
0000
0010
0000
0000
0000
0200
0000
,
0000
0300
0100
0000
0010
0000
0000
0000
0001
0000
1000
0000
0000
0000
00M0
0000
,
0000
0M00
00M0
0000
0M00
00M0
0000
0000
,
0000
0000
0000
0M00
0000
0000
0000
0000
0000
0000
00M0
0000
0000
0000
0000
0000
;

//---------------dance-single - Not my chart----------------
#NOTES:
     dance-single:
     Not my chart:
     Edit:
     8:
     -1.000,-1.000,-1.000,-1.000,-1.000:
0000
0000
0000
0000
,
0000
0000
0000
0000
,
0000
0000
0000
0000
,
0000
0000
0000
0000
,
0000
0000
0000
0000
,
1100
0000
1100
0000
1000
0000
0001
0010
0000
0010
0000
0000
0001
0000
0001
0000
,
0101
0000
0101
0000
0100
0000
0010
0100
0000
0100
0000
0000
0010
0000
0010
0000
,
1010
0000
1010
0000
1000
0000
0001
1000
0000
1000
0000
0000
0001
0000
0001
0000
,
0011
0000
0011
0000
0010
0000
0100
1000
0000
1000
0000
0000
0001
0000
0001
0000
,
1001
0000
1001
0000
1000
0000
0010
0100
0000
0100
0000
0000
0001
0000
0001
0000
,
1001
0000
1001
0000
1000
0000
0100
1000
0000
1000
0000
0000
0100
0000
0100
0000
,
0110
0000
0110
0000
0010
0000
0001
1000
0000
1000
0000
0000
0010
0000
0010
0000
,
0110
0000
0110
0000
0100
0000
0001
1000
0000
1000
0000
0000
0010
0000
1000
0000
,
0001
0100
0001
0000
1001
0000
0000
1000
0000
0000
0100
0000
1100
0000
0000
0000
,
1000
0001
1000
0000
1010
0000
0000
0010
0000
0000
0100
0000
0101
0000
0000
0000
,
0001
1000
0001
0000
0011
0000
0000
0010
0000
0000
0001
0000
1001
0000
0000
0000
,
1000
0100
1000
0000
1001
0000
0000
0001
0000
0000
0100
0000
0110
0000
0000
0000
,
0001
1000
0001
0000
0101
0000
0000
1000
0000
0000
0100
0000
1100
0000
0000
0000
,
1000
0001
1000
0000
1010
0000
0000
0001
0000
0000
0010
0000
0011
0000
0000
0000
,
0001
1000
0001
0000
0011
0000
0000
0010
0000
0000
0100
0000
1100
0000
0000
0000
,
1000
0001
1000
0000
1010
0000
0000
0000
0010
0000
0100
0000
0001
0000
1000
0000
,
1001
0000
0000
0000
,
1100
0000
0000
0000
1000
0000
0001
0010
0001
1000
0001
0000
0100
0000
0000
0000
,
0010
0000
0000
0000
1000
0000
0001
1000
0001
0100
0001
0000
0010
0000
0000
0000
,
1100
0000
0000
0000
0100
0000
1000
0001
1000
0100
1000
0000
0010
0000
0000
0000
,
0101
0000
0000
0000
0001
0000
0010
0001
0010
0100
0010
0000
0100
0000
0000
0000
,
0011
0000
0000
0000
0010
0000
0001
1000
0001
0100
0001
0000
1000
0000
0000
0000
,
0010
0000
0000
0000
0100
0000
0001
1000
0001
0010
0001
0000
0100
0000
0000
0000
,
1010
0000
0000
0000
1000
0000
0100
1000
0100
0010
0100
0000
1000
0000
0000
0000
,
0101
0000
0000
0000
0001
0000
0100
0001
0100
0010
0100
0000
0010
0000
0000
0000
,
1001
0000
1000
0100
1000
0000
0010
1000
0010
0100
0010
0000
1000
0000
0000
0000
,
1001
0000
0001
0100
0001
0000
0010
0001
0010
0100
0010
0000
0100
0000
0000
0000
,
0011
0000
0010
0001
0010
0000
0001
1000
0001
0010
0001
0000
0100
0000
0000
0000
,
1010
0000
0010
1000
0010
0000
1000
0001
1000
0100
1000
0000
0010
0000
0000
0000
,
0110
0000
0000
0000
,
1001
0000
0000
0000
,
1100
0000
0000
0000
,
0101
0000
0000
0000
0000
0000
0000
2000
,
0000
3200
2300
3020
0000
0230
0000
0302
,
0000
0000
0003
0000
0000
0000
2000
3020
,
0000
0230
0000
0302
0000
2003
0000
3200
,
0000
0000
0300
0000
0000
0000
1000
0100
,
1000
0000
0000
1000
0001
0000
0100
0000
0001
0000
1000
0000
0001
0000
0100
0000
,
0001
0000
0000
0001
1000
0000
0100
0000
1000
0000
0001
0000
1000
0000
0100
0000
,
1000
0000
0000
1000
0010
0000
0100
0000
0010
0000
1000
0000
0010
0000
0100
0000
,
0010
0000
0000
0010
0100
0000
0001
0000
0100
0000
0010
0000
0100
0000
0001
0000
,
1000
0000
0000
0001
1000
0000
0001
0000
0100
0000
0001
0000
1000
0010
1000
0010
,
1000
0000
0000
0001
0100
0000
0010
0000
1000
0000
0100
0000
1000
0001
1000
0001
,
1000
0000
0000
0100
1000
0001
1000
0000
0001
0000
0100
0000
0001
1000
0100
0000
,
1000
0000
0010
0000
0100
0000
0001
1000
0000
0100
0000
0010
0100
0000
1000
0000
,
1001
0000
0000
0000
,
1100
0000
0000
0000
1000
0000
0010
1000
0001
1000
0100
0000
1000
0000
0000
0000
,
1001
0000
0000
0000
0001
0000
0010
0001
1000
0001
0100
0000
0010
0000
0000
0000
,
1100
0000
0000
0000
1000
0000
0001
0100
0010
0100
0001
0000
1000
0000
0000
0000
,
1001
0000
0000
0000
0001
0000
1000
0001
0010
0001
1000
0000
0100
0000
0000
0000
,
1001
1000
1100
0000
1001
0001
0101
0000
,
0110
0100
0101
0000
0011
0001
1001
0000
,
1010
1000
1100
0000
0011
0001
0101
0000
,
1100
0100
0110
0000
0101
0100
0110
0010
,
0000
0010
1000
0000
0010
0100
0000
1000
,
0000
1000
0001
0000
1000
0010
0000
1000
,
0000
1000
0001
0000
1000
0010
0000
0100
,
0000
0100
0010
0000
0100
0001
0000
0010
,
0000
0020
0030
0000
0020
0030
0000
0001
,
0000
0002
0003
0000
0002
0003
0000
1000
,
0000
2000
3000
0000
2000
3000
0000
0100
,
0000
0200
0300
0000
0200
0300
0000
0000
;

//---------------dance-single - Loodee----------------
#NOTES:
     dance-single:
     Loodee:
     Hard:
     8:
     0.430,0.544,0.157,0.118,0.204:
0000
0000
0000
0000
,
0000
0000
0000
0000
,
0000
0000
0000
0000
,
0000
0000
0000
0000
,
0000
0000
0000
0000
,
1000
0000
1000
0000
0001
0000
0100
0001
0000
0000
0000
0000
1000
0000
0001
0000
,
0100
0000
0100
0000
0001
0000
1000
0001
0000
0000
0000
0000
0010
0000
0100
0000
,
0010
0000
0010
0000
0001
0000
1000
0010
0000
0000
0000
0000
1000
0000
0001
0000
,
0100
0000
0100
0000
0010
0000
1000
0100
0000
0000
0000
0000
0010
0000
0001
0000
,
0100
0000
0100
0000
0001
0000
1000
0001
0000
0000
0000
0000
0100
0000
0010
0000
,
1000
0000
1000
0000
0010
0000
0100
0010
0000
0000
0000
0000
1000
0000
0100
0000
,
0010
0000
0010
0000
0001
0000
1000
0100
0000
0000
0000
0000
1000
0000
0010
0000
,
0100
0000
0100
0000
0001
0000
1000
0001
0000
0000
0000
0000
0010
0000
0100
1000
,
0100
1000
1100
0000
0000
0001
0101
0000
,
1000
0001
1001
0000
0000
0010
1001
0000
,
0001
0100
0101
0000
0000
1000
1100
0000
,
0100
0010
0110
0000
0000
0100
1001
0000
,
0001
0000
0100
0000
0001
0000
1000
0001
0000
0000
1000
0000
0010
0000
0000
0000
,
1000
0000
0100
0000
1000
0000
0100
1000
0000
0000
0100
0000
0010
0000
0000
0000
,
0001
0000
1000
0000
0001
0000
1000
0001
0000
0000
0100
0000
0010
0000
0000
0000
,
1000
0000
0010
0000
1000
0000
0010
1000
0000
0000
0001
0000
0010
0000
0000
0000
,
0110
0000
0000
0000
,
1001
0000
1000
0000
0001
0000
1000
0100
1000
0000
0001
0000
0100
0000
0000
0000
,
0001
0000
0001
0000
1000
0000
0010
0100
0010
0000
1000
0000
0001
0000
0000
0000
,
0010
0000
0010
0000
0100
0000
1000
0001
1000
0000
0100
0000
0010
0000
0000
0000
,
0001
0000
0001
0000
1000
0000
0001
0100
0001
0000
0000
0000
0101
0000
0000
0000
,
1100
0000
0100
0000
1000
0000
0001
0010
0001
0000
1000
0000
0010
0000
0000
0000
,
0100
0000
0100
0000
0010
0000
1000
0010
1000
0000
0001
0000
0010
0000
0000
0000
,
0100
0000
0100
0000
1000
0000
0100
0010
0100
0000
1000
0000
0001
0000
0000
0000
,
1000
0000
1000
0000
0001
0000
0100
0010
0100
0000
0000
0000
1001
0000
0000
0000
,
1001
0001
0010
0100
1000
0010
0100
0000
,
0100
0000
0100
0000
0001
0000
1000
0100
1000
0000
0010
0000
0100
0000
0000
0000
,
0001
0100
0001
0100
0010
1000
0100
0000
,
0100
0000
0100
0000
0010
0000
0001
0010
0100
0000
0000
0000
1100
0000
0000
0000
,
1000
0000
0000
0000
,
0010
0000
0100
0000
,
0001
0000
0000
0000
,
0010
0000
0000
0000
0100
0000
0000
2000
,
0000
3002
0000
0203
0000
0320
0000
2030
,
0000
0000
3000
0000
0000
0000
0002
0023
,
0000
0230
0000
2300
0000
3200
0000
0320
,
0000
0030
0000
0000
0000
0000
0000
0000
,
1000
0100
1000
0100
1000
0000
0000
0000
0001
0000
0000
0000
0100
0000
0000
0000
,
0001
1000
0001
1000
0001
0000
0000
0000
0010
0000
0000
0000
0100
0000
0000
0000
,
0010
0100
0010
0100
0010
0000
0000
0000
0001
0000
0000
0000
1000
0000
0000
0000
,
0001
0100
0001
0100
0001
0000
0000
0000
1000
0000
0000
0000
0100
0000
0000
0000
,
1000
0100
1000
0100
0010
0000
0000
0000
0001
0000
0000
0000
0100
0000
0010
0000
,
0100
0001
0100
0001
1000
0000
0000
0000
0100
0000
0000
0000
0010
0000
0001
0000
,
1000
0001
1000
0001
0100
0000
0000
0000
0001
1000
0001
1000
0001
1000
0001
1000
,
0001
0000
0001
0000
1000
0000
0010
1000
0000
0001
0000
1000
0010
0000
0010
0000
,
1001
0000
0000
0000
,
0011
0000
0001
0000
1000
0000
0001
0010
0001
0000
1000
0000
0010
0000
0000
0000
,
1000
0000
1000
0000
0001
0000
0100
0010
0100
0000
0001
0000
1000
0000
0000
0000
,
0100
0000
0100
0000
0010
0000
0001
1000
0001
0000
0010
0000
0100
0000
0000
0000
,
1000
0000
1000
0000
0001
0000
1000
0010
1000
0000
0000
0000
1010
0000
0000
0000
,
0011
0000
0010
0000
0001
0000
1000
0100
1000
0000
0001
0000
0100
0000
0000
0000
,
0010
0000
0010
0000
0100
0000
0001
0100
0001
0000
1000
0000
0100
0000
0000
0000
,
0010
0000
0010
0000
0001
0000
0010
0100
0010
0000
0001
0000
1000
0000
0000
0000
,
0001
0000
0001
0000
1000
0000
0001
0010
0100
0000
0000
0000
0110
0000
0000
0000
,
0002
0000
0000
0000
,
2003
0000
0000
0000
,
3020
0000
0000
0000
,
0230
0000
0000
0000
,
0301
0000
0000
0000
;

//---------------dance-single - Loodee----------------
#NOTES:
     dance-single:
     Loodee:
     Medium:
     5:
     0.364,0.470,0.126,0.502,0.008:
0000
0000
0000
0000
,
0000
0000
0000
0000
,
0000
0000
0000
0000
,
0000
0000
0000
0000
,
0000
0000
0000
0000
,
0001
0001
2000
0000
0000
0000
0000
0000
,
3100
0100
0020
0000
0000
0000
0000
0000
,
0130
0100
1000
0000
0000
0000
0000
0000
,
0010
0010
0100
0000
0000
0000
0001
0000
,
1000
1000
0200
0000
0000
0000
0000
0000
,
1300
1000
0002
0000
0000
0000
0000
0000
,
0013
0010
0100
0000
0000
0000
0000
0000
,
0010
0010
0100
0000
0000
0000
1000
0001
,
1000
0000
1010
0000
0001
0010
0100
0000
,
1000
0000
1001
0000
0001
0100
0010
0000
,
2000
3200
0320
0032
,
0013
0000
0110
0000
0000
1000
0001
0000
,
0010
0000
0011
0000
1000
0010
1000
0000
,
0001
0000
0101
0000
0100
0010
1000
0000
,
0002
0023
0230
2300
,
3010
0000
1001
0000
0000
0001
1000
0000
,
1100
0000
0000
0000
,
1000
0020
0130
0000
0020
0130
0001
0020
,
0030
0020
0130
0000
0020
0130
1000
0002
,
0003
0002
1003
0000
0002
1003
0010
0200
,
0001
0010
0301
0101
,
0001
2000
3100
0000
2000
3100
0010
0002
,
0003
0002
0013
0000
0002
0013
0100
2000
,
3000
2000
3010
0000
2000
3010
0100
0002
,
0000
0100
0013
1001
,
0001
0010
0100
1000
0010
0000
1010
0000
,
1000
0100
0010
0001
0100
0000
0101
0000
,
0001
0010
0001
0010
0100
0000
1100
0000
,
1000
0010
0100
0000
0110
0000
0110
0000
,
0001
0000
0000
0000
,
0010
0000
0000
0000
,
0100
0000
0000
0000
,
1000
0000
0000
0000
0000
0000
0000
0002
,
0000
0000
0000
0023
0000
0230
0000
2300
,
0000
0000
3000
0000
0000
0000
0000
0020
,
0000
0230
0000
0320
0000
2030
0000
3002
,
0000
0003
0000
0000
,
1000
0100
1000
0000
0010
0000
0100
0000
,
0001
0010
0001
0000
1000
0000
0001
0000
,
1000
0100
0010
0000
0001
0000
0100
0000
,
0001
0010
0100
0000
1000
0000
0010
0000
,
0100
0010
0100
0010
1000
0001
1000
1000
,
0001
0010
0100
1000
0001
1000
0001
0001
,
2000
0000
3020
0000
0230
0000
0301
1000
,
0010
0000
0010
0000
0010
0000
1000
0001
0000
1000
0000
0000
0001
0000
0001
0000
,
0001
0000
0000
0000
,
0001
0200
0310
0000
0200
0310
1000
0200
,
0300
0200
1300
0000
0200
1300
0001
2000
,
3000
2000
3010
0000
2000
3010
0100
0002
,
1000
0100
1003
1010
,
1000
0002
0013
0000
0002
0013
0100
2000
,
3000
2000
3100
0000
2000
3100
0010
0002
,
0003
0002
0103
0000
0002
0103
0010
2000
,
0000
0010
3100
1100
,
0002
0000
0000
0000
,
0023
0000
0000
0000
,
0230
0000
0000
0000
,
2300
0000
0000
0000
,
3001
0000
0000
0000
;

//---------------dance-single - Loodee----------------
#NOTES:
     dance-single:
     Loodee:
     Easy:
     3:
     0.258,0.321,0.071,0.236,0.000:
0000
0000
0000
0000
,
0000
0000
0000
0000
,
0000
0000
0000
0000
,
0000
0000
0000
0000
,
0000
0000
0000
0000
,
1000
0020
0000
0000
,
0130
0002
0000
0000
,
1003
0000
0000
0000
,
0001
0000
0000
0100
,
0001
2000
0000
0000
,
3001
0200
0000
0000
,
0301
2000
0000
3100
,
0010
0000
0000
0010
,
0001
1000
0001
0000
0000
0000
0100
0000
,
0010
1000
0010
0000
0000
0000
1000
0000
,
0002
0023
0032
0023
,
0130
1000
0100
0000
0000
0000
1000
0000
,
0001
1000
0001
0000
0000
0000
0010
0000
,
0100
0010
0100
0000
0000
0000
1000
0000
,
0020
2030
3020
2030
,
3001
0010
0001
0000
0000
0000
1000
0000
,
1001
0000
0000
0000
,
0001
0010
0001
0000
1000
0000
0010
0000
,
0100
0001
0100
0000
0010
0000
1000
0000
,
0100
0010
0100
0000
1000
0000
0001
0000
,
2000
3002
0103
0100
,
1001
0001
0010
0100
,
1000
0001
1000
0000
0010
0000
0100
0000
,
0001
0010
0001
0000
1000
0000
0001
0000
,
0020
0230
1300
1100
,
1000
1000
0010
0010
,
1000
0001
1000
0000
0001
0000
0001
0000
,
0001
0001
1000
1000
,
0001
1000
0001
0000
1001
0000
1001
0000
,
0000
0000
0000
0000
,
0001
0000
0000
0000
,
0010
0000
0000
0000
,
0100
0000
0000
0000
0000
0000
0000
2000
,
0000
0000
0000
3002
0000
0000
0000
2003
,
0000
0000
0000
3000
0000
0000
0000
0020
,
0000
0000
0000
0230
0000
0000
0000
0302
,
0000
0000
0000
0003
0000
0000
0000
0000
,
1000
1000
0001
0001
,
0010
0010
0100
0100
,
0002
2003
3002
2003
,
3010
0010
0100
0100
,
0001
0010
0100
1000
,
0001
0010
0100
1000
,
0001
0100
0001
0100
0001
1000
0001
1000
,
0001
0001
1000
0000
0000
0000
0010
0010
,
1001
0000
0000
0000
,
1001
0001
1000
0010
,
0100
0001
0100
0000
0010
0000
1000
0000
,
0100
0010
0100
0000
1000
0000
0001
0000
,
2000
3002
0103
0100
,
1001
1000
0001
0100
,
0010
1000
0010
0000
0100
0000
0001
0000
,
0010
0100
0010
0000
0001
0000
1000
0000
,
0002
0000
0013
0110
,
1000
0000
0000
0000
,
0100
0000
0000
0000
,
0010
0000
0000
0000
,
0001
0000
0000
0000
,
1000
0000
0000
0000
;
