#VERSION:0.81;
#TITLE:メギツネ;
#SUBTITLE:;
#ARTIST:BABYMETAL;
#TITLETRANSLIT:Megitsune;
#SUBTITLETRANSLIT:;
#ARTISTTRANSLIT:;
#GENRE:;
#ORIGIN:;
#CREDIT:;
#BANNER:[Round 7] - Megitsune.png;
#BACKGROUND:[Round 7] - Megitsune-bg.png;
#PREVIEWVID:;
#JACKET:[Round 7] - Megitsune-jacket.png;
#CDIMAGE:;
#DISCIMAGE:;
#LYRICSPATH:;
#CDTITLE:cdtitle.png;
#MUSIC:[Round 7] - Megitsune.ogg;
#OFFSET:-0.099000;
#SAMPLESTART:71.010910;
#SAMPLELENGTH:13.521133;
#SELECTABLE:YES;
#BPMS:0.000=284.000;
#STOPS:327.000=1.690;
#DELAYS:;
#WARPS:;
#TIMESIGNATURES:0.000=4=4;
#TICKCOUNTS:0.000=4;
#COMBOS:0.000=1;
#SPEEDS:0.000=1.000=0.000=0;
#SCROLLS:0.000=1.000;
#FAKES:;
#LABELS:0.000=Song Start;
#BGCHANGES:;
#KEYSOUNDS:;
#ATTACKS:
;

//---------------dance-single - ----------------
#NOTEDATA:;
#CHARTNAME:;
#STEPSTYPE:dance-single;
#DESCRIPTION:;
#CHARTSTYLE:;
#DIFFICULTY:Hard;
#METER:10;
#RADARVALUES:0.743464,0.919918,0.450368,0.150123,0.000000,552.000000,54.000000,18.000000,0.000000,0.000000,0.000000,0.000000,0.000000,0.743464,0.919918,0.450368,0.150123,0.000000,552.000000,54.000000,18.000000,0.000000,0.000000,0.000000,0.000000,0.000000;
#CREDIT:;
#NOTES:
// measure 0
0000
0000
0000
0000
,  // measure 1
0000
0000
0000
0000
,  // measure 2
0000
0000
0000
0000
,  // measure 3
0000
0000
0000
0000
,  // measure 4
0000
0000
0000
0000
,  // measure 5
0000
0000
0000
0000
,  // measure 6
0000
0000
0000
0000
,  // measure 7
0000
0000
0000
0000
,  // measure 8
0000
0000
0000
0000
,  // measure 9
0000
0000
0000
0000
,  // measure 10
0000
0000
0000
0000
,  // measure 11
0000
0000
0000
0000
,  // measure 12
0000
0000
0000
0000
,  // measure 13
0000
0000
0000
0000
,  // measure 14
0000
0000
0000
0000
,  // measure 15
0000
0000
0000
0000
,  // measure 16
2001
0000
0000
0000
,  // measure 17
0000
0000
0000
0000
,  // measure 18
3001
0100
0010
0100
,  // measure 19
0001
0010
0100
0010
,  // measure 20
0001
1000
0001
1000
0100
0000
1100
0000
,  // measure 21
1000
0001
1000
0001
0100
0000
0101
0000
,  // measure 22
0001
0100
1000
0100
,  // measure 23
0001
0010
1000
0010
,  // measure 24
0001
0100
0001
0100
0001
0000
1001
0000
,  // measure 25
1000
0100
1000
0100
1000
0000
1001
0000
,  // measure 26
1000
0100
0010
0100
,  // measure 27
1000
0010
0100
0010
,  // measure 28
1000
0001
1000
0001
0100
0000
0101
0000
,  // measure 29
0001
1000
0001
1000
0100
0000
1100
0000
,  // measure 30
1000
0100
0001
0100
,  // measure 31
1000
0010
0001
0010
,  // measure 32
1000
0000
1000
0000
1000
0000
1000
0001
,  // measure 33
0000
1001
0000
0001
1000
0000
0000
0000
,  // measure 34
0001
0100
0001
1000
0000
1001
0000
1000
,  // measure 35
0100
0000
1100
0000
1000
0100
0010
0000
,  // measure 36
0100
1000
0001
0001
0000
1001
0000
1000
,  // measure 37
0010
0000
0110
0000
0010
0100
0001
0000
,  // measure 38
1000
0100
1000
0001
0000
1001
0000
0001
,  // measure 39
0100
0000
0101
0000
0001
0100
0010
0000
,  // measure 40
1000
0100
0001
0100
,  // measure 41
1000
0010
0001
0010
,  // measure 42
1000
0100
1000
0001
0000
1001
0000
0001
,  // measure 43
0100
0000
0101
0000
0001
0100
0010
0000
,  // measure 44
0100
0001
1000
1000
0000
1001
0000
0001
,  // measure 45
0010
0000
0110
0000
0010
0100
1000
0000
,  // measure 46
0001
0100
0001
1000
0000
1001
0000
1000
,  // measure 47
0010
0000
1010
0000
1000
0100
0010
0000
,  // measure 48
0001
0100
1000
0100
,  // measure 49
0001
0010
1000
0010
,  // measure 50
0002
0000
0000
1000
0000
0000
0100
0000
,  // measure 51
0103
0000
0000
0000
0000
0000
0001
1000
,  // measure 52
0200
0000
0000
0001
0000
0000
2300
0000
,  // measure 53
0010
0010
3002
1003
,  // measure 54
2001
0000
0000
0001
0000
0000
0100
0000
,  // measure 55
3100
0000
0000
0000
0000
0000
1000
0001
,  // measure 56
0200
0000
0000
1000
0000
0000
0302
0000
,  // measure 57
1003
0001
1000
0001
1000
0001
1000
0001
,  // measure 58
2000
0000
0000
0001
0000
0000
0100
0000
,  // measure 59
3100
0000
0000
0000
0000
0000
1000
0001
,  // measure 60
0200
0000
0000
1000
0000
0000
0302
0000
,  // measure 61
0010
0000
0010
0000
1003
0001
1000
0001
,  // measure 62
1000
0000
1000
0000
,  // measure 63
0001
0000
0001
0000
,  // measure 64
1000
0100
1000
1000
,  // measure 65
0001
0100
0001
0001
,  // measure 66
1000
0010
0100
0001
0010
0100
1000
0010
,  // measure 67
0100
0001
0010
0100
1000
0000
0000
0000
,  // measure 68
1002
0000
0000
0000
,  // measure 69
0000
0000
0000
0000
,  // measure 70
2003
0000
0000
0000
,  // measure 71
0002
0000
3003
0000
,  // measure 72
0012
0000
0000
0000
,  // measure 73
0000
0000
0000
0000
,  // measure 74
2003
0000
0000
0000
,  // measure 75
0100
0100
3100
0000
,  // measure 76
2010
0000
0000
0000
,  // measure 77
0000
0000
0000
0000
,  // measure 78
3002
0000
0000
0000
,  // measure 79
0100
0100
0103
0000
,  // measure 80
1001
0000
1000
0100
,  // measure 81
0010
0001
0100
0010
,  // measure 82
1000
0000
0100
0000
0010
0100
0010
0000
,  // measure 83
0001
0000
0100
0000
0010
0100
0010
0000
,  // measure 84
1000
0100
0010
0000
0001
0100
0010
0000
,  // measure 85
1000
0100
0100
0000
1000
0010
0100
0000
,  // measure 86
0001
0000
0010
0000
0100
0010
0100
0000
,  // measure 87
1000
0000
0010
0000
0100
0010
0100
0000
,  // measure 88
0001
0010
0001
0010
0001
0010
0001
0001
,  // measure 89
1000
0010
1000
0010
1000
0010
1000
1000
,  // measure 90
0001
0000
0100
0000
0010
0100
0010
0000
,  // measure 91
0100
0000
0001
0010
1000
0010
0001
0000
,  // measure 92
1000
0000
0100
0000
0010
0100
0010
0000
,  // measure 93
0100
0000
1000
0010
0001
0010
1000
0000
,  // measure 94
0001
0100
0010
0000
1000
0100
0010
0000
,  // measure 95
0001
0100
0100
0000
0001
0010
0100
0000
,  // measure 96
1000
0001
1000
0001
1000
0001
1000
0001
,  // measure 97
1000
0001
0000
0001
1000
0000
1001
0000
,  // measure 98
0001
0100
0010
0100
,  // measure 99
0001
1000
0000
1000
0001
0000
1001
0000
,  // measure 100
0001
0000
0100
0010
0100
0000
0001
0000
,  // measure 101
1000
0100
0010
0000
0100
0010
0001
0000
,  // measure 102
1000
0100
0010
0100
,  // measure 103
1000
0001
0000
0001
1000
0000
1001
0000
,  // measure 104
1000
0000
0100
0010
0100
0000
1000
0000
,  // measure 105
0001
0100
0010
0000
0100
0010
1000
0000
,  // measure 106
0001
0100
1000
0100
,  // measure 107
0010
1000
0000
1000
0001
0000
1001
0000
,  // measure 108
1000
0100
0001
0100
,  // measure 109
0010
0001
0000
0001
1000
0000
1001
0000
,  // measure 110
0001
0100
0010
0010
,  // measure 111
1000
0100
0010
0010
,  // measure 112
0001
0000
0000
0100
0000
0000
0001
0000
,  // measure 113
1000
0000
0000
0100
0000
0000
1000
0000
,  // measure 114
0001
0100
0001
1000
0000
1001
0000
1000
,  // measure 115
0100
0000
1100
0000
1000
0100
0010
0000
,  // measure 116
0100
1000
0001
0001
0000
1001
0000
1000
,  // measure 117
0010
0000
0110
0000
0010
0100
0001
0000
,  // measure 118
1000
0100
1000
0001
0000
1001
0000
0001
,  // measure 119
0100
0000
0101
0000
0001
0100
0010
0000
,  // measure 120
0100
0001
1000
1000
0000
1001
0000
0001
,  // measure 121
0010
0000
0110
0000
0100
1000
0001
0000
,  // measure 122
1000
0100
1000
0001
0000
1001
0000
0001
,  // measure 123
0100
0000
0101
0000
0001
0100
0010
0000
,  // measure 124
0100
0001
1000
1000
0000
1001
0000
0001
,  // measure 125
0010
0000
0110
0000
0010
0100
1000
0000
,  // measure 126
0001
0100
0001
1000
0000
1001
0000
1000
,  // measure 127
0010
0000
1010
0000
1000
0100
0010
0000
,  // measure 128
0100
1000
0001
0001
0000
1001
0000
1000
,  // measure 129
0010
0000
0110
0000
0100
0001
1000
0000
,  // measure 130
0001
0100
0001
1000
0000
1001
0000
0001
,  // measure 131
1000
0100
1000
0001
0000
1001
0000
1000
,  // measure 132
0001
0100
0001
1000
0000
1001
0000
1000
,  // measure 133
0010
0000
1010
0000
1000
0001
1000
0001
,  // measure 134
1000
0100
1000
0001
0000
1001
0000
1000
,  // measure 135
0001
0100
0001
1000
0000
1001
0000
0001
,  // measure 136
1000
0100
1000
0001
0000
1001
0000
0001
,  // measure 137
0010
0000
0011
0000
0001
1000
0001
1000
;

//---------------dance-single - ----------------
#NOTEDATA:;
#CHARTNAME:;
#STEPSTYPE:dance-single;
#DESCRIPTION:;
#CHARTSTYLE:;
#DIFFICULTY:Medium;
#METER:7;
#RADARVALUES:0.453942,0.516046,0.241864,0.308585,0.000000,315.000000,29.000000,37.000000,0.000000,0.000000,0.000000,0.000000,0.000000,0.453942,0.516046,0.241864,0.308585,0.000000,315.000000,29.000000,37.000000,0.000000,0.000000,0.000000,0.000000,0.000000;
#CREDIT:;
#NOTES:
0000
0000
0000
0000
,
0000
0000
0000
0000
,
0000
0000
0000
0000
,
0000
0000
0000
0000
,
0000
0000
0000
0000
,
0000
0000
0000
0000
,
0000
0000
0000
0000
,
0000
0000
0000
0000
,
0000
0000
0000
0000
,
0000
0000
0000
0000
,
0000
0000
0000
0000
,
0000
0000
0000
0000
,
0000
0000
0000
0000
,
0000
0000
0000
0000
,
0000
0000
0000
0000
,
0000
0000
0000
0000
,
1002
0000
0000
0000
,
0000
0000
0000
0000
,
1003
0100
0001
0000
,
0001
0100
1000
0000
,
0001
0100
0001
0001
,
1000
0100
1000
1000
,
0001
0100
1000
0000
,
1000
0010
0001
0000
,
1000
0100
1000
1000
,
0001
0100
0001
0001
,
1000
0100
0001
0000
,
0001
0100
1000
0000
,
0001
0100
0010
0010
,
1000
0100
0010
0010
,
0001
0100
1000
0000
,
1000
0010
0001
0000
,
1000
0000
1000
0000
1000
0000
1000
0001
,
0000
1001
0000
0001
1000
0000
0000
0000
,
1000
0100
0010
0100
,
0010
0001
1001
0000
,
0001
0100
0010
0100
,
0010
1000
1001
0000
,
1000
0100
0010
0100
,
0010
0001
1001
0000
,
0001
0100
1000
0100
,
0001
0010
1000
0010
,
0001
0100
0010
0100
,
0010
1000
1001
0000
,
1000
0100
0010
0100
,
0010
0001
1001
0000
,
0001
0100
0010
0100
,
0010
1000
1001
0000
,
1000
0100
0001
0100
,
1000
0010
0001
0010
,
2000
0000
0000
0000
,
3200
0000
0000
0000
,
0001
0000
2300
0000
,
3001
0000
0000
0000
,
0002
0000
0000
0000
,
0203
0000
0000
0000
,
1000
0000
0302
0000
,
1003
0000
0000
0000
,
2000
0000
0000
0000
,
3200
0000
0000
0000
,
0001
0000
2300
0000
,
3001
0000
0000
0000
,
0001
0000
0001
0000
,
1000
0000
1000
0000
,
0001
0001
0010
0010
,
0100
0100
1000
1000
,
2002
0000
0000
0000
,
0000
3003
0000
0000
,
1002
0000
0000
0000
,
0000
0000
0000
0000
,
2003
0000
0000
0000
,
0002
0000
3003
0000
,
2010
0000
0000
0000
,
0000
0000
0000
0000
,
3002
0000
0000
0000
,
0100
0100
0103
0000
,
0012
0000
0000
0000
,
0000
0000
0000
0000
,
2003
0000
0000
0000
,
0100
0100
3100
0000
,
1001
0000
0001
0010
,
0100
1000
0010
0100
,
0001
0010
0100
0000
,
0010
0100
1000
0000
,
1000
0100
0001
0100
,
1000
0010
0001
0010
,
1000
0100
0010
0000
,
0100
0010
0001
0000
,
0001
0100
1000
0100
,
0001
0010
1000
0010
,
0001
0100
1000
0000
,
0001
0010
1000
0000
,
1000
0100
0001
0000
,
1000
0010
0001
0000
,
0001
1000
0001
1000
,
0100
0010
0100
0010
,
0001
1000
0001
1000
,
0010
0100
0010
0100
,
0002
0000
0000
0000
,
0000
0000
0000
0000
0000
0000
0000
0003
,
1000
0100
0001
0100
,
1000
0010
0001
0010
,
2000
0000
0000
0000
,
0000
0000
0000
0000
,
3001
0100
1000
0100
,
0001
0010
1000
0010
,
0001
0100
0010
0100
,
0010
1000
1001
0000
,
1000
0100
0010
0100
,
0010
0001
1001
0000
,
1000
0000
1000
0000
,
0001
0000
0001
0000
,
1000
0100
1000
1000
,
0001
0100
0001
0001
,
1002
0000
0100
0000
,
2003
0000
3100
0000
,
2001
0000
0100
0000
,
3002
0000
0103
0000
,
1002
0000
0100
0000
,
2003
0000
3100
0000
,
0001
0001
0100
0100
,
0010
0010
1000
1000
,
2001
0000
0100
0000
,
3002
0000
0103
0000
,
1002
0000
0100
0000
,
2003
0000
3100
0000
,
2001
0000
0100
0000
,
3002
0000
0103
0000
,
1000
1000
0010
0010
,
0100
0100
0001
0001
,
1001
0000
0000
0000
,
0110
0000
0000
0000
,
1001
0000
0000
0000
,
0110
0000
0000
0000
,
1002
0000
0103
0000
,
2001
0000
3100
0000
,
1002
0000
0103
0000
,
2001
0000
3100
0000
;

//---------------dance-single - ----------------
#NOTEDATA:;
#CHARTNAME:;
#STEPSTYPE:dance-single;
#DESCRIPTION:;
#CHARTSTYLE:;
#DIFFICULTY:Easy;
#METER:4;
#RADARVALUES:0.333606,0.458708,0.400327,0.325266,0.000000,193.000000,48.000000,39.000000,0.000000,0.000000,0.000000,0.000000,0.000000,0.333606,0.458708,0.400327,0.325266,0.000000,193.000000,48.000000,39.000000,0.000000,0.000000,0.000000,0.000000,0.000000;
#CREDIT:;
#NOTES:
0000
0000
0000
0000
,
0000
0000
0000
0000
,
0000
0000
0000
0000
,
0000
0000
0000
0000
,
0000
0000
0000
0000
,
0000
0000
0000
0000
,
0000
0000
0000
0000
,
0000
0000
0000
0000
,
0000
0000
0000
0000
,
0000
0000
0000
0000
,
0000
0000
0000
0000
,
0000
0000
0000
0000
,
0000
0000
0000
0000
,
0000
0000
0000
0000
,
0000
0000
0000
0000
,
0000
0000
0000
0000
,
1002
0000
0000
0000
,
0000
0000
0000
0000
,
1003
0000
0000
0000
,
1000
0000
0000
0000
,
0001
0000
0100
0000
,
1000
0000
0100
0000
,
0001
0000
0000
0000
,
0001
0000
0000
0000
,
1000
0000
0100
0000
,
0001
0000
0100
0000
,
1000
0000
0000
0000
,
1000
0000
0000
0000
,
0001
0000
0100
0000
,
1000
0000
0100
0000
,
0001
0000
0000
0000
,
0001
0000
0000
0000
,
2001
0000
0000
0000
,
0000
0000
3001
0000
,
0012
0000
0000
0000
,
1003
0000
1001
0000
,
2010
0000
0000
0000
,
3001
0000
1001
0000
,
0102
0000
0000
0000
,
1003
0000
1001
0000
,
0001
0000
0100
0000
,
0010
0000
1000
0000
,
2010
0000
0000
0000
,
3001
0000
1001
0000
,
0012
0000
0000
0000
,
1003
0000
1001
0000
,
2100
0000
0000
0000
,
3001
0000
1001
0000
,
1000
0000
0100
0000
,
0010
0000
0001
0000
,
2100
0000
0000
0000
,
3001
0000
0000
0000
,
0102
0000
0000
0000
,
1003
0000
0000
0000
,
2010
0000
0000
0000
,
3001
0000
0000
0000
,
0012
0000
0000
0000
,
1003
0000
0000
0000
,
2100
0000
0000
0000
,
3001
0000
0000
0000
,
0102
0000
0000
0000
,
1003
0000
0000
0000
,
1000
0000
1000
0000
,
0001
0000
0001
0000
,
1000
1000
1000
1000
,
0001
0001
0001
0001
,
2002
0000
0000
0000
,
0000
3003
0000
0000
,
1002
0000
0000
0000
,
0000
0000
0000
0000
,
2003
0000
0000
0000
,
0002
0000
3003
0000
,
2100
0000
0000
0000
,
0000
0000
0000
0000
,
3002
0000
0000
0000
,
0100
0100
0103
0000
,
0102
0000
0000
0000
,
0000
0000
0000
0000
,
2003
0000
0000
0000
,
0100
0100
3100
0000
,
1000
0000
0100
0000
,
0010
0000
0001
0000
,
1000
0000
1000
0000
,
0001
0000
0001
0000
,
1000
0100
0001
0000
,
0001
0100
1000
0000
,
0001
0000
0001
0000
,
1000
0000
1000
0000
,
0001
0100
1000
0000
,
1000
0100
0001
0000
,
1000
0000
1100
0000
,
1000
0000
1001
0000
,
0001
0000
0101
0000
,
0001
0000
1001
0000
,
1000
0000
0100
0000
,
1000
0000
1000
0000
,
0001
0000
0100
0000
,
0001
0000
0001
0000
,
2001
0000
0000
0000
,
0000
0000
0000
0000
,
3001
0000
1000
0000
,
0001
0000
1000
0000
,
1002
0000
0000
0000
,
0000
0000
0000
0000
,
1003
0000
0001
0000
,
1000
0000
0001
0000
,
0102
0000
0000
0000
,
1003
0000
0000
0000
,
2100
0000
0000
0000
,
3001
0000
0000
0000
,
1000
0000
0100
0000
,
1000
0000
1000
0000
,
0001
0000
0100
0000
,
0001
0000
0001
0000
,
1002
0000
0100
0000
,
0100
0000
0103
0000
,
2001
0000
0100
0000
,
0100
0000
3100
0000
,
1002
0000
0010
0000
,
0010
0000
0013
0000
,
2001
0000
0010
0000
,
0010
0000
3010
0000
,
0201
0000
1000
0000
,
0001
0000
0310
0000
,
1200
0000
0001
0000
,
1000
0000
0310
0000
,
0012
0000
1000
0000
,
0010
0000
0103
0000
,
2010
0000
0001
0000
,
0010
0000
3100
0000
,
1001
0000
0000
0000
,
0110
0000
0000
0000
,
1001
0000
0000
0000
,
0110
0000
0000
0000
,
1002
0000
0103
0000
,
2001
0000
3100
0000
,
1002
0000
0103
0000
,
2001
0000
3100
0000
;
