#TITLE:La La Latch;
#SUBTITLE:;
#ARTIST:Pentatonix;
#TITLETRANSLIT:;
#SUBTITLETRANSLIT:;
#ARTISTTRANSLIT:;
#GENRE:;
#CREDIT:;
#BANNER:La La Latch.png;
#BACKGROUND:La La Latch-bg.png;
#LYRICSPATH:;
#CDTITLE:;
#MUSIC:La La Latch.ogg;
#OFFSET:-0.367725;
#SAMPLESTART:99.700890;
#SAMPLELENGTH:12.000000;
#SELECTABLE:YES;
#DISPLAYBPM:55.000000:122.000000;
#BPMS:0.000000=55.000000
,16.000000=110.000000
,76.000000=55.000000
,77.000000=59.000000
,77.500000=61.000000
,78.000000=122.000000
;
#STOPS:
;
#BGCHANGES:;
#KEYSOUNDS:;
#ATTACKS:;

//---------------dance-single - ----------------
#NOTES:
     dance-single:
     :
     Hard:
     8:
     0.457121,0.615224,0.179192,0.153593,0.349850,336.000000,21.000000,18.000000,0.000000,0.000000,0.000000,0.457121,0.615224,0.179192,0.153593,0.349850,336.000000,21.000000,18.000000,0.000000,0.000000,0.000000:
// measure 0
0000
0000
0000
0000
,  // measure 1
0000
0000
0000
0000
0000
0000
0000
0000
0000
0000
0000
0000
0000
0000
1000
1000
,  // measure 2
0100
0010
0000
0001
0001
0100
0010
0100
0001
0001
1000
1000
0100
0000
0010
0010
,  // measure 3
0001
1000
0000
0010
0100
0001
1000
0100
0010
0010
0100
0100
1000
0000
0001
0100
,  // measure 4
0010
0000
0000
0000
0010
0000
0000
1000
0000
1000
0000
0000
0010
0000
0000
0000
,  // measure 5
1000
0000
0000
0000
1000
0000
0000
0100
0000
0100
0000
0000
1000
0000
0000
0000
,  // measure 6
0001
0000
0000
0000
0001
0000
0000
0010
0000
0010
0000
0000
0001
0000
0000
0000
,  // measure 7
0100
0000
0000
0000
0100
0000
0000
0001
0000
0001
0000
0000
0100
0000
0000
0000
,  // measure 8
0010
0000
0000
0000
0010
0000
0000
1000
0000
1000
0000
0000
0010
0000
0000
0000
,  // measure 9
1000
0000
0000
0000
1000
0000
0000
0100
0000
0100
0000
0000
1000
0000
0000
0000
,  // measure 10
0100
0000
0000
0000
0100
0000
0000
0010
0000
0010
0000
0000
0100
0000
0000
0000
,  // measure 11
0010
0000
0000
0000
0010
0000
0000
0001
0000
0001
0000
0000
0020
0000
0230
0000
,  // measure 12
1300
0000
0000
0000
1010
0000
0000
1000
0000
0100
0000
0000
0110
0000
0000
0000
,  // measure 13
0010
0000
0000
0000
0011
0000
0000
0001
0000
0100
0000
0000
0101
0000
0000
0000
,  // measure 14
0010
0000
0000
0000
1010
0000
0000
1000
0000
0100
0000
0000
1100
0000
0000
0000
,  // measure 15
0001
0000
0000
0000
0101
0000
0000
0100
0000
0010
0000
0000
2000
0000
3020
0000
,  // measure 16
0130
0000
0000
0000
0101
0000
0000
1000
0000
0100
0000
0000
0110
0000
0000
0000
,  // measure 17
0100
0000
0000
0000
1100
0000
0000
0001
0000
0100
0000
0000
0110
0000
0000
0000
,  // measure 18
1000
0000
0000
0000
1100
0000
0000
0001
0000
0010
0000
0000
0011
0000
0000
0000
,  // measure 19
2000
0000
0000
0000
0000
0000
0000
0000
0000
0000
0000
0000
0000
0000
0000
0001
0000
0000
0000
0000
0000
0000
0000
0001
3000
0000
0000
0000
0000
0000
0000
0000
1000
0000
0000
0000
0000
0000
0000
0000
0000
0000
0000
0000
0100
0000
0000
0000
1000
0000
0000
0000
0000
0000
0000
0000
0200
0000
0000
0000
0000
0000
0000
0000
,  // measure 20
0000
0000
1300
0000
0001
0000
0000
0000
0100
0000
0000
0100
0001
0000
0200
0000
,  // measure 21
0000
0000
0010
0000
0310
0000
1000
0000
0100
0000
0000
0100
0010
0000
0000
0010
,  // measure 22
0100
0000
1000
0000
0010
0000
0100
0000
0001
0000
0000
0001
0010
0000
0000
0010
,  // measure 23
0100
0000
1000
0000
0010
0000
0100
0000
0001
0000
0000
0001
0010
0000
0002
0000
,  // measure 24
0000
0000
1003
0000
0010
0000
0000
0000
0100
0000
0000
0100
0010
0000
2000
0000
,  // measure 25
0000
0000
3010
0000
0100
0000
0001
0000
0100
0000
0000
0100
0010
0000
0000
0010
,  // measure 26
1000
0000
0100
0000
0010
0000
0001
0000
0100
0010
0100
0000
0010
0000
0000
0000
,  // measure 27
1000
0000
1000
0000
0001
0000
0010
0000
1000
0000
0000
1000
0010
0000
0000
0010
,  // measure 28
0001
0000
0000
0001
0100
0000
0000
0100
0001
0000
0000
0001
0010
0000
0000
0010
,  // measure 29
0100
0000
0000
0100
1000
0000
0000
0000
0010
0000
0000
0010
0100
0000
0000
0100
,  // measure 30
0001
0000
0000
0001
0010
0000
0000
0010
0200
0000
0000
0000
1300
0000
0002
0000
,  // measure 31
0000
0000
0103
0000
0020
0000
0000
0000
0031
0000
0000
0001
0010
0000
0000
0010
,  // measure 32
1000
0000
0000
1000
0100
0000
0000
0100
1000
0000
0000
1000
0010
0000
0000
0010
,  // measure 33
0100
0000
0000
0100
0001
0000
0000
0000
0010
0000
0000
0010
0100
0000
0000
0100
,  // measure 34
1000
0000
0000
1000
0010
0000
0000
0010
0200
0000
0010
0000
0010
0000
0310
0000
,  // measure 35
1000
0001
1000
0000
0001
0000
1000
0000
1001
0000
0001
0000
0010
0000
0010
0000
,  // measure 36
0001
0100
1000
0100
0002
0000
1000
1000
,  // measure 37
0000
0103
0010
1000
1100
0000
0101
0000
,  // measure 38
0011
0000
0001
0000
0100
0000
0010
0000
1000
0000
0000
1000
0000
0000
2000
0000
,  // measure 39
0000
0100
3100
0010
0001
0001
0100
0100
,  // measure 40
0001
0010
0100
1000
0000
0002
0000
0100
,  // measure 41
0000
1003
0100
1000
1010
0000
0011
0000
,  // measure 42
0101
0100
0000
0100
0001
0001
1000
1000
,  // measure 43
0001
0010
0100
1000
0010
0001
0000
0010
,  // measure 44
1000
0100
0001
0100
0010
0010
0001
0001
,  // measure 45
1000
0000
1000
0100
0010
1000
0000
0010
,  // measure 46
0001
0100
1000
0100
0010
0010
1000
1000
,  // measure 47
0001
0000
0001
0010
0100
0001
0000
0100
,  // measure 48
1000
0010
0001
0010
0100
0100
0001
0001
,  // measure 49
1000
0000
1000
0010
0100
1000
0000
0100
,  // measure 50
0001
0010
1000
0010
0100
0100
1000
1000
,  // measure 51
0002
0003
0002
0003
1001
0000
0000
0000
;

//---------------dance-single - ----------------
#NOTES:
     dance-single:
     :
     Easy:
     4:
     0.206009,0.219723,0.017066,0.110928,0.000000,154.000000,2.000000,13.000000,0.000000,0.000000,0.000000,0.206009,0.219723,0.017066,0.110928,0.000000,154.000000,2.000000,13.000000,0.000000,0.000000,0.000000:
0000
0000
0000
0000
,
0000
0000
0000
0000
,
2000
0000
3200
0000
,
0320
0000
0230
0000
,
1300
0000
0100
0000
,
1000
0000
0010
0000
,
0100
0000
0001
0000
,
0010
0000
0010
0000
,
0100
0000
1000
0000
,
0001
0000
1000
0000
,
0010
0000
0100
0000
,
0001
0000
1000
0000
,
0100
0010
0000
0010
,
0001
0100
0000
0100
,
0010
1000
0100
1000
,
0002
0000
0000
0003
,
0100
0010
0000
1000
,
0100
0010
0000
0100
,
1000
0001
0010
0100
,
0020
0000
0000
0000
0130
0000
0100
1000
,
0000
0000
0001
0000
0100
0000
0001
0100
,
0000
0001
0100
0100
,
0010
1000
0100
0100
,
0010
0000
0001
0000
0100
0000
0100
0002
,
0000
0000
0013
0000
0100
0000
0100
2000
,
0000
3001
0100
0100
,
0010
1000
0001
0001
,
0010
0000
0100
0100
,
1000
1000
0001
0001
,
0100
0010
0100
0100
,
0001
0010
0200
0000
,
0300
1000
0100
0100
,
0010
0001
1000
1000
,
0100
1000
0001
0100
,
0100
0001
0020
0000
,
0000
0030
0100
0100
,
1000
0001
0200
0000
,
0000
0300
0001
0001
,
1000
0000
1000
0000
0100
0000
0100
0020
,
0000
0000
0000
0030
0001
0000
0001
0000
,
0100
0000
0010
0000
1000
0002
0000
0000
,
0000
1003
0100
0100
,
0110
0000
1000
1000
,
0001
0100
0010
0000
,
1000
0100
0010
0010
,
0001
1000
0001
0000
,
0100
0010
1000
1000
,
0001
0010
0100
0000
,
1000
0010
0100
0100
,
0001
1000
0100
0000
,
0010
0100
1000
0001
,
1001
0000
0100
0000
;

//---------------dance-single - ----------------
#NOTES:
     dance-single:
     :
     Medium:
     6:
     0.362040,0.329585,0.068263,0.409581,0.055464,241.000000,8.000000,48.000000,0.000000,1.000000,0.000000,0.362040,0.329585,0.068263,0.409581,0.055464,241.000000,8.000000,48.000000,0.000000,1.000000,0.000000:
// measure 0
0000
0000
0000
0000
,  // measure 1
0000
0000
0000
0000
,  // measure 2
0001
0000
1000
0000
0010
0010
0100
0010
,  // measure 3
1000
0000
0001
0000
0010
0010
0100
0010
,  // measure 4
0002
0000
0000
0100
0000
0000
0000
0000
0000
0103
0000
0010
,  // measure 5
2000
0000
0000
0100
0000
0000
0000
0000
0000
3100
0000
0010
,  // measure 6
0002
0010
2003
0010
,  // measure 7
3200
0010
0000
0010
,  // measure 8
2300
0000
0000
0001
0000
0000
0000
0000
0000
3001
0000
0100
,  // measure 9
0020
0000
0000
0100
0000
0000
0000
0000
0000
0130
0000
0001
,  // measure 10
2000
0100
3002
0100
,  // measure 11
0023
0000
0001
0000
0000
0000
0032
0203
,  // measure 12
0320
0000
0000
1000
0000
0000
0000
0000
0000
1030
0000
0100
,  // measure 13
0020
0000
0000
0100
0000
0000
0000
0000
0000
0130
0000
1000
,  // measure 14
0002
0100
2000
0103
,  // measure 15
3020
0000
0100
0000
0000
0000
0230
0320
,  // measure 16
2030
0000
0000
0001
0000
0000
0000
0000
0000
3001
0000
0100
,  // measure 17
0020
0000
0000
1000
0000
0000
0000
0000
0000
1030
0000
0001
,  // measure 18
0020
1000
0032
0100
,  // measure 19
2003
0000
0000
0000
0000
0000
0000
0000
3001
0000
0000
0001
0000
0000
0002
0000
,  // measure 20
0000
0000
0000
0000
1003
0000
0000
0000
0100
0000
0000
0100
0000
0000
0200
0000
,  // measure 21
0000
0000
0310
0001
0200
0000
0310
0000
,  // measure 22
1000
0100
0010
0000
0002
0000
0103
0000
,  // measure 23
0010
0000
1000
0000
0100
0000
0010
0000
0001
0000
0000
1000
0000
0000
2010
0000
,  // measure 24
0000
0000
0000
0000
3100
0000
0000
0000
0010
0000
0000
0100
0000
0000
2100
0000
,  // measure 25
0000
0000
3001
0100
0020
0000
1030
0000
,  // measure 26
0001
0010
0100
0000
1000
1000
0010
0000
,  // measure 27
0100
0020
0000
0030
2000
0000
3100
0000
,  // measure 28
0010
0001
0100
0000
0002
0000
0103
0000
,  // measure 29
0010
1000
0100
0000
2000
0000
3100
0000
,  // measure 30
0010
0001
1000
0000
0002
0000
0000
0203
,  // measure 31
0000
0310
2010
3100
,  // measure 32
0010
0001
1000
0000
1002
0000
0103
0000
,  // measure 33
0010
1000
0001
0000
2001
0000
3100
0000
,  // measure 34
1000
0001
0100
0000
0010
0100
0010
0100
,  // measure 35
0010
0100
0110
0000
1000
1000
0100
0000
,  // measure 36
0010
0001
0100
0010
2000
0000
0100
0000
,  // measure 37
0000
0000
3100
0010
0002
0000
2003
0000
,  // measure 38
3010
0000
1000
0000
0100
0000
0010
0000
0001
0000
0000
0001
0000
0000
0002
0000
,  // measure 39
0000
0000
0003
0100
0001
0010
0100
0000
,  // measure 40
0010
0100
1000
0010
0000
0110
0000
0010
,  // measure 41
0000
1000
0100
1000
0002
0000
2003
0000
,  // measure 42
0010
3010
0000
0100
0001
1000
0001
1000
,  // measure 43
0001
0010
0100
0000
1000
0001
0000
1000
,  // measure 44
0100
0000
0100
0000
0010
0001
0010
0001
,  // measure 45
1000
0000
0001
0000
0100
0001
0000
0100
,  // measure 46
0010
0000
0010
0000
1000
0100
1000
0100
,  // measure 47
0010
0000
0100
0000
1000
0001
0000
0100
,  // measure 48
0010
0000
0010
0000
1000
0001
1000
0001
,  // measure 49
0010
0000
0100
0000
1000
0010
0000
0100
,  // measure 50
0010
0000
0010
0000
1000
0001
1000
0001
,  // measure 51
0020
0030
0020
0030
0110
0000
0000
0000
;

//---------------dance-single - ----------------
#NOTES:
     dance-single:
     :
     Beginner:
     2:
     0.141403,0.174072,0.034132,0.085329,0.000000,102.000000,4.000000,10.000000,0.000000,0.000000,0.000000,0.141403,0.174072,0.034132,0.085329,0.000000,102.000000,4.000000,10.000000,0.000000,0.000000,0.000000:
0000
0000
0000
0000
,
0000
0000
0000
0000
,
2000
0000
0000
3000
0002
0000
0000
0003
,
2000
0000
0000
3000
0002
0000
0000
0003
,
1000
0000
0000
0000
,
1000
0000
0000
0000
,
0001
0000
0000
0000
,
0001
0000
0000
0000
,
1000
0000
0000
0000
,
1000
0000
0000
0000
,
0100
0000
0000
0000
,
0100
0000
0000
0000
,
0010
0010
0000
0010
,
0000
0001
0000
0001
,
0000
1000
0000
1000
,
0000
0010
0000
0010
,
0000
0100
0000
0100
,
0000
0001
0000
0001
,
0000
1000
0000
1000
,
2000
0000
3001
0000
,
0000
0000
1000
0000
,
0000
0000
0100
0000
,
0100
0000
0010
0000
,
0010
0000
0100
0000
,
0000
0000
1000
0000
,
0000
0000
0001
0000
,
0001
0000
0100
0000
,
0100
0000
0010
0010
,
0010
0000
1000
1000
,
1000
0000
0001
0001
,
0001
0000
0020
0000
,
0000
0030
0100
0100
,
0100
0000
1000
1000
,
1000
0000
0010
0010
,
0010
0000
0200
0000
,
0000
0300
0001
0001
,
0001
0001
2000
0000
,
0000
3000
0100
0100
,
0100
0100
0020
0000
,
0000
0030
0001
0001
,
0001
0001
2000
0000
,
0000
3000
0100
0100
,
0100
0000
1000
1000
,
1000
1000
0100
0000
,
0100
0000
0010
0010
,
0110
0000
1000
0000
,
1000
0000
0001
0001
,
1001
0000
1000
0000
,
0100
0000
0010
0010
,
0110
0000
0001
0000
,
0100
0000
0010
0100
,
0110
0000
0000
0000
;

//---------------dance-single - ----------------
#NOTES:
     dance-single:
     :
     Edit:
     9:
     0.550984,0.613731,0.238922,0.093862,0.490644,413.000000,28.000000,11.000000,0.000000,0.000000,0.000000,0.550984,0.613731,0.238922,0.093862,0.490644,413.000000,28.000000,11.000000,0.000000,0.000000,0.000000:
0000
0000
0000
0000
,
0000
0000
0000
0000
0000
0000
0000
0000
0000
0000
0000
0000
0000
0000
1000
1000
,
0100
0001
0000
1000
1000
0010
0001
1000
0010
0010
0010
0010
0001
0000
1000
1000
,
0100
0001
0000
1000
1000
0100
0001
1000
0010
0010
0010
0010
0001
0000
1000
1000
,
0100
0000
0000
0000
0110
0000
0000
1000
0100
1000
0000
0000
1100
0000
0000
0000
,
0001
0000
0000
0000
0101
0000
0000
0010
0100
0010
0000
0000
0110
0000
0000
0000
,
1000
0000
0000
0000
1100
0000
0000
0100
0010
0100
0000
0000
0011
0000
0000
0000
,
1000
0000
0000
0000
0101
0000
0000
0001
0100
0001
0000
0000
1100
0000
0000
0000
,
0010
0000
0000
0000
0011
0000
0000
1000
0010
1000
0000
0000
1010
0000
0000
0000
,
0001
0000
0000
0000
0101
0000
0000
1000
0100
1000
0000
0000
1100
0000
0000
0000
,
0010
0000
0000
0000
0011
0000
0000
0001
0010
0001
0000
0000
1001
0000
0000
0000
,
1000
0000
0000
0000
1010
0000
0000
0010
0100
0010
0000
0000
2000
0000
3002
0000
,
0013
0000
0000
0000
0110
0000
0000
1000
0100
0010
0000
0000
0110
0000
0000
0000
,
0001
0000
0000
0000
1001
0000
0000
1000
0010
0100
0000
0000
1001
0000
0000
0000
,
1000
0000
0000
0000
1100
0000
0000
0010
0100
1000
0000
0000
1100
0000
0000
0000
,
0001
0000
0000
0000
0101
0000
0000
0010
0100
0001
0000
0000
2000
0000
3002
0000
,
0013
0000
0000
0000
0110
0000
0000
0010
0001
0100
0000
0000
0101
0000
0000
0000
,
0010
0000
0000
0000
0110
0000
0000
0010
1000
0100
0000
0000
0110
0000
0000
0000
,
1000
0000
0000
0000
1001
0000
0000
0001
0100
1000
0000
0000
1100
0000
0000
0000
,
0200
0000
0000
0000
0000
0000
0000
0000
0000
0000
0000
0000
0000
0000
0000
0010
0000
0000
0000
0000
0000
0000
0000
0001
0300
0000
0000
0000
0000
0000
0000
0000
1000
0000
0000
0000
0000
0000
0000
0000
0000
0000
0000
0000
1000
0000
0000
0000
0100
0000
0000
0000
0000
0000
0000
0000
1000
0000
0000
0000
0000
0000
0000
0000
,
0001
0100
0001
0000
0010
0000
0001
0000
0100
0000
0000
0100
0010
0000
0100
0000
,
0001
1000
0001
0000
1000
0000
0100
0000
0010
0000
0000
0010
0001
0000
1000
0000
,
0010
0100
0010
0000
1000
0000
0100
0000
0010
0000
0000
0010
0001
0000
1000
0000
,
0001
0000
0100
0000
1000
0000
0100
0000
0001
0000
0000
0001
0010
0000
0002
0000
,
0103
0010
0100
0000
0001
0000
0001
0000
1000
0000
0000
1000
0100
0000
0020
0000
,
0130
1000
0100
0000
0010
0000
0001
0000
0100
0000
0000
0100
0010
0000
0100
0000
,
0001
1000
0001
0000
0010
0000
0100
0000
1000
0010
1000
0000
0001
0000
0100
0000
,
0010
0100
0010
0000
0010
0100
0010
0000
1000
0000
0000
1000
0100
0000
1000
0000
,
0001
0000
0000
0001
0100
0000
0001
0000
0010
0000
0000
0010
0100
0000
0010
0000
,
0001
0000
0100
0000
0010
0100
0010
0000
1000
0000
0000
1000
0100
0000
1000
0000
,
0010
0000
0000
0010
0100
0000
0010
0000
1000
0000
0000
1000
0100
0000
0020
0000
,
0000
0000
0130
0000
1000
0000
0010
0000
0100
0000
0000
0100
0001
0000
0100
0000
,
0010
0000
0000
0010
1000
0000
0100
0000
0010
0000
0000
0010
0001
0000
0100
0000
,
0010
0000
0000
0010
0100
0000
0001
0000
1000
0000
0001
0100
0001
0000
1000
0100
,
1000
0000
0001
0010
0001
0000
1000
0010
1000
0000
0001
0000
0001
0000
0001
0000
,
0100
0001
0010
0000
0001
0000
0100
0000
0100
0010
0100
0000
0001
0000
1000
0000
,
0001
0010
0001
0000
1000
0000
0010
0000
0100
0000
0000
0100
0010
0000
0100
0000
,
0001
0000
0001
0000
0001
0000
1000
0000
0100
0000
0000
0100
0010
0000
0000
0010
,
0001
0000
0100
0000
1000
0000
0100
0000
0010
0000
0010
0100
0000
0100
0020
0000
,
0000
0000
1000
0000
1030
0000
0100
0000
0010
0100
0010
0000
0100
0000
1000
0000
,
0001
1000
0001
0000
0100
0000
0010
0000
0100
0000
0000
0100
0001
0000
1000
0001
,
0000
0000
1000
0000
1000
0000
0001
0000
0010
0000
0000
0010
0100
0000
0000
0100
,
1000
0000
0010
0000
0100
0000
0100
0000
0001
0000
0001
0010
0001
0000
1000
0000
,
0010
0000
0010
1000
0010
0000
1000
0000
0100
1000
0100
0000
0000
0000
0010
0001
,
0010
0000
0100
0000
1000
0000
0010
0000
0100
0010
0100
0000
0001
0100
0001
0000
,
1000
0000
0000
0000
1000
0100
1000
0000
0001
0010
0001
0000
0000
0000
0100
0010
,
0100
0000
0001
0000
0010
0000
0100
0000
1000
0010
1000
0000
0010
0100
0010
0000
,
0001
0000
0000
0000
0010
0100
0010
0000
1000
0001
1000
0000
0000
0000
0100
0010
,
0100
0000
1000
0000
0010
0000
0100
0000
0001
0100
0001
0000
0100
0010
0100
0000
,
1000
0000
0000
0000
0100
0010
0100
0000
0001
1000
0001
0000
0000
0000
1000
0100
,
1000
0000
0001
0000
0010
0000
0100
0000
0010
0001
0010
0001
0010
0001
0010
0001
,
2000
3000
2000
3000
0000
0000
0000
0000
;

//---------------dance-single - Revised----------------
#NOTES:
     dance-single:
     :
     Challenge:
     9:
     0.615590,0.615224,0.469311,0.085329,0.571706,440.000000,55.000000,10.000000,0.000000,0.000000,0.000000,0.615590,0.615224,0.469311,0.085329,0.571706,440.000000,55.000000,10.000000,0.000000,0.000000,0.000000:
0000
0000
0000
0000
,
0000
0000
0000
0000
0000
0000
0000
0000
0000
0000
0000
0000
0000
0000
1000
1000
,
0100
0001
0000
1000
1000
0010
0001
1000
0010
0010
0010
0010
0001
0000
1000
1000
,
0100
0001
0000
1000
1000
0100
0001
1000
0010
0010
0010
0010
0001
0000
1000
1000
,
0100
0000
0000
0000
0110
0000
0000
1000
0100
1000
0000
0000
1100
0000
0000
0000
,
0001
0000
0000
0000
0101
0000
0000
0010
0100
0010
0000
0000
0110
0000
0000
0000
,
1000
0000
0000
0000
1100
0000
0000
0100
0010
0100
0000
0000
0011
0000
0000
0000
,
1000
0000
0000
0000
0101
0000
0000
0001
0100
0001
0000
0000
1100
0000
0000
0000
,
0010
0000
0000
0000
0011
0000
0000
1000
0010
1000
0000
0000
1010
0000
0000
0000
,
0001
0000
0000
0000
0101
0000
0000
1000
0100
1000
0000
0000
1100
0000
0000
0000
,
0010
0000
0000
0000
0011
0000
0000
0001
0010
0001
0000
0000
1001
0000
0000
0000
,
1000
0000
0000
0000
1010
0000
0000
0010
0100
0010
0000
0000
2000
0000
3002
0000
,
0013
0000
0000
0000
0110
0000
0000
1000
0100
0010
0000
0000
0110
0000
0000
0000
,
0001
0000
0000
0000
1001
0000
0000
1000
0010
0100
0000
0000
1001
0000
0000
0000
,
1000
0000
0000
0000
1100
0000
0000
0010
0100
1000
0000
0000
1100
0000
0000
0000
,
0001
0000
0000
0000
0101
0000
0000
0010
0100
0001
0000
0000
2000
0000
3002
0000
,
0013
0000
0000
0000
0110
0000
0000
0010
0001
0100
0000
0000
0101
0000
0000
0000
,
0010
0000
0000
0000
0110
0000
0000
0010
1000
0100
0000
0000
0110
0000
0000
0000
,
1000
0000
0000
0000
1001
0000
0000
0001
0100
1000
0000
0000
1100
0000
0000
0000
,
0200
0000
0000
0000
0000
0000
0000
0000
0000
0000
0000
0000
0000
0000
0000
0010
0000
0000
0000
0000
0000
0000
0000
0001
0300
0000
0000
0000
0000
0000
0000
0000
1000
0000
0000
0000
0000
0000
0000
0000
0000
0000
0000
0000
0100
0000
0000
0000
1000
0000
0000
0000
0000
0000
0000
0000
0010
0000
0000
0000
0100
0000
0000
0000
,
0000
0100
0010
0000
1000
0000
0100
0000
0110
0000
0000
0010
0001
0000
0100
0010
,
0000
0010
0100
0000
0101
0000
0010
0000
1000
0000
0000
0100
0010
0000
0001
1000
,
0000
1000
0001
0000
0100
0000
0010
0000
0110
0000
0000
0100
0001
0000
1000
0000
,
0100
0010
0100
0000
0010
0100
0010
0000
1100
0000
0100
1000
0001
0000
0100
0010
,
0100
0010
0100
0000
0001
0000
0010
0000
0011
0000
0010
0001
1000
0000
0010
0100
,
0010
0100
0010
0000
1000
0000
0100
0000
0110
0000
0010
0001
1000
0000
0010
0100
,
0010
0100
0010
0000
1000
0000
0100
0000
1100
0000
0100
0010
0001
0000
1000
0000
,
0010
0100
0010
0000
0100
0010
0100
0000
1001
0000
0000
1000
0001
0000
0100
0010
,
0100
0010
1000
0000
0001
0000
1000
0000
0101
0000
0000
0001
1000
0000
0100
0010
,
0100
0010
0001
0000
1000
0000
0001
0000
1100
0000
0000
1000
0001
0000
0010
0100
,
0010
0100
1000
0000
0001
0000
1000
0000
0011
0000
0000
0001
1000
0000
0010
0100
,
0010
0100
0001
0000
1000
0000
0001
0000
1010
0000
0000
0010
0100
0000
0001
0100
,
0001
0100
0001
0000
0010
0000
0100
0000
1100
0000
0000
1000
0010
0000
0100
0010
,
0100
0010
0100
0000
0001
0000
0010
0000
0011
0000
0000
0001
1000
0000
0100
1000
,
0100
1000
0100
0000
0010
0000
0001
0000
1000
0000
0001
0000
0001
0000
0001
0000
,
0100
0010
1000
0000
0100
0000
1100
0000
1001
0000
0001
0100
0001
0000
0100
0010
,
0100
0010
1000
0000
0100
0000
1000
0000
1100
0000
1000
0100
1000
0000
0100
0010
,
0000
0000
0100
0000
1000
0000
0010
0000
0110
0000
0100
0001
1000
0000
0100
1000
,
0100
1000
0001
0000
0100
0000
0010
0000
0100
0000
0010
0100
0000
0100
0001
1000
,
0001
1000
0100
0000
1100
0000
1000
0000
1001
0000
0000
0001
0100
0000
0010
0100
,
0000
0000
0100
0000
0101
0000
1000
0000
1100
0000
0000
0100
0010
0000
0100
1000
,
0000
0000
0001
0000
0100
0000
0010
1000
0010
0000
0100
0010
0100
0000
0000
0100
,
0001
1000
0100
0010
0011
0001
0011
0001
,
1010
0000
1000
0000
1010
0000
1000
0000
0100
0000
0000
0100
0010
0000
0001
1000
,
0001
1000
0001
0000
0100
0000
0010
0000
1000
0000
1000
0100
1000
0000
0001
0100
,
0001
0100
0001
0000
0100
0000
0010
0100
0001
0000
0000
0001
0100
0000
0010
0100
,
0010
0100
0010
0000
1000
0000
0001
0000
0010
0000
0000
0010
0100
0000
1000
0001
,
1000
0001
1000
0000
0001
0000
0100
0000
0010
0000
0000
0010
1000
0000
0001
1000
,
0001
1000
0001
0000
0010
0000
0100
0000
0010
0000
0000
0010
0001
0000
0100
0010
,
0100
0010
0100
0000
0001
0000
1000
0000
0100
0000
0000
0100
0010
0000
0100
1000
,
0100
1000
0100
0000
1000
0000
0001
0000
0100
0000
0020
0030
0020
0030
0020
0030
,
2000
0000
0000
3000
2000
0000
0000
3000
1001
0000
0000
0000
0000
0000
0000
0000
;
