#TITLE:LEMON SUMMER;
#SUBTITLE:;
#ARTIST:パイタン;
#TITLETRANSLIT:;
#SUBTITLETRANSLIT:;
#ARTISTTRANSLIT:;
#GENRE:;
#CREDIT:;
#BANNER:Banner.png;
#BACKGROUND:;
#LYRICSPATH:;
#CDTITLE:cdtitle.png;
#MUSIC:[Round 7] - LEMON SUMMER.mp3;
#OFFSET:-1.920000;
#SAMPLESTART:35.253330;
#SAMPLELENGTH:10.666668;
#SELECTABLE:YES;
#BPMS:0.000000=180.000000
;
#STOPS:
;
#BGCHANGES:;
#KEYSOUNDS:;
#ATTACKS:;

//---------------dance-single - ----------------
#NOTES:
     dance-single:
     :
     Hard:
     9:
     0.711814,0.611133,0.242447,0.016720,0.137944,565.000000,29.000000,2.000000,0.000000,0.000000,0.000000,0.711814,0.611133,0.242447,0.016720,0.137944,565.000000,29.000000,2.000000,0.000000,0.000000,0.000000:
// measure 0
0000
0000
0000
0000
,  // measure 1
0000
0000
0000
0000
,  // measure 2
0000
0000
0000
0000
,  // measure 3
0000
0000
0000
0000
,  // measure 4
0010
0000
0100
0000
0001
1000
0100
0000
,  // measure 5
0010
0000
0001
0000
1000
0010
0100
0000
,  // measure 6
0001
1000
0100
0000
0010
0001
1000
0000
,  // measure 7
0110
0110
1001
1001
,  // measure 8
0100
0000
0001
0000
1000
0000
0000
0100
0000
1000
0001
0000
0100
0000
0000
0000
,  // measure 9
0010
0000
0100
0000
0001
0000
1000
0100
,  // measure 10
0000
0010
0000
0100
1000
0001
0100
0010
,  // measure 11
1000
0000
0100
0000
0010
0000
0001
0100
,  // measure 12
0000
0010
0000
0100
0001
1000
0100
0010
,  // measure 13
0001
0000
0100
0000
1000
0000
0100
0010
,  // measure 14
0000
1000
0000
0001
0010
0100
1000
0010
,  // measure 15
0100
0000
0001
0000
0100
0000
0010
1000
,  // measure 16
0000
0001
0000
0010
0100
1000
0010
0100
,  // measure 17
0001
0000
0000
0100
0000
0000
0001
0000
1000
0000
0100
0000
1000
0000
0001
0000
,  // measure 18
0010
1000
0010
0001
0100
1000
0100
0000
,  // measure 19
0001
0000
0000
1000
0000
0000
0100
0000
1000
0000
0001
0000
0100
0000
0010
0000
,  // measure 20
1000
0001
1000
0100
0010
0100
0110
0000
,  // measure 21
0100
0000
0000
1000
0000
0000
0100
0000
1000
0000
0010
0000
0100
0000
0001
0000
,  // measure 22
1000
0100
0001
0100
1000
0010
0100
0001
,  // measure 23
0010
0000
0001
0000
1000
0000
0010
0000
0100
0000
0001
0100
0000
0001
0100
0000
,  // measure 24
0010
0100
0001
1000
0100
0010
0001
1000
,  // measure 25
0010
0000
0000
0100
0000
0000
0101
0000
0000
0000
0001
0000
0000
0000
1000
0000
,  // measure 26
0100
1000
0001
0100
0010
0100
0001
0010
,  // measure 27
0100
1000
0000
1100
0000
1001
0000
0001
,  // measure 28
0100
0010
0100
0001
0010
0100
1000
0010
,  // measure 29
0100
0001
0000
0101
0000
0110
0000
0010
,  // measure 30
1000
0100
1000
0001
0100
0010
0100
0001
,  // measure 31
1000
0000
0000
0100
0000
0000
1100
0000
0000
0000
0011
0000
0000
0000
0100
0000
,  // measure 32
0010
0001
1000
0010
0100
0001
1000
0001
,  // measure 33
0000
0010
0100
1000
0010
0100
0001
0001
,  // measure 34
1000
0100
0010
0100
0001
0100
0010
0100
,  // measure 35
1000
0010
0100
0010
0001
0010
0100
0010
,  // measure 36
1000
0000
0100
0110
0000
0011
0000
0001
,  // measure 37
1000
0010
0100
0001
0100
0010
1000
0001
,  // measure 38
0010
0001
0010
0100
0010
1000
0010
0100
,  // measure 39
0001
0100
0010
0100
1000
0100
0010
0100
,  // measure 40
1000
0000
0001
0100
0000
0000
0000
0000
0100
0000
0001
0010
0000
0000
0100
0000
,  // measure 41
1000
0010
0100
0010
1000
0100
0010
0001
,  // measure 42
0100
1000
0100
0001
0100
0010
0100
1000
,  // measure 43
0100
0001
0100
1000
0100
0010
0100
0001
,  // measure 44
0011
0000
0010
0110
0000
1100
0000
1000
,  // measure 45
0001
0100
1000
0100
0001
0010
0100
1000
,  // measure 46
0001
0010
1000
0010
0100
0010
1000
0010
,  // measure 47
0001
0010
0100
0010
0001
0010
1000
0010
,  // measure 48
0011
0000
0100
0000
1100
0000
0001
0100
,  // measure 49
0010
1000
0001
0100
0010
0100
0001
1000
,  // measure 50
0020
0000
0000
0130
,  // measure 51
0001
0000
0100
0000
0010
0000
1000
0100
,  // measure 52
0000
0010
0100
1000
0010
0100
0001
0010
,  // measure 53
0001
0000
1000
0000
0100
0000
0010
0100
,  // measure 54
1000
0010
0100
0001
0100
0010
1000
0001
,  // measure 55
0010
0000
0100
0000
1000
0000
0100
0010
,  // measure 56
0000
0001
1000
0010
0100
0001
0100
0010
,  // measure 57
1000
0000
0001
0000
0010
0000
0100
1000
,  // measure 58
0010
0100
0001
0010
0100
1000
0001
0100
,  // measure 59
0010
0000
1000
0000
0100
0000
1000
0000
0010
0000
0100
0001
0000
0100
0010
0000
,  // measure 60
1000
0001
0010
0100
1000
0100
0010
0001
,  // measure 61
1000
0000
0010
0000
0100
0000
0001
0000
0100
0000
0010
1000
0000
0010
0100
0000
,  // measure 62
0001
0010
0100
1000
0001
0100
0010
0000
,  // measure 63
0010
0000
0100
0000
0001
0000
1000
0000
0100
0000
0010
0100
0000
1000
0010
0000
,  // measure 64
0100
0001
0010
0001
1000
0010
0100
0001
,  // measure 65
0010
0000
0100
0000
1000
0000
0010
0000
0100
0000
0001
1000
0000
0001
1000
0000
,  // measure 66
0100
0010
0001
1000
0010
0100
0001
1000
,  // measure 67
0002
0000
0000
1003
,  // measure 68
0010
0000
0000
0100
0000
0000
0101
0000
0000
0000
1001
0000
0000
1000
0000
0100
,  // measure 69
1000
0010
0100
0001
0010
0001
1000
0010
,  // measure 70
0100
0000
0000
0010
0000
0000
0110
0000
0000
0000
0101
0000
0000
0001
0000
1000
,  // measure 71
0001
0010
0100
1000
0010
0100
0001
1000
,  // measure 72
0100
0000
0000
1000
0000
0000
1100
0000
0000
0000
0011
0000
0000
0001
0000
0100
,  // measure 73
0001
0010
0100
0010
1000
0010
0001
0100
,  // measure 74
0010
0000
0000
1000
0000
0000
0001
0000
0100
0000
0010
1000
0000
0010
1000
0000
,  // measure 75
0001
0100
0010
1000
0001
0010
0100
1000
,  // measure 76
0001
0100
1000
0100
0001
0100
1000
0100
,  // measure 77
0001
0100
0010
0100
1000
0100
0010
0100
,  // measure 78
0101
0000
0010
1010
0000
1001
0000
0001
,  // measure 79
0010
0100
1000
0010
1000
0001
0010
0100
,  // measure 80
1000
0010
0001
0010
1000
0010
0001
0010
,  // measure 81
1000
0010
0100
0010
0001
0010
0100
0010
,  // measure 82
1000
0000
0010
1000
0000
0000
0100
0000
0010
0000
0001
0010
0000
0000
0100
0000
,  // measure 83
1000
0010
0100
0001
0010
0100
1000
0001
,  // measure 84
0010
0001
0010
0001
1000
0010
1000
0010
,  // measure 85
0100
0001
0010
0100
1000
0010
0100
0001
,  // measure 86
1001
0000
0000
0000
;

//---------------dance-single - ----------------
#NOTES:
     dance-single:
     :
     Medium:
     7:
     0.494448,0.503286,0.292608,0.066882,0.000000,371.000000,35.000000,8.000000,0.000000,0.000000,0.000000,0.494448,0.503286,0.292608,0.066882,0.000000,371.000000,35.000000,8.000000,0.000000,0.000000,0.000000:
0000
0000
0000
0000
,
0000
0000
0000
0000
,
0000
0000
0000
0000
,
0000
0000
0000
0000
,
0010
0100
0001
1000
,
0100
0010
0001
1000
,
2020
3030
0202
0303
,
0010
0100
0010
0110
,
0002
0000
0000
1003
,
0001
0000
0010
0000
0100
0000
1000
0010
,
0000
0100
0000
0001
0100
0000
0010
0000
,
1000
0000
0001
0000
0010
0000
0100
1000
,
0000
0010
0000
1000
0001
0000
0010
0000
,
0100
0000
1000
0000
0010
0000
0100
0001
,
0000
0100
0000
0010
1000
0000
0001
0000
,
0010
0000
0100
0000
1000
0000
0010
0100
,
0000
0001
0000
1000
0100
0000
0010
0000
,
0001
0100
0010
1000
,
0001
0000
0010
0000
0100
1000
0010
1000
,
0001
0100
0010
0100
,
0001
0000
0010
0000
0100
1000
0001
1000
,
0100
0010
0001
1000
,
0010
0000
0100
0000
0001
0010
0100
1000
,
0010
0100
0001
0010
,
0100
0000
1000
0000
0001
1000
0001
0000
,
0010
0100
0000
1000
0000
0001
0000
0101
,
0000
1010
0000
0101
0000
0001
1000
0000
,
0100
0010
0000
0100
0000
1000
0000
0010
,
0000
0101
0000
0010
0000
1000
0001
0000
,
0010
0100
0000
1100
0000
0011
0000
1100
,
0000
1001
0000
0101
0000
0010
0000
1000
,
0001
0010
0000
0100
0000
1000
0000
0001
,
0100
0000
0010
0000
1000
0001
1000
0001
,
0000
0000
0000
0000
,
0001
0000
0100
0000
0010
1000
0100
0000
,
0010
0000
0100
0000
1000
0001
0100
0000
,
0010
0000
1000
0100
0000
0011
0000
0100
,
1000
0000
0010
0000
0100
0001
0100
0010
,
0100
0000
0001
0000
1000
0100
0010
0000
,
0001
0000
1000
0000
0010
0100
0001
0000
,
0010
0011
0100
1100
,
1000
0000
0001
0000
1000
0001
0100
0000
,
0010
0000
0100
0000
0001
1000
0100
0000
,
0010
0000
0100
0000
1000
0001
0100
0000
,
0110
0000
0010
1000
0000
0001
0000
0010
,
0001
0000
1000
0000
0010
0100
0001
0100
,
0010
0000
1000
0000
0001
0010
0100
0000
,
1100
0000
0011
0000
0100
1000
0010
0000
,
0101
0010
1001
0100
,
0011
0000
1100
0000
1000
0001
0100
0010
,
2000
0000
0000
3001
,
0010
0000
0000
0100
0000
1000
0000
0001
,
0000
0100
0000
0010
0000
0000
0000
0000
,
0100
0001
0000
1000
0000
0100
0000
0010
,
0000
0001
0000
0000
0000
0000
0000
0000
,
1000
0010
0000
0100
0000
0001
0000
0010
,
0000
0100
0000
1000
0000
0000
0001
0000
,
0100
0010
0000
0100
0000
0001
0000
1000
,
0000
0100
0000
0020
0000
0000
0130
0000
,
1000
0010
0000
0100
0000
0001
0000
1000
,
0000
0100
0000
0010
0000
0000
0001
0000
,
0100
0010
0000
0100
0000
0001
0000
1000
,
0000
0100
0000
0000
0010
0000
0001
0000
,
1000
0010
0000
0100
0000
0001
0000
0010
,
0000
0100
0000
1000
0000
0001
0000
0100
,
0010
0100
0000
0001
0000
0010
0000
0100
,
1000
0001
0100
0010
1000
0000
0001
0000
,
0020
0000
0000
0130
,
1000
0010
0000
0100
0000
0001
0000
0101
,
0000
1010
0000
0101
0000
0001
0000
1000
,
0100
0010
0000
0001
0000
0010
0000
0110
,
0000
1100
0000
1000
0001
1000
0001
1000
,
0001
0100
0000
0010
0000
1000
0000
1010
,
0000
0110
0000
0101
0000
0001
0000
1000
,
0100
1000
0000
0001
0000
0010
0000
0100
,
0000
1000
0000
0001
0000
0100
0010
0100
,
0001
0000
0100
0000
0010
1000
0001
0000
,
0010
0000
0100
0000
1000
0010
0100
0000
,
0110
0000
0001
1000
0000
0100
0000
0010
,
0100
1000
0100
0000
0010
0001
0010
0000
,
0100
0000
1000
0000
0100
0010
0001
0000
,
1000
0000
0010
0000
0100
0001
1000
0000
,
0100
0011
0100
1010
,
0100
0001
1000
0100
0010
0000
0001
0000
,
0100
0010
0100
0000
0001
0100
0001
0000
,
1000
0010
1000
0010
0100
0000
0110
0000
,
1001
0000
0000
0000
;

//---------------dance-single - ----------------
#NOTES:
     dance-single:
     :
     Easy:
     5:
     0.347547,0.359490,0.142124,0.025081,0.000000,271.000000,17.000000,3.000000,0.000000,0.000000,0.000000,0.347547,0.359490,0.142124,0.025081,0.000000,271.000000,17.000000,3.000000,0.000000,0.000000,0.000000:
0000
0000
0000
0000
,
0000
0000
0000
0000
,
0000
0000
0000
0000
,
0000
0000
0000
0000
,
1000
0001
1000
0001
,
0010
0100
0010
0100
,
0110
0000
1001
0000
,
0010
0100
0001
1000
,
0100
0000
0000
0000
,
0100
0010
0100
0000
,
1000
0100
1000
0000
,
0001
0010
0001
0000
,
0100
0010
0100
0000
,
0001
1000
0100
0000
,
0010
0001
1000
0000
,
1001
0000
0110
0000
,
0020
0000
0100
0100
,
0130
0001
0100
0001
,
1000
0100
0010
0001
,
1000
0010
1000
0010
,
0100
0001
0010
0100
,
1000
0100
0010
0001
,
1000
0001
0100
0010
,
0100
0001
0010
0100
,
1000
0001
1001
0110
,
0010
0100
0001
0100
,
0010
1000
0100
1000
,
0001
0010
0100
1000
,
0001
0100
0010
0000
,
0010
0100
0001
0100
,
0001
1000
0100
1000
,
0010
1000
0001
1000
,
0010
0100
0001
0010
,
0000
0000
0000
0000
,
0010
0010
0100
0100
,
0001
0001
1000
1000
,
0001
0010
0100
1000
,
0001
0100
0010
0000
,
0100
0100
0001
0001
,
1000
1000
0010
0010
,
0110
0000
1001
0000
,
0100
0010
0001
1000
,
0001
0100
0001
0100
,
0010
1000
0010
1000
,
0001
0010
0100
1000
,
0010
0100
0001
0000
,
1000
1000
0001
0001
,
0100
0100
0010
0010
,
0110
0000
1001
0000
,
0100
0010
0001
1000
,
0010
0000
0000
0000
,
0100
0000
0010
0000
,
0100
0000
0010
0000
,
1000
0000
0001
0000
,
1000
0000
0001
0000
,
0010
0000
0100
0000
,
1000
0000
0001
0000
,
0100
0000
0010
0000
,
1000
0000
0001
0000
,
0010
0100
0010
0100
,
1000
0010
1000
0010
,
0100
0001
0100
0001
,
1000
0100
0010
0000
,
0100
1000
0100
1000
,
0001
0100
0001
0100
,
0010
1000
0001
0010
,
0100
1000
0001
0000
,
2002
0000
0000
3003
,
0010
0100
0001
1000
,
0100
0010
0001
0000
,
0010
0100
1000
0001
,
0100
0010
1000
0000
,
0001
0100
0010
0100
,
0001
1000
0100
0000
,
0010
0001
1000
0010
,
0100
0010
0110
0000
,
0001
0001
1000
1000
,
0010
0010
0100
0100
,
0001
0010
0100
1000
,
0010
0100
0001
0000
,
1000
1000
0010
0010
,
0100
0100
0001
0001
,
1001
0000
0110
0000
,
0010
0100
1000
0001
,
1001
0000
0110
0000
,
0100
1000
0010
0100
,
1001
0000
0000
0000
;

//---------------dance-single - ----------------
#NOTES:
     dance-single:
     :
     Challenge:
     10:
     0.945900,1.000000,0.259167,0.033441,0.718979,757.000000,31.000000,4.000000,0.000000,0.000000,0.000000,0.945900,1.000000,0.259167,0.033441,0.718979,757.000000,31.000000,4.000000,0.000000,0.000000,0.000000:
0000
0000
0000
0000
,
0000
0000
0000
0000
,
0000
0000
0000
0000
,
0000
0000
0000
0000
,
0001
0100
0010
0100
0001
1000
0100
1000
,
0001
0010
0100
0010
0001
1000
0010
1000
,
0001
0100
0010
0100
0001
1000
0100
0010
,
0001
1000
0010
0100
0001
1000
0100
0010
,
2002
0000
3003
0110
,
1100
0000
1100
0000
1001
0000
1000
0001
,
0000
0100
0000
0100
0010
0100
0001
1000
,
1100
0000
0011
0000
1100
0000
1000
1010
,
0000
0101
0000
0001
0010
0001
1000
0010
,
1010
0000
0110
0000
0101
0000
0001
1001
,
0000
0110
0000
1001
0001
0100
0010
1000
,
1001
0000
0101
0000
0110
0000
0010
1010
,
0000
1001
0000
0001
0010
0100
1000
0001
,
0100
0000
0010
1000
0000
0000
0010
0000
0100
0000
0001
0000
1000
0100
0000
1000
,
0001
0100
0010
1000
0010
0100
1000
0100
,
0001
0000
0010
0001
0000
0000
0100
0000
0010
0000
1000
0000
0001
0010
0000
0001
,
0100
0000
0010
0100
0010
0000
0100
0000
0001
0000
1000
0100
0000
0000
1000
0000
,
0010
0000
0100
0001
0000
0000
0100
0000
0010
0000
1000
0000
0100
0010
0000
0100
,
1000
0001
0100
0010
1000
0010
0100
0001
,
1000
0100
0010
0100
1000
0001
1000
0001
0100
0010
0100
0001
1000
0001
1000
0001
,
0010
0000
0000
0100
0000
0000
1000
0000
0000
0001
0000
0000
0100
0010
0100
0010
0000
0000
1000
0000
0000
0001
0000
0000
,
0010
0000
0001
0100
0000
0000
0010
0000
1000
0000
0100
0000
0010
0100
0000
1000
,
0100
1000
0001
0100
0010
0001
1000
0100
,
0001
0000
0010
0001
0000
0000
0100
0000
0010
0000
1000
0000
0001
0100
0000
0010
,
0100
0000
0010
0000
0000
0000
1010
0000
0000
0000
0101
0000
0001
0010
0001
0010
,
0100
0000
1000
0001
0000
0000
0100
0000
0010
0000
0100
0000
0001
1000
0000
0100
,
1000
0000
0010
0000
0100
0000
0001
0000
0010
0001
0100
0010
1000
0100
0010
0001
,
0100
0010
0100
0010
0100
0001
0100
0001
1000
0100
1000
0100
0010
0001
0100
0010
,
1000
0000
0000
0010
0000
0000
0100
0000
0000
0001
0000
0000
1000
0001
1000
0001
0000
0000
0010
0000
0000
0100
0000
0000
,
0000
0000
0000
1000
0000
0000
0010
0000
0000
0100
0000
0000
0001
0100
0001
0100
0000
0000
0010
0000
0000
1000
0000
0000
,
0001
0000
0100
0000
0010
0000
0100
0001
1000
0000
0010
1000
0001
0000
0010
0000
,
0100
1000
0001
0100
0010
0100
0001
0000
,
0101
0000
0000
0000
0000
0000
0010
0000
0000
2010
0000
0000
0000
0000
0000
3001
0000
0000
1000
0001
1000
0001
1000
0001
,
1000
0000
0100
1000
0001
0000
0100
0000
0010
0000
1000
0010
0000
0000
0100
0000
,
0001
0000
0010
0000
0001
0000
1000
0010
0100
0000
0001
0010
0100
0000
1000
0000
,
0010
0100
0001
0100
0010
1000
0001
0000
,
0011
0000
0001
0100
0000
0000
0010
0000
1010
0000
1000
0001
0000
0000
0010
0001
,
0010
0000
0000
0000
0000
0000
0100
0000
0000
0000
0000
0000
1000
0000
0000
0000
0000
0000
0001
0000
0000
0000
0000
0000
0100
0000
0010
0000
0100
0000
0010
0000
0000
0000
0000
0000
1000
0000
0000
0100
0000
0000
0010
0000
0000
0001
0000
0000
,
1000
0000
0010
0000
0100
0000
0010
0000
1000
0000
0001
0010
0000
0001
0100
0000
,
0010
0000
0100
0000
0001
0000
1000
0000
0100
0000
0010
0000
0100
1000
0010
0100
,
0001
0000
0100
0000
0010
0000
1000
0000
0001
0000
0010
0001
0000
1000
0100
0000
,
1000
0000
0001
1000
0100
0000
1000
0000
1001
0000
0001
0010
0000
0000
0100
0000
,
1000
0010
0100
0001
0100
1000
0100
0001
,
0010
1000
0010
0100
1000
0001
0100
0010
,
1000
0100
0010
0001
0100
0010
0100
0010
0100
0001
0010
0100
1000
0001
1000
0001
,
1000
0010
0100
0001
0010
0100
1000
0001
0100
0000
0010
0000
1000
0100
0010
0100
,
2000
0000
0000
3001
,
0001
0100
0010
0100
0001
0100
0010
1000
,
0001
0010
0100
1000
0001
1000
0010
0100
,
0001
1000
0100
1000
0001
1000
0100
1000
,
0001
0010
0100
1000
0010
1000
0001
0100
,
0010
0100
0001
0100
0010
0100
0001
0100
,
0010
0100
0001
0100
1000
0100
0001
1000
,
0100
0010
0100
1000
0100
0010
0100
1000
,
0100
0001
0100
0010
1000
0010
0001
1000
,
0010
0000
0100
0000
0001
0000
1000
0000
0001
0000
0100
1000
0000
0100
0001
0000
,
0010
0000
0100
0000
1000
0000
0010
0000
0100
0000
0001
0000
0010
0001
0100
0001
,
1000
0000
0100
0000
0010
0000
0001
0000
1000
0000
0001
0010
0000
1000
0010
0000
,
0001
0100
0010
1000
0001
0010
0100
1000
,
0010
0000
0100
0000
0001
0000
1000
0000
0010
0000
0100
0001
0000
0100
1000
0000
,
0100
0001
0010
0100
1000
0010
1000
0001
,
0010
0001
0100
0010
1000
0100
0010
0001
0100
0010
1000
0100
0010
0001
0100
0010
,
1000
0001
0010
0001
1000
0010
0100
0001
1000
0100
1000
0001
0100
0010
1000
0001
,
0010
0000
0100
1000
0100
0000
1000
0001
0000
1000
0100
0010
0001
0000
0000
0000
,
0001
0000
0010
0001
0000
0000
0101
0000
0000
0000
0010
0000
1000
0100
0000
1000
,
0010
0000
0100
0000
0001
0000
0010
0000
0100
0000
0010
0000
0001
0100
0010
1000
,
0100
0000
1000
0001
0000
0000
0100
0000
0010
0000
1000
0000
0001
0010
0000
0100
,
1000
0010
0100
0001
1000
0010
0100
0001
,
1000
0000
0100
1000
0000
0000
0001
0000
0100
0000
0010
0000
0100
1000
0000
0100
,
0001
0000
0010
0000
0100
0000
1000
0000
0010
1000
0100
0010
0001
0100
0010
1000
,
0100
1000
0010
0100
0001
0010
0001
0100
,
0010
0000
0100
0000
0001
0000
1000
0000
0100
1000
0001
0000
0100
0010
0100
0010
,
1000
0000
0100
0000
1000
0000
0001
0100
0010
0000
0100
0001
1000
0000
0100
0000
,
0010
0000
0001
0000
0100
0000
0010
0000
1000
0000
0001
0000
0010
0100
1000
0001
,
0100
0000
0010
0000
0100
0000
0101
0000
0000
0000
1010
0000
1000
0001
0000
0010
,
0001
0000
0100
0000
0010
0000
1000
0000
0010
0000
0100
0000
0001
1000
0001
1000
,
0100
0000
0010
0000
0001
0000
1000
0010
0100
0000
0001
1000
0100
0000
0010
0000
,
0001
0000
0010
0000
1000
0000
0010
0000
0001
0100
0010
1000
0001
0010
0100
1000
,
0001
0000
0100
0010
1000
0100
1000
0100
1000
0000
0010
0100
0001
0100
0001
0100
,
0010
0000
1000
0000
0100
0000
1000
0000
0001
0100
0010
0000
1000
0001
1000
0001
,
0010
0001
0100
0010
0100
0001
1000
0100
0010
0100
1000
0010
0100
0001
1000
0100
,
0010
0001
1000
0010
1000
0001
0100
0001
1000
0100
1000
0010
0100
0001
0010
0100
,
1000
0000
0000
0000
;

//---------------dance-single - ----------------
#NOTES:
     dance-single:
     :
     Beginner:
     2:
     0.146901,0.215694,0.041801,0.000000,0.000000,118.000000,5.000000,0.000000,0.000000,0.000000,0.000000,0.146901,0.215694,0.041801,0.000000,0.000000,118.000000,5.000000,0.000000,0.000000,0.000000,0.000000:
0000
0000
0000
0000
,
0000
0000
0000
0000
,
0000
0000
0000
0000
,
0000
0000
0000
0000
,
1000
0000
1000
0000
,
0001
0000
0001
0000
,
1001
0000
1001
0000
,
0010
0000
0010
0000
,
0100
0000
0000
0000
,
0010
0000
0000
0000
,
0100
0000
0000
0000
,
0001
0000
0000
0000
,
1000
0000
0000
0000
,
0100
0000
0000
0000
,
0010
0000
0000
0000
,
0001
0000
0000
0000
,
1000
0000
0000
0000
,
0010
0000
0000
0000
,
0100
0000
0010
0000
,
0100
0000
0000
0000
,
0001
0000
1000
0000
,
0001
0000
0000
0000
,
0010
0000
0100
0000
,
1000
0000
0000
0000
,
0001
0000
1000
0000
,
0010
0000
0000
0000
,
0100
0000
0010
0000
,
0100
0000
0000
0000
,
0001
0000
1000
0000
,
0001
0000
0000
0000
,
0010
0000
0001
0000
,
1000
0000
0000
0000
,
0010
0000
0100
0000
,
0000
0000
0000
0000
,
0001
0000
0001
0000
,
0001
0000
0001
0000
,
1000
0000
1000
0000
,
1000
0000
0000
0000
,
0010
0000
0010
0000
,
0010
0000
0010
0000
,
0100
0000
0100
0000
,
0100
0000
0000
0000
,
0001
0000
1000
0000
,
0001
0000
0000
0000
,
0010
0000
0100
0000
,
0010
0000
0000
0000
,
0100
0000
1000
0000
,
0100
0000
0000
0000
,
0010
0000
0001
0000
,
0010
0000
0000
0000
,
0110
0000
0000
0000
,
0100
0000
0000
0000
,
0000
0000
0000
0000
,
1000
0000
0000
0000
,
0000
0000
0000
0000
,
0001
0000
0000
0000
,
0000
0000
0000
0000
,
0100
0000
0000
0000
,
0000
0000
0000
0000
,
0010
0000
0010
0000
,
0100
0000
0100
0000
,
0010
0000
0100
0000
,
0010
0000
0000
0000
,
1000
0000
1000
0000
,
0001
0000
0001
0000
,
1000
0000
0001
0000
,
1000
0000
0000
0000
,
1001
0000
0000
0000
,
0100
0000
0010
0000
,
0100
0000
0000
0000
,
1000
0000
0001
0000
,
1000
0000
0000
0000
,
0001
0000
0100
0000
,
0001
0000
0000
0000
,
1000
0000
0010
0000
,
1000
0000
0000
0000
,
0010
0000
0010
0000
,
0100
0000
0100
0000
,
0001
0000
1000
0000
,
0100
0000
0000
0000
,
0010
0000
0010
0000
,
0100
0000
0100
0000
,
1000
0000
0001
0000
,
0100
0000
0000
0000
,
0010
0000
0010
0000
,
0100
0000
0100
0000
,
1001
0000
0000
0000
;
