#VERSION:0.82;
#TITLE:華恋月;
#SUBTITLE:;
#ARTIST:源屋 with Kuroa*;
#TITLETRANSLIT:Karenzuki;
#SUBTITLETRANSLIT:;
#ARTISTTRANSLIT:Minamotoya with Kuroa*;
#GENRE:;
#ORIGIN:;
#CREDIT:;
#BANNER:Karenzuki.png;
#BACKGROUND:Karenzuki-bg.png;
#PREVIEWVID:;
#JACKET:Karenzuki-jacket.png;
#CDIMAGE:;
#DISCIMAGE:;
#LYRICSPATH:;
#CDTITLE:;
#MUSIC:Karenzuki.mp3;
#OFFSET:0.895000;
#SAMPLESTART:28.141001;
#SAMPLELENGTH:12.000000;
#SELECTABLE:YES;
#DISPLAYBPM:180.000000;
#BPMS:0.000=120.000,
32.000=115.700,
34.000=180.000;
#STOPS:;
#DELAYS:;
#WARPS:;
#TIMESIGNATURES:0.000=4=4,
32.000=6=4,
38.000=4=4;
#TICKCOUNTS:0.000=4;
#COMBOS:0.000=1;
#SPEEDS:0.000=1.000=0.000=0;
#SCROLLS:0.000=1.000;
#FAKES:;
#LABELS:0.000=Song Start;
#BGCHANGES:;
#KEYSOUNDS:;
#ATTACKS:
;

//---------------dance-single - ----------------
#NOTEDATA:;
#CHARTNAME:;
#STEPSTYPE:dance-single;
#DESCRIPTION:;
#CHARTSTYLE:;
#DIFFICULTY:Hard;
#METER:10;
#RADARVALUES:0.768974,0.739004,0.239053,0.090675,0.325607,613.000000,29.000000,11.000000,0.000000,0.000000,0.000000,0.000000,0.000000,0.768974,0.739004,0.239053,0.090675,0.325607,613.000000,29.000000,11.000000,0.000000,0.000000,0.000000,0.000000,0.000000;
#CREDIT:;
#DISPLAYBPM:180.000000;
#NOTES:
// measure 0
0000
0000
0000
0000
,  // measure 1
0000
0000
0000
0000
,  // measure 2
0000
0000
0000
0000
,  // measure 3
0000
0000
0000
0000
,  // measure 4
0000
0000
0000
0000
,  // measure 5
2000
0000
3200
0000
,  // measure 6
0320
0000
0031
0200
0000
0320
0000
0000
,  // measure 7
0230
0000
0301
2000
0000
3200
0000
0310
,  // measure 8
0002
0000
0000
0000
,  // measure 9
0000
0000
0000
0000
0000
0000
0000
0000
1003
0000
0100
0010
0100
0000
0010
0000
,  // measure 10
0001
0100
0001
0010
0100
1000
0100
0010
,  // measure 11
0100
0000
0001
0000
0100
0000
0010
0000
0001
0000
1000
0100
1000
0000
0010
0000
,  // measure 12
0100
0000
0001
0000
1000
0000
0100
0000
0010
0000
0000
0001
0010
0000
0000
0100
,  // measure 13
0010
0000
1000
0000
0010
0000
0100
0000
1000
0000
0001
0100
0001
0000
0010
0000
,  // measure 14
0100
0010
0001
0010
0100
1000
0010
1000
,  // measure 15
0100
0000
0010
0001
0010
0000
0100
0000
1000
0010
0100
0010
1000
0010
0100
0010
,  // measure 16
1000
0100
0010
0100
1000
0100
0010
0001
0100
0000
0010
0000
1000
0000
0010
0000
,  // measure 17
0100
0000
0000
0000
1001
0000
0000
0000
0001
0000
0100
0010
0100
0000
0001
0000
,  // measure 18
1000
0100
0010
0100
1000
0001
1000
0010
,  // measure 19
0100
0000
0001
0010
0001
0000
1000
0000
0010
0000
0100
0001
0100
0000
0010
0000
,  // measure 20
1000
0001
0010
0001
1000
0100
0010
0100
,  // measure 21
0001
0000
0100
0010
0100
0000
1000
0000
0001
0000
1000
0100
1000
0000
0010
0000
,  // measure 22
0100
0001
0010
0001
0100
0010
0100
1000
,  // measure 23
0100
0000
0010
1000
0010
0000
0100
0000
0001
0000
0010
0100
0010
0000
0100
0000
,  // measure 24
1000
0000
0001
0000
0100
0000
0001
0000
1000
0000
0100
0000
1000
0000
0001
0100
,  // measure 25
0001
0000
0010
0100
1000
0000
0010
0000
0100
0000
0001
1000
0001
0000
0010
0000
,  // measure 26
0100
1000
0001
1000
0100
0010
0001
0010
,  // measure 27
0100
0000
0010
0001
0010
0000
0100
0000
1000
0000
0010
0100
0010
0000
1000
0000
,  // measure 28
0100
0010
0001
0011
0000
1001
0000
0101
,  // measure 29
0000
0000
0100
0010
0100
0000
0001
0000
1000
0000
0100
0010
0100
0000
0010
0000
,  // measure 30
0001
0100
0010
0100
0001
1000
0100
1000
,  // measure 31
0001
0000
0010
0000
0100
0000
0010
0000
0001
1000
0100
1000
0001
1000
0100
1000
,  // measure 32
0001
0010
0100
0010
0001
0010
0100
0010
0001
0000
1000
0000
0001
0000
0100
0000
,  // measure 33
0010
0000
1000
0001
1000
0000
0001
0000
0100
0000
0000
0010
1000
0000
1001
0000
,  // measure 34
0000
0000
0001
0000
0011
0000
0000
0000
0010
0000
0000
0001
0100
0000
0110
0000
,  // measure 35
0000
0000
0010
0000
1010
0000
0000
0000
1000
0000
0000
0100
0010
0000
0011
0000
,  // measure 36
0000
0000
0001
0000
1001
0000
0000
0000
0001
0000
0000
0100
0010
0000
1010
0000
,  // measure 37
0000
1000
0100
0000
0010
0000
0001
0000
0100
0000
0000
0010
1000
0000
1001
0000
,  // measure 38
0000
0000
0001
0000
0101
0000
0000
0000
0100
0000
0000
0001
0010
0000
0110
0000
,  // measure 39
0000
0000
0100
0000
1100
0000
0000
0000
1000
0000
0000
0001
0100
0000
0110
0000
,  // measure 40
0000
0000
0010
0000
1010
0000
0000
0000
1000
0000
0000
0100
0010
0000
0011
0000
,  // measure 41
0001
0000
0000
0000
0100
0010
0100
0010
0100
0000
0001
0000
0100
0000
0010
0000
,  // measure 42
1000
0100
0010
0001
1000
0100
1000
0010
,  // measure 43
0100
0001
0010
0100
1000
0001
1000
0010
,  // measure 44
0100
0001
1000
1010
0000
1001
0000
0011
,  // measure 45
0000
0010
0100
1000
0001
0100
0001
1000
,  // measure 46
0001
0010
0001
1000
0100
0010
0100
0001
,  // measure 47
0100
0000
0010
0000
0100
0000
1000
0000
0100
0010
0100
0010
0100
0010
0100
0010
,  // measure 48
0001
1000
0001
1000
0001
1000
0001
1000
0002
0000
0000
0000
0000
0000
0000
0000
,  // measure 49
0000
0000
0000
0000
1003
0100
0010
0001
,  // measure 50
0100
0010
0100
0001
0010
0100
1000
0100
,  // measure 51
0010
0001
0100
0010
0100
0001
1000
0010
,  // measure 52
0100
0001
1000
0010
0100
0001
0010
0100
,  // measure 53
1000
0001
0100
0010
0100
0001
1000
0100
,  // measure 54
0010
0001
1000
0010
0100
0010
1000
0001
,  // measure 55
0010
0100
1000
0010
0100
0010
1000
0010
,  // measure 56
0100
0001
1000
0010
0100
0001
0100
0010
,  // measure 57
1000
0100
0010
0100
1000
0001
0100
0001
,  // measure 58
1000
0100
0010
0100
0010
0001
1000
0001
,  // measure 59
0010
0100
1000
0100
0110
0000
0010
0011
,  // measure 60
0000
0001
1000
1010
0000
0110
0000
0101
,  // measure 61
0000
0001
1000
0100
0010
0001
0010
0100
,  // measure 62
0010
1000
0010
0100
1000
0001
1000
0010
,  // measure 63
1000
0000
0001
0000
1000
0000
0100
0000
0010
0001
0010
0001
0010
0001
0010
0001
,  // measure 64
1000
0100
1000
0100
1000
0100
1000
0100
2000
0000
0000
0000
0000
0000
0000
0000
,  // measure 65
0000
0000
0000
0000
0000
0000
0000
0000
3001
0000
0100
0010
0100
0000
0001
0000
,  // measure 66
1000
0100
0010
0001
0100
0010
1000
0010
,  // measure 67
0001
0000
0010
0100
0010
0000
1000
0000
0100
0000
0010
0001
0010
0000
0100
0000
,  // measure 68
1000
0010
0100
0001
1000
0100
0010
0100
,  // measure 69
0001
0000
0100
0010
0100
0000
1000
0000
0010
0000
0100
0001
0100
0000
0010
0000
,  // measure 70
1000
0001
0100
0010
1000
0001
0010
0001
,  // measure 71
1000
0000
0001
0100
0001
0000
0010
0000
0100
0000
1000
0010
1000
0000
0001
0000
,  // measure 72
0100
0010
1000
0100
0010
0100
0001
0100
,  // measure 73
0010
0000
0100
1000
0100
0000
0010
0000
0001
0000
0000
0000
0100
0000
0101
0000
,  // measure 74
0000
0000
0001
1000
0001
0000
0010
0000
0100
0000
1000
0000
0010
0000
1000
0000
,  // measure 75
0010
0100
0001
0010
0100
0000
1000
1001
,  // measure 76
0000
0000
0001
0000
0100
0000
0010
0000
0100
0000
0001
1000
0001
0000
0100
0000
,  // measure 77
0010
0100
0001
1000
0100
0010
0001
0010
,  // measure 78
0100
0010
1000
0010
0001
0100
0010
0100
,  // measure 79
1000
0000
0100
0000
0010
0000
0100
0000
0001
0010
0001
0000
1000
0100
1000
0000
,  // measure 80
0010
0100
0010
0000
1000
0001
1000
0000
0010
0000
1000
0000
0001
0000
0100
0000
,  // measure 81
0010
0000
1000
0001
1000
0000
0001
0000
1001
0000
0000
0000
0000
0000
0000
0000
;

//---------------dance-single - ----------------
#NOTEDATA:;
#CHARTNAME:;
#STEPSTYPE:dance-single;
#DESCRIPTION:;
#CHARTSTYLE:;
#DIFFICULTY:Medium;
#METER:8;
#RADARVALUES:0.612353,0.604639,0.008243,0.082432,0.103040,509.000000,1.000000,10.000000,0.000000,0.000000,0.000000,0.000000,0.000000,0.612353,0.604639,0.008243,0.082432,0.103040,509.000000,1.000000,10.000000,0.000000,0.000000,0.000000,0.000000,0.000000;
#CREDIT:;
#NOTES:
0000
0000
0000
0000
,
0000
0000
0000
0000
,
0000
0000
0000
0000
,
0000
0000
0000
0000
,
0000
0000
0000
0000
,
0002
0000
0203
0000
,
0320
0000
0000
0000
0000
0230
0000
0000
,
0302
0000
0000
0000
0000
0023
0000
0130
,
2000
0000
0000
0000
,
0000
0000
0000
0000
3001
0000
1000
0010
,
0000
0000
0100
0010
0100
0000
0001
0000
0010
0000
0000
0100
1000
0000
0000
0000
,
0010
0100
0001
0000
1000
0000
0010
0100
,
0000
0000
0001
0000
0100
0000
0010
0000
1000
0100
0000
0000
0100
0010
0000
0000
,
0010
0001
1000
0000
0010
0100
0010
0100
,
0001
1000
0001
1000
0100
0010
0100
0010
,
0001
0000
0010
0000
0100
0000
1000
0000
0100
0000
0010
0001
0010
0000
0100
1000
,
0100
0000
1000
0001
1000
0000
0010
0100
0010
0000
0000
1000
0010
0000
0000
0100
,
0010
0000
0101
0000
0001
1000
0001
0100
,
0001
0010
0100
0010
0100
1000
0100
0010
,
0100
0001
1000
0010
0001
0100
0010
1000
,
0010
0100
0001
1000
0100
0010
0100
1000
,
0100
0010
0100
0001
0100
0010
1000
0100
,
1000
0001
0100
0010
1000
0001
0010
0001
,
1000
0001
0100
0001
1000
0010
0100
0001
,
0100
0010
1000
0100
0010
0001
0010
0100
,
0010
1000
0001
0100
1000
0001
0100
0010
,
0100
0001
0010
0100
1000
0001
1000
0010
,
1000
0001
1000
0100
0010
0001
0100
0010
,
0100
0001
1000
0010
0000
0010
0000
0010
,
0000
0100
0001
1000
0001
0100
0001
0100
,
0010
1000
0010
1000
0100
0010
0100
0010
,
0001
0000
1000
0000
0001
0000
1000
0000
0100
0000
0010
0001
0010
0000
0100
1000
,
0100
0000
0010
0100
0010
0000
0001
0100
0002
0000
0000
0000
0000
0000
0000
0000
,
0000
0000
0000
0000
0013
0000
0100
0010
,
0000
0001
0100
0010
0100
0000
0001
0100
,
0000
0010
1000
0100
0010
0000
0001
0010
,
0000
0100
1000
0001
1000
0000
0010
1000
,
0000
0001
0010
0100
1000
0000
0001
0100
,
0000
0010
0100
0001
1000
0000
0100
0010
,
0000
0100
1000
0001
0010
0000
0100
1000
,
0000
0001
0100
0010
1000
0000
0100
0010
,
0001
0000
0000
0000
0100
0010
0100
0010
0100
0000
0000
0000
0001
0000
0000
0000
,
1000
0001
0100
0010
,
1000
0000
0010
0100
0001
0000
0010
0000
,
0100
0000
0010
0001
0000
0100
0000
0001
,
0000
1000
0000
0010
0100
0001
0100
0001
,
0100
0001
0100
0001
0010
0100
0010
0100
,
0010
0100
0010
0100
1000
0010
0001
0010
,
0100
0010
0001
0010
2000
0000
0000
0000
,
0000
0000
0000
0000
3100
0010
0001
0100
,
0010
0000
1000
0100
0010
0100
1000
0001
,
0010
0000
0100
0010
0100
0000
0010
0001
,
0000
1000
0000
0000
0010
1000
0000
0100
,
0000
0010
0001
0010
0100
1000
0100
0001
,
0100
0000
0010
0001
0100
0000
0010
1000
,
0000
0100
0000
0000
0010
0000
0100
0010
,
0000
0001
0000
1000
0010
0100
0010
1000
,
0100
0000
0010
0100
0010
0001
1000
0010
,
0100
0000
0010
1000
0001
0100
0010
0100
,
0010
0000
1000
0100
0010
0000
0100
0010
,
0000
0000
0000
0001
0010
0000
0100
0000
0000
0000
1000
0000
0000
0000
0001
0000
,
0000
0100
0000
0010
1000
0100
1000
0100
,
1000
0100
1000
0100
0010
0001
0010
0001
,
0010
0000
0001
0000
0010
0000
0001
0000
0100
0010
0100
0000
0001
1000
0001
0000
,
0010
0100
0010
0000
0001
1000
0001
0000
0200
0000
0000
0000
0000
0000
0000
0000
,
0000
0000
0000
0000
0310
1000
0001
1000
,
0010
0100
0010
0100
0001
0010
0100
0010
,
0100
1000
0001
1000
0010
0100
0001
0100
,
0010
1000
0100
1000
0010
0100
0010
1000
,
0100
0010
0001
0100
0010
1000
0100
1000
,
0010
0100
0001
0100
0010
1000
0010
0100
,
0001
0010
0100
0010
0001
1000
0010
1000
,
0001
0100
0010
0100
0001
1000
0001
0100
,
0010
1000
0100
1000
0010
0000
0100
0010
,
0000
0010
1000
0010
0100
0001
0010
1000
,
0010
0001
0100
1000
0100
0000
0010
1000
,
0000
1000
0001
0100
0010
1000
0010
1000
,
0100
0010
0100
0010
0001
1000
0001
1000
,
0100
0010
0100
0010
0001
0100
0001
0100
,
0010
0000
1000
0000
0010
0000
1000
0000
0001
0100
0001
0000
1000
0010
1000
0000
,
0100
0010
0100
0000
1000
0001
1000
0000
0100
0000
0010
0000
0100
0000
0010
0000
,
0100
0000
1000
0000
;

//---------------dance-single - ----------------
#NOTEDATA:;
#CHARTNAME:;
#STEPSTYPE:dance-single;
#DESCRIPTION:;
#CHARTSTYLE:;
#DIFFICULTY:Easy;
#METER:4;
#RADARVALUES:0.355636,0.335911,0.000000,0.049459,0.000000,296.000000,0.000000,6.000000,0.000000,0.000000,0.000000,0.000000,0.000000,0.355636,0.335911,0.000000,0.049459,0.000000,296.000000,0.000000,6.000000,0.000000,0.000000,0.000000,0.000000,0.000000;
#CREDIT:;
#NOTES:
0000
0000
0000
0000
,
0000
0000
0000
0000
,
0000
0000
0000
0000
,
0000
0000
0000
0000
,
0000
0000
0000
0000
,
1000
0000
0000
0000
,
0001
0000
0000
0000
,
0100
0000
0000
0000
,
0020
0000
0000
0000
,
0000
0000
0000
0000
1030
0000
0000
0001
,
0000
0100
0010
0100
0001
0000
0000
0000
,
0000
0000
0000
0000
0010
0000
0000
0100
,
0000
1000
0010
0100
0010
0000
0000
0000
,
0000
0000
0100
0010
,
1000
0010
0100
0010
,
0001
0000
0010
0000
0100
0000
0001
1000
,
0001
0000
0010
0100
0020
0000
0000
0000
,
0000
0000
0130
1000
,
0100
0010
0100
1000
,
0001
1000
0010
0100
,
0010
1000
0001
0100
,
0010
0100
0001
1000
,
0100
0010
0100
0010
,
0001
0100
0010
1000
,
0100
0000
0010
0000
0001
0000
0100
0010
,
0001
0000
1000
0100
0010
0000
1000
0000
,
0001
0100
0010
0100
,
0001
1000
0100
0010
,
0001
0000
1000
0100
0000
0010
0000
0100
,
0000
1000
0001
0000
0100
0000
0001
0000
,
0100
0001
0100
0010
,
0100
0000
0010
0000
0100
0000
1000
0100
,
0010
0000
0100
0001
0020
0000
0000
0000
,
0000
0000
0000
0000
0130
0000
0000
0010
,
0000
0001
0000
0100
0010
0000
0000
1000
,
0000
0100
0000
0010
0001
0000
0000
1000
,
0000
0010
0000
0100
0010
0000
0000
1000
,
0000
0001
0000
0010
0100
0000
0000
0010
,
0000
0001
0000
0100
0010
0000
0000
1000
,
0000
0010
0000
0100
0001
0000
0000
0010
,
0000
0001
0000
1000
0100
0000
0010
0001
,
0010
0000
0100
1000
,
0100
0010
0001
1000
,
0010
1000
0100
0010
,
0100
0000
1000
0001
0000
0100
0000
0010
,
0000
0100
0001
0010
0100
0000
0010
0000
,
0100
1000
0001
0100
,
0010
0000
1000
0000
0001
0000
1000
0010
,
1000
0000
0100
0010
0200
0000
0000
0000
,
0000
0000
0310
0001
,
0010
0100
1000
0010
,
1000
0001
0100
0010
,
0100
0001
1000
0100
,
1000
0010
0100
0001
,
0100
0010
1000
0001
,
1000
0100
0010
0100
,
0010
0001
0100
0010
,
0100
0000
0001
1000
0001
0000
0100
0000
,
0010
1000
0100
0010
,
0100
0000
1000
0000
0010
0000
0000
0100
,
0000
0001
0100
0001
0000
1000
0000
0001
,
0000
0100
0010
0100
0001
0000
1000
0000
,
0001
0010
0001
1000
,
0001
0000
0100
0000
0010
0000
0100
0001
,
0100
0000
0010
0100
0020
0000
0000
0000
,
0000
0000
0130
0001
,
0100
0010
0100
0001
,
1000
0100
0010
0001
,
0010
0100
0010
0001
,
1000
0001
0100
0010
,
0100
0001
0100
0010
,
1000
0100
1000
0010
,
1000
0001
1000
0100
,
0010
0000
0001
0000
0100
0000
0010
0100
,
0000
0001
1000
0100
0010
0000
0100
0000
,
0010
0000
0100
0000
0010
0000
0001
0100
,
0000
0010
0100
0001
0010
0000
0100
0000
,
0010
0100
1000
0001
,
1000
0001
0010
0100
,
0010
0000
0100
0000
1000
0000
0010
0100
,
0001
0000
1000
0010
0200
0000
0000
0000
,
0000
0000
0310
0000
;
