#TITLE:Dolphin Talk;
#SUBTITLE:;
#ARTIST:Pyramyth;
#TITLETRANSLIT:;
#SUBTITLETRANSLIT:;
#ARTISTTRANSLIT:;
#GENRE:;
#CREDIT:;
#BANNER:;
#BACKGROUND:;
#LYRICSPATH:;
#CDTITLE:encorerebirth.png;
#MUSIC:Dolphin Talk.mp3;
#OFFSET:-0.044;
#SAMPLESTART:34.933;
#SAMPLELENGTH:17.335;
#SELECTABLE:YES;
#BPMS:0.000=110.000
;
#STOPS:
;
#BGCHANGES:;
#KEYSOUNDS:;
#ATTACKS:;

//---------------dance-single - Spork!----------------
#NOTES:
     dance-single:
     :
     Beginner:
     1:
     0.089,0.109,0.035,0.141,0.000,51.000,4.000,16.000,0.000,0.000,0.000,0.089,0.109,0.035,0.141,0.000,51.000,4.000,16.000,0.000,0.000,0.000:
0000
0000
0000
0000
,
0000
0000
0000
0000
,
0000
0000
0000
0000
,
0000
0000
0000
0000
,
2000
0000
3000
0000
,
2000
0000
3000
0000
,
0002
0000
0003
0000
,
0002
0000
0003
0000
,
0000
0000
0000
0000
,
0000
0000
0000
0000
,
0000
0000
0000
0000
,
0000
0000
0000
0000
,
0200
0000
0000
0000
,
0320
0000
0000
0000
,
0230
0000
0000
0000
,
0310
0000
0000
0000
,
1001
0000
0000
0000
,
0100
0000
0000
0000
,
0110
0000
0000
0000
,
0010
0000
0100
0000
,
0110
0000
0000
0000
,
0100
0000
0000
0000
,
1001
0000
0000
0000
,
0200
0000
0000
0000
,
0300
0000
0000
0000
,
0001
0000
0000
0000
,
0010
0000
0000
0000
,
0100
0000
0010
0000
,
0001
0000
0000
0000
,
1000
0000
0000
0000
,
0002
0000
0000
0000
,
0000
0000
0000
0000
,
2000
0000
0000
0000
,
3003
0000
0000
0000
,
1000
0000
0100
0000
,
1000
0000
0001
0000
,
0001
0000
0010
0000
,
0002
0000
0003
0000
,
0001
0000
0100
0000
,
0001
0000
0001
0000
,
1000
0000
0010
0000
,
2000
0000
0000
0000
,
3001
0000
0000
0000
,
1000
0000
0001
0000
,
1000
0000
0000
0000
,
0001
0001
1000
1000
,
0200
0000
0300
0000
,
0200
0000
0300
0000
,
0020
0000
0030
0000
,
0020
0000
0030
0000
;

//---------------dance-single - Spork!----------------
#NOTES:
     dance-single:
     :
     Easy:
     4:
     0.267,0.307,0.194,0.458,0.004,138.000,22.000,52.000,0.000,0.000,0.000,0.267,0.307,0.194,0.458,0.004,138.000,22.000,52.000,0.000,0.000,0.000:
0000
0000
0000
0000
,
0000
0000
0000
0000
,
0000
0000
0000
0000
,
0000
0000
0000
0000
,
2000
0000
3001
0010
,
0200
0000
0310
0011
,
0002
0000
1003
0010
,
0200
0000
0310
1000
,
0002
0000
0000
0000
,
0000
0000
0000
0000
,
2003
0000
0000
0000
,
3002
0000
0000
0000
,
2003
0000
3002
0000
,
2003
0000
3002
0000
,
1003
0001
1000
0001
,
0200
0000
0000
0300
,
0120
0100
1000
0130
,
0002
0010
1000
1003
,
0210
0010
0001
0310
,
2000
3200
0320
0031
,
2001
0010
0100
3010
,
0200
0001
0010
0310
,
1002
0100
0010
0103
,
0002
0023
0230
1300
,
2000
0000
0000
0000
,
3001
0100
0020
0000
,
0130
0001
0010
0110
,
2000
3200
0320
0031
,
0201
0000
0310
1000
,
2100
3020
0230
0302
,
2003
0000
0000
0000
,
0000
0000
0000
0000
,
0002
0000
0000
0000
,
3003
0000
1001
0000
,
0021
0031
0100
0010
,
1020
1030
0001
0010
,
0120
0130
1000
0010
,
0110
0000
0000
0110
0000
0000
0110
0000
0000
0000
0000
0000
0010
0000
0000
0000
,
1020
1030
0100
0010
,
0021
0031
1000
0010
,
0120
0130
0001
0010
,
0120
0130
1000
0001
,
2000
0010
0100
3010
,
0200
0001
0010
0310
,
0002
0010
0100
0013
,
0002
0023
0130
0110
,
2000
0000
3001
0100
,
0020
0000
0130
0101
,
0002
0000
1003
0100
,
0020
0000
0130
1001
;

//---------------dance-single - Spork!----------------
#NOTES:
     dance-single:
     :
     Medium:
     6:
     0.312,0.329,0.167,0.502,0.004,172.000,19.000,57.000,0.000,0.000,0.000,0.312,0.329,0.167,0.502,0.004,172.000,19.000,57.000,0.000,0.000,0.000:
0000
0000
0000
0000
,
0000
0000
0000
0000
,
0000
0000
0000
0000
,
0000
0000
0000
0000
,
2000
0000
0000
0000
3000
0001
0000
1000
,
0002
0000
0000
0000
0103
0000
0010
0100
,
0002
0000
0000
0000
0003
1000
0000
0001
,
2000
0000
0000
0000
3010
0100
0010
0000
,
2000
0000
0000
0000
,
0000
0000
0000
0000
,
3002
0000
0000
0000
,
2003
0000
0000
0000
,
3002
0010
2003
0010
,
3002
0100
2003
0100
,
3020
1000
0230
0001
,
0302
0000
0000
0003
,
2000
0000
0001
0001
0001
0001
3000
0000
,
0011
0000
0010
0000
0010
0100
0010
0000
,
0002
0000
1000
1000
1000
1000
0003
0000
,
0001
0000
0100
0000
0010
0100
0110
0000
,
0020
0000
0100
0100
0100
0100
0030
0000
,
1010
0000
1000
0000
1000
0001
1000
0000
,
0200
0000
0010
0010
0010
0010
0300
0000
,
0011
0000
1001
0000
0010
0100
0110
0000
,
0020
0000
0000
0000
,
1030
0000
0001
1000
0001
1000
0001
1000
,
0002
0103
0010
0010
,
2000
3200
0320
0032
,
2003
0000
3010
0100
0010
0000
1000
0000
,
0002
0023
0230
2300
,
3002
0020
0030
2000
,
3000
0200
0300
2000
,
0003
0020
0030
0002
,
0003
0200
3000
0300
,
0120
0000
0130
0010
0100
0010
0000
0000
,
0012
0000
1000
0000
0013
0001
1000
0000
,
1002
0000
1003
0001
1000
0010
0100
0000
,
1001
0000
0000
0110
0000
0000
1001
0000
0000
0000
0000
0000
0010
0000
0000
0000
,
0120
0000
0130
0010
0100
0010
0000
0000
,
2010
0000
3001
0000
0010
1000
0001
0000
,
2001
0000
3001
1000
0001
0010
0000
0000
,
0002
2003
3002
2003
,
3020
0000
0100
0100
0100
0100
0030
0000
,
0101
0001
0002
2003
,
3020
0000
0030
0000
0100
0010
0100
0010
,
2000
3200
0310
0110
,
0002
0000
0000
0000
0003
1000
0001
0000
,
2000
0000
3010
1001
,
2000
0000
0000
0000
3000
0001
1000
0000
,
0200
0000
0310
1001
;

//---------------dance-single - Spork!----------------
#NOTES:
     dance-single:
     :
     Challenge:
     10:
     0.621,0.704,0.176,0.528,0.704,414.000,20.000,60.000,4.000,4.000,10.000,0.621,0.704,0.176,0.528,0.704,414.000,20.000,60.000,4.000,4.000,10.000:
0000
0000
0000
0000
,
0000
0000
0000
0000
,
0000
0000
0000
0000
,
0000
0000
0000
0000
,
0101
0000
0000
0000
0000
1000
0000
0000
0010
1000
0000
0100
0000
0000
0000
0040
0000
0000
0000
0000
0000
0430
0000
0000
,
1000
0000
0000
0300
0000
0001
0000
0000
0010
0001
0000
0100
0010
0000
0010
1000
0000
1000
0001
0000
0000
01M0
0000
0000
,
1100
0000
0000
0000
0000
0001
0000
0000
0100
0001
0000
0010
0000
0000
0000
0400
0000
0000
0000
0000
0000
0340
0000
0000
,
0001
0000
0000
0030
0000
1000
0000
0000
0100
1000
0000
0010
0100
0000
0100
0001
0000
0001
0010
0000
0100
0000
0000
0000
,
0200
0010
0001
1300
,
0020
0000
0100
0000
0001
0000
1030
0001
,
0020
0100
1000
0031
,
0200
0000
0000
0000
0000
0000
0010
0000
0000
0000
0000
0000
1000
0000
0000
0000
0000
0000
0301
0000
0000
1000
0000
0001
,
1000
0000
0001
0100
0000
0001
0010
0000
0001
0010
0000
0001
0100
0000
0001
1000
0000
0001
0100
0000
0001
1000
0000
1000
,
0001
0000
1000
0010
0000
1000
0100
0000
1000
0100
0000
1000
0010
0000
1000
0001
0000
1000
0010
0000
1000
0001
0000
0001
,
1000
0000
1000
0100
0000
0100
0010
0000
0010
0001
0000
0001
0100
0000
0100
0010
0000
0010
1000
0000
1000
0001
0000
0100
,
0020
0000
0000
0000
0000
0000
0000
0000
0000
0000
0000
0000
0000
0000
0000
0000
0000
0000
0000
0000
0000
0000
0000
0000
0000
0000
0000
0000
0000
0000
0000
0000
0000
0000
0000
0000
0000
0000
0000
0000
0000
0000
0000
0000
0000
0000
0000
0000
0000
0000
0000
0000
0000
0000
0000
0000
0000
0000
0000
0000
0000
0000
0000
0000
0000
0000
0000
0000
0000
0000
0000
0000
0000
0000
0000
0000
0000
0000
0000
0000
0000
0000
0000
0000
0000
0000
0000
0000
0000
0000
0000
0000
0000
0000
0000
0000
0130
0000
0000
0000
0000
0000
0000
0000
0000
0000
0000
0000
0000
0000
0000
0000
0000
0000
0000
0000
0000
0000
0000
0000
0000
0000
0000
0000
0000
0000
0000
0000
0000
0000
0000
0000
0000
0000
0000
0000
0000
0000
0000
0000
0000
0000
0000
0000
0001
0000
0000
0000
0000
0000
1000
0000
0000
0000
0000
0000
0001
0000
0000
0000
0000
0000
1000
0000
0000
0000
0000
0000
0001
0000
0000
0000
0000
0000
0000
0000
0000
0000
0000
0000
0000
0000
0000
0000
1000
0000
0000
0000
0000
0000
0000
0000
,
0200
0000
0000
0000
0000
0000
0310
0000
0100
0010
0000
0001
0020
0000
0000
1000
0000
0000
0031
0000
0100
0001
0000
1000
,
0000
0000
0000
0010
1000
0010
0100
0000
0100
0001
0000
0001
2000
0000
0000
0200
0000
0000
0001
0000
0000
3300
0000
0000
,
2000
0000
0000
0000
0000
0000
3010
0000
0100
0010
0000
1000
0020
0000
0000
0001
0000
0000
1030
0000
0100
1000
0000
0100
,
0000
0000
0000
0000
0000
0010
0001
0000
0000
0100
0000
0010
1000
0000
1000
0001
1000
0001
0100
0000
0000
0001
0000
0000
,
0020
0000
0000
0000
0000
0000
0130
0000
0010
0100
0000
1000
0200
0000
0000
0001
0000
0000
1300
0000
1000
0001
0000
0100
,
0000
0000
0000
0010
1000
0010
0100
0000
0100
0001
0000
1000
0002
0000
0000
0200
0000
0000
1000
0000
0000
0303
0000
0000
,
0002
0000
0000
0000
0000
0000
0013
0000
0100
0010
0000
1000
0020
0000
0000
0001
0000
0000
1030
0000
0100
1000
0000
0100
,
0020
0000
0000
0000
0000
0031
2000
0000
0000
0000
0000
3001
0200
0000
0000
0010
0000
0300
1001
0000
0000
0000
0000
0000
,
2100
0010
0001
3100
,
0011
0000
0000
0001
0000
1000
0000
0000
0010
0100
0000
0010
1000
0000
0001
0010
0000
0100
0010
0000
0100
1000
0000
0000
,
0040
0000
0000
0000
0000
0000
0000
0000
0000
0000
0000
0000
0000
0000
0000
0000
0000
0000
0000
0000
0000
0000
0000
0000
0000
0000
0000
0000
0000
0000
0000
0000
0000
0000
0000
0000
0000
0000
0000
0000
0000
0000
0000
0000
0000
0000
0000
0000
0130
0000
0000
0000
0000
0000
0000
0000
0000
0000
0000
0000
0000
0000
0000
0000
0001
0000
0000
0000
0000
0000
0000
0000
0000
0000
0000
0000
0000
0000
0000
0000
0000
0000
0000
0000
0000
0000
0000
0000
0010
0000
0000
0000
0000
0000
0000
0000
0000
0000
0000
0000
0000
0000
0000
0000
0000
0000
0000
0000
0000
0000
0000
0000
0010
0000
0000
0000
0000
0000
0000
0000
0000
0000
0000
0000
0000
0000
0000
0000
0000
0000
0000
0000
0000
0000
0000
0000
0100
0000
0000
0000
0000
0000
0000
0000
1000
0000
0000
0000
0000
0000
0000
0000
0000
0000
0000
0000
0001
0000
0000
0000
0000
0000
1000
0000
0000
0000
0000
0000
0001
0000
0000
0000
0000
0000
0000
0000
0000
0000
0000
0000
0000
0000
0000
0000
0010
0000
0000
0000
0000
0000
0000
0000
,
0002
0203
0320
2030
,
3002
0000
0000
0000
0000
0000
0103
0000
0010
1000
0000
0000
1000
0000
0100
1000
0000
0001
1000
0000
0010
0000
0000
0000
,
2000
3200
0320
0032
,
0203
0000
0000
0000
0000
0000
0310
0000
0010
0000
0000
0020
0000
0000
0000
0000
0000
0000
1030
0000
1000
0000
0000
2000
,
0000
0000
0000
0000
0000
0000
3001
0000
0001
0000
0000
0002
0000
0000
0000
0000
0000
0000
0013
0000
0010
0000
0000
0010
,
0400
0000
0000
0000
,
0310
0000
0000
0001
0000
0000
1000
0000
1000
0010
1000
0001
0010
0000
0000
0100
0000
0000
0010
0001
0010
0001
0000
0001
,
0100
0000
0000
0100
0000
0000
0010
0000
1000
0010
0000
0010
0100
0000
0000
0001
0000
0000
0002
0000
0000
2003
0000
0000
,
3200
0000
0000
1300
0010
1000
0010
0000
0100
0010
0000
0100
0001
0000
0001
1000
0000
0000
2000
0000
0000
3002
0000
0000
,
0043
0000
0000
0000
0000
0000
0000
0000
0000
0000
0000
0000
0130
0000
0000
0000
0010
0000
0100
0000
0000
0000
0010
0000
0001
0000
0000
0000
0000
0000
1000
0000
0000
0000
0000
0000
0010
0000
0000
0M00
0000
0000
0010
0000
0000
0000
0000
0000
,
0011
0000
0000
0000
0000
0000
0000
0000
0000
0110
0000
0000
0000
0000
0000
0000
0000
0000
1100
0000
0000
0000
0000
0000
0100
0000
1000
0000
0001
0000
0200
0000
0000
0000
0000
0000
0310
0000
0000
0000
0000
0000
1001
0000
0000
0000
0000
0000
,
1000
0000
0000
0010
0000
0000
0100
0000
0001
0100
0000
0100
0010
0000
0000
1000
0000
0000
2000
0000
0000
3002
0000
0000
,
0023
0000
0000
0031
0100
0001
0100
0000
0010
0100
0000
0010
1000
0000
1000
0001
0000
0000
0002
0000
0000
2003
0000
0000
,
3400
0000
0000
0000
0000
0000
0000
0000
0000
0000
0000
0000
0310
0000
0000
0000
0100
0000
0010
0000
0000
0000
0100
0000
1000
0000
0000
0000
0000
0000
0001
0000
0000
0000
0000
0000
0100
0000
0000
00M0
0000
0000
0100
0000
0000
0000
0000
0000
,
1000
0000
0000
0000
0000
0000
0000
0000
0000
0000
0000
0000
0000
0000
0000
0000
0010
0000
0000
0000
0000
0000
0000
0000
0000
0000
0000
0000
0000
0000
0000
0000
0100
0000
0000
0000
0000
0000
0000
0000
0000
0000
0000
0000
0000
0000
0000
0000
0001
0000
0000
0000
0000
0000
0000
0000
0000
0000
0000
0000
0000
0000
0000
0000
0010
0000
0000
0000
0000
0000
0000
0000
0000
0000
0000
0000
0000
0000
0000
0000
0100
0000
0000
0000
0000
0000
0000
0000
0000
0000
0000
0000
0000
0000
0000
0000
1000
0000
0000
0000
0000
0000
0000
0000
0000
0000
0000
0000
0000
0000
0000
0000
0001
0000
0000
0000
0000
0000
0000
0000
0000
0000
0000
0000
0000
0000
0000
0000
0000
0000
0000
0000
0000
0000
0000
0000
1001
0000
0000
0000
0000
0000
0000
0000
0000
0000
0000
0000
0000
0000
0000
0000
0000
0000
0000
0000
0010
0000
0000
0000
0000
0000
0001
0000
0000
0000
0000
0000
0010
0000
0000
0000
0000
0000
0000
0000
0000
0000
0000
0000
0000
0000
0000
0000
0000
0000
0000
0000
0000
0000
0000
0000
,
0020
0000
0000
0000
0000
0000
0130
0000
0010
0100
0000
1000
0200
0000
0000
0001
0000
0000
1300
0000
0000
0010
0000
0000
,
0110
0000
0000
0000
0000
0000
0100
0000
0001
0000
0100
0000
0010
0000
0000
0000
0010
0000
1000
0000
0000
0000
1000
0000
0004
0000
0000
0000
0000
0000
0000
0000
0000
0000
0000
0000
0103
0000
0000
00M0
0000
0000
0100
0000
0000
0000
0000
0000
,
4000
0000
3010
0100
0020
2030
3002
0023
,
0230
0020
1000
0331
,
1100
0000
0000
0000
0000
0001
0000
0000
0100
0001
0000
0010
0000
0000
0000
0110
0000
0000
2002
0000
0000
3003
0000
0000
,
0101
0000
0000
0000
0000
1000
0000
0000
0100
1000
0000
0010
0200
0000
0000
0000
0000
0000
0301
0000
0000
1000
0000
0000
,
0011
0000
0000
0000
0000
1000
0000
0000
0010
1000
0000
0100
0000
0000
0000
0110
0000
0000
2002
0000
0000
3003
0000
0000
,
1010
0000
0000
0000
0000
0000
0000
0000
0000
0000
0000
0000
0000
0000
0000
0000
0000
0000
0000
0000
0000
0000
0000
0000
0000
0000
0000
0000
0000
0000
0000
0000
0000
0000
0000
0000
0000
0000
0000
0000
0001
0000
0000
0000
0000
0000
0000
0000
0000
0000
0000
0000
0000
0000
0000
0000
0000
0000
0000
0000
0000
0000
0000
0000
0010
0000
0000
0000
0000
0000
0000
0000
0001
0000
0000
0000
0000
0000
0000
0000
0000
0000
0000
0000
0000
0000
0000
0000
0100
0000
0000
0000
0000
0000
0000
0000
0000
0000
0000
0000
0000
0000
0000
0000
0000
0000
0000
0000
0000
0000
0000
0000
0000
0000
0000
0000
0000
0000
0000
0000
0000
0000
0000
0000
0000
0000
0000
0000
0000
0000
0000
0000
0100
0000
0000
0000
0000
0000
0010
0000
0000
0000
0000
0000
0100
0000
0000
0000
0000
0000
0000
0000
0000
0000
0000
0000
0000
0000
0000
0000
0000
0000
0000
0000
0000
0000
0000
0000
2002
0000
0000
0000
0000
0000
0000
0000
0000
0000
0000
0000
0000
0000
0000
0000
0000
0000
0000
0000
0000
0000
0000
0000
,
3003
0000
0000
0000
;

//---------------dance-single - Spork!----------------
#NOTES:
     dance-single:
     :
     Hard:
     8:
     0.445,0.460,0.106,0.652,0.114,268.000,12.000,74.000,0.000,0.000,0.000,0.445,0.460,0.106,0.652,0.114,268.000,12.000,74.000,0.000,0.000,0.000: // measure 0
0000
0000
0000
0000
,  // measure 1
0000
0000
0000
0000
,  // measure 2
0000
0000
0000
0000
,  // measure 3
0000
0000
0000
0000
,  // measure 4
0020
0000
0230
0000
0301
0010
0000
0010
,  // measure 5
0200
0000
0320
0000
0031
1000
0010
1001
,  // measure 6
0200
0000
0320
0000
1030
0100
0000
0100
,  // measure 7
0020
0000
0230
0000
1300
0001
0100
0000
,  // measure 8
0020
0100
0001
1030
,  // measure 9
0200
0000
0010
0000
0001
0000
1300
0001
,  // measure 10
0200
0010
1000
0301
,  // measure 11
0020
0100
1000
0031
,  // measure 12
0100
0100
0010
0010
0100
0100
0010
0010
,  // measure 13
1000
1000
0001
0001
1000
1000
0001
0001
,  // measure 14
1000
0100
0010
0001
1000
0100
0010
0001
,  // measure 15
2000
0000
3002
0000
,  // measure 16
0203
0000
0000
0000
0000
0000
0310
0000
1000
0010
0000
1000
0010
0000
0000
0200
0000
0000
0000
0000
0000
0301
0000
0000
,  // measure 17
1000
0100
0001
0100
2000
3002
0203
0300
,  // measure 18
0020
0000
0000
0000
0000
0000
0130
0000
0001
0100
0000
0001
0100
0000
0000
0010
0000
0000
1000
0000
0000
0001
0000
0000
,  // measure 19
0020
0000
0230
0000
0310
0001
1001
0000
,  // measure 20
0200
0000
0000
0000
0000
0000
0310
0000
0001
0010
0000
0001
0010
0000
0000
0200
0000
0000
0000
0000
0000
1300
0000
0000
,  // measure 21
0001
0100
1000
0100
0002
2003
3200
0300
,  // measure 22
0020
0000
0000
0000
0000
0000
0130
0000
1000
0100
0000
1000
0100
0000
0000
0010
0000
0000
0001
0000
0000
1000
0000
0000
,  // measure 23
0020
0000
0230
0000
0301
1000
0100
0000
,  // measure 24
0020
0000
0000
0000
,  // measure 25
0031
0100
0001
1000
0010
1000
0100
0110
,  // measure 26
1002
0100
1000
1003
,  // measure 27
0002
0023
0230
2300
,  // measure 28
3002
0000
0103
0001
0010
0001
1000
0000
,  // measure 29
2000
3020
0230
0302
,  // measure 30
1003
0000
0000
0000
0000
0000
0001
0000
0100
0000
0000
1000
0000
0000
0000
0000
0000
0000
0001
0000
0100
0000
0000
1000
,  // measure 31
0000
0000
0000
0000
0000
0000
0001
0000
0100
0000
0000
1000
0000
0000
0000
0000
0000
0000
0001
0000
0100
0000
0000
1000
,  // measure 32
0000
0000
0000
0000
0000
0000
0001
0000
0100
0000
0000
1000
0000
0000
0000
0000
0000
0000
0001
0000
0100
0000
0000
0000
,  // measure 33
1000
0000
0100
0000
0001
1000
0001
1000
,  // measure 34
1200
0000
0000
0000
0000
0000
0310
0000
0001
1000
0000
0001
1000
0000
0000
0010
0000
0000
2000
0000
0000
3002
0000
0000
,  // measure 35
0023
0000
0130
0000
0010
0001
1000
0010
,  // measure 36
0200
0000
0301
0010
0001
1000
0010
0010
,  // measure 37
1010
0000
0000
0110
0000
0000
0102
0000
0000
0000
0000
0000
1003
0000
0000
0000
,  // measure 38
0021
0000
0000
0000
0000
0000
0130
0000
1000
0001
0000
1000
0001
0000
0000
0100
0000
0000
0002
0000
0000
0023
0000
0000
,  // measure 39
0230
0000
0310
0100
1000
0010
0100
0001
,  // measure 40
2000
0000
3010
0100
0010
1000
0200
0320
,  // measure 41
0032
2003
3002
2003
,  // measure 42
3200
0000
0000
0000
0000
0000
0310
0000
0001
0010
0000
0001
0010
0000
0000
0100
0000
0000
1000
0000
0000
0001
0000
0000
,  // measure 43
1000
0010
0001
0010
2000
0000
3002
0000
,  // measure 44
0023
0000
0130
1000
0001
0200
0302
0023
,  // measure 45
0130
0010
0110
1002
,  // measure 46
0203
0000
0320
0000
0030
1000
0100
0000
,  // measure 47
0020
0000
0230
0000
1300
0001
0100
0000
,  // measure 48
0020
0000
0230
0000
0300
0001
0010
0000
,  // measure 49
0200
0320
0030
1001
;
