#TITLE:December Breeze;
#SUBTITLE:;
#ARTIST:dj silverberg;
#TITLETRANSLIT:;
#SUBTITLETRANSLIT:;
#ARTISTTRANSLIT:;
#CREDIT:;
#BANNER:[Round 7] - December Breeze.png;
#BACKGROUND:[Round 7] - December Breeze-bg.png;
#LYRICSPATH:;
#CDTITLE:;
#MUSIC:[Round 7] - December Breeze.mp3;
#OFFSET:-0.940;
#SAMPLESTART:7.45;
#SAMPLELENGTH:10.655;
#SELECTABLE:YES;
#BPMS:0.000=182.000;
#STOPS:;
#BGCHANGES:;

//---------------dance-single - ----------------
#NOTES:
     dance-single:
     :
     Beginner:
     2:
     0.249,0.317,0.044,0.036,0.000:
0000
0000
0000
0000
,
0000
0000
0000
0000
,
0000
0000
0000
0000
,
0000
0000
0000
0000
,
0000
0000
0000
0000
,
1000
0000
0001
0000
,
0100
0000
0010
0000
,
1000
0000
0001
0000
,
0100
0100
0100
0000
,
0001
0000
1000
0000
,
0010
0000
0001
0000
,
1000
0000
0001
0000
,
0010
0010
0010
0000
,
1000
0001
1000
0000
,
0001
1000
0001
0000
,
1000
0001
1000
0000
,
0100
0100
0100
0000
,
0001
1000
0001
0000
,
1000
0001
1000
0000
,
0001
1000
0001
0000
,
0010
0010
0010
0000
,
1000
0000
0000
0000
,
0001
0000
0100
0000
,
0010
0000
1000
0000
,
0001
0000
0100
0000
,
0010
0000
1000
1000
,
0010
0000
0100
0000
,
0001
0000
1000
0000
,
0001
0000
1000
0000
,
0010
0000
0100
0000
,
0001
0000
1000
0000
,
0010
0000
0100
0100
,
0010
0000
0100
0000
,
0001
0000
1000
1000
,
0010
0000
0100
0000
,
1000
0000
0000
0001
,
0000
0100
0000
0010
,
0000
1000
1000
1000
,
0000
0000
0000
0000
,
0001
0100
0010
0000
,
1000
0010
0100
0001
,
1000
1000
0010
0000
,
0100
0000
1001
0000
,
0010
0100
0001
0000
,
1000
0010
0100
0000
,
0001
0100
0010
0000
,
1000
0001
1000
0001
,
0100
0010
1000
0000
,
0001
0100
0010
0000
,
1000
0100
0010
0000
,
0001
1000
0001
0100
,
0010
1000
1000
0000
,
0010
0001
0001
0000
,
0100
1000
1000
0000
,
0100
0001
0001
0000
,
1000
0000
0001
0000
,
1000
1000
0001
0001
,
0100
0100
0010
0010
,
1000
0000
0001
0000
,
0100
0010
1000
0000
,
0001
0000
1000
0000
,
0010
0001
0100
0000
,
1000
0001
0100
0000
,
0001
1000
0010
0000
,
1000
0100
0001
0000
,
1000
0000
0010
0000
,
0100
0000
0001
0000
,
1000
0010
0100
0000
,
0001
1000
0001
0000
,
0100
0100
0010
0010
,
1001
0000
0000
0000
,
1010
0000
0000
0000
,
0101
0000
0010
0000
,
1000
0000
0010
0000
,
0100
0000
0001
0000
,
1000
0010
0100
0001
,
2000
0000
0000
0000
0000
0000
0000
3000
,
0002
0000
0000
0003
,
2002
0000
0000
0000
,
0000
3003
0000
0000
0000
0000
0000
0000
;

//---------------dance-single - ----------------
#NOTES:
     dance-single:
     :
     Easy:
     5:
     0.442,0.528,0.560,0.098,0.000:
0000
0000
0000
0000
,
0000
0000
0000
0000
,
0000
0000
0000
0000
,
0000
0000
0000
0000
,
0000
0000
0000
0000
,
1000
0001
0100
0010
,
1000
1000
0001
0001
,
0100
0010
1000
0001
,
1001
1001
1001
0010
,
0100
1000
1000
0010
,
0100
0001
0001
1000
,
0010
0100
0001
1000
,
1001
0000
1010
0000
,
0001
1000
0010
0000
,
1000
0010
0100
0000
,
0001
1000
0010
0000
,
1000
0001
1000
0010
,
0100
0000
0000
1001
0000
0000
0000
0000
,
0010
0000
0000
1001
0000
0000
0000
0000
,
0010
0100
1000
0001
,
0100
0010
1001
0010
,
0110
0000
0000
0000
,
1000
0001
0100
0010
,
1100
1100
0010
0001
,
0100
0010
0011
0011
,
1000
0010
0100
0001
,
1001
0010
0100
0010
,
1100
0010
0100
0001
,
2000
0010
0010
3010
,
0100
0101
1000
1010
,
0002
0000
0000
2003
0000
0000
3020
0000
,
0000
0230
0000
0000
0301
0000
0001
0000
,
2000
0000
0000
3020
0000
0000
0230
0000
,
0000
0302
0000
0000
1003
0000
1000
0000
,
0001
0001
0000
0100
0100
0000
0010
0010
,
0000
1000
1000
0000
0001
0000
0100
0000
,
0010
1000
0001
0100
,
0010
1000
0001
1001
,
0110
0000
0000
0000
,
1000
0010
1000
0001
,
0100
0010
1000
0001
,
0100
0010
1000
0001
,
1001
1001
1001
0010
,
0100
1000
0010
0100
,
0001
1000
0001
0100
,
0010
1000
1000
0010
,
0100
0001
1010
0001
,
0110
1000
0001
0100
,
1100
0010
0100
0001
,
0011
1000
0010
0001
,
1100
1100
0110
0010
,
1001
0100
0010
1000
,
0011
0100
0010
1000
,
1001
0010
0100
1000
,
1010
0001
0101
0010
,
1010
0100
0101
0010
,
1000
0000
1001
0000
,
0010
0100
0010
0010
,
1000
0001
1001
0010
,
0100
1000
0110
0001
,
1000
0001
1001
0010
,
0011
0011
1100
1100
,
0011
0100
0010
1000
,
1001
0010
0100
1000
,
0011
0100
1000
0010
,
0110
0001
1001
0100
,
0110
1000
0010
0100
,
0011
1000
0010
0100
,
1010
0100
0001
0010
,
0100
0100
0010
0010
,
1001
0010
1000
0100
,
1010
0001
1000
0010
,
0110
1000
0001
0100
,
1010
0001
0101
0010
,
1001
0100
0110
0001
,
0011
1100
0010
0110
,
1000
1000
0001
0001
,
1000
1000
0010
0100
,
2002
0000
0000
0000
,
0000
3003
0000
0000
0000
0000
0000
0000
;

//---------------dance-single - Copied from----------------
#NOTES:
     dance-single:
     Copied from:
     Medium:
     8:
     0.562,0.568,0.471,0.098,0.031:
0000
0000
0000
0000
,
0000
0000
0000
0000
,
0000
0000
0000
0000
,
0000
0000
0000
0000
,
0000
0000
0000
0000
,
1000
0010
1000
0001
0000
0101
0000
0000
,
0010
1000
0010
0100
0000
1001
0000
0000
,
0010
0100
0010
1000
0000
1010
0000
0000
,
0100
0001
1000
0000
0001
1000
0010
0000
,
0100
0001
1000
0001
0000
1001
0000
0000
,
0010
0100
0010
0100
0000
0011
0000
0000
,
1000
0100
1000
0100
0001
0000
0110
0000
,
1000
1010
0101
0101
,
0010
1000
0010
0100
0000
0110
0000
0000
,
0001
1000
0001
1000
0000
1001
0000
0000
,
0010
0100
0001
0001
0000
0011
0000
0000
,
1000
0100
0000
0001
1000
0001
1000
0000
,
0010
0100
0000
0001
0000
1100
0000
0000
,
0010
0100
0010
1000
0000
1100
0000
0000
,
0001
0100
0001
0000
0000
0010
1000
0000
,
0010
0100
0010
0100
0110
0000
0110
0000
,
0000
1000
0001
0100
,
0010
0000
0000
0001
0000
0000
1000
0000
1000
0000
0000
0010
0000
0000
0100
0000
,
0100
0000
0001
0000
1000
0010
1000
0000
,
0001
0000
0000
1000
0000
0000
0001
0000
0001
0000
0000
0010
0000
0000
0100
0000
,
0100
0001
0001
0001
1000
0000
0100
0000
,
0010
0000
0000
1000
0000
0000
0001
0000
0001
0000
0000
0001
0000
0000
1000
0000
,
1000
0000
0100
0010
0100
0010
0100
0000
,
2000
0010
0010
3010
,
0100
0101
0110
0011
,
0002
0000
0000
2003
0000
0000
3020
0000
,
0000
0230
0000
0300
0001
1000
0001
1000
,
2000
0000
0000
3020
0000
0000
0230
0000
,
0000
0302
0000
0003
1000
0001
1000
0010
,
0001
0001
0000
1000
1000
0000
0100
0100
,
0000
0001
0001
0000
1000
0000
0010
0000
,
0100
1000
0001
0010
1000
0000
1000
0100
,
0001
0000
0011
0000
1000
0000
0100
0100
,
0000
0010
0010
0000
0001
0001
0001
0000
,
1000
0010
0100
0001
0000
1001
0000
0000
,
0010
0100
0010
1000
0000
1010
0000
0000
,
0001
0100
0001
1000
0000
0101
0000
0000
,
0010
0100
0010
0100
0010
0000
1000
0000
,
0001
1000
0001
1000
0000
0110
0000
0000
,
1000
0001
1000
0001
0000
0011
0000
0000
,
0100
0010
1000
0100
0000
1100
0000
0000
,
0100
0010
0100
0010
0100
0010
0100
0000
,
0001
1000
0001
1000
0000
0011
0000
0000
,
1000
0010
1000
0010
0000
1100
0000
0000
,
0010
0100
0010
0100
0000
0110
0000
0000
,
0001
1000
0001
1000
0010
0100
0000
0000
,
0001
1000
0001
1000
0000
0011
0000
0000
,
1000
0010
1000
0100
0000
1100
0000
0000
,
0010
0100
0010
0001
0000
0011
0000
0000
,
1010
0000
0110
0000
,
0001
0011
0100
1100
,
0010
0100
0010
1000
0001
1000
0010
0000
,
0001
0000
0001
0000
1000
0000
1000
0000
0000
0000
0010
0000
0100
0010
0100
0000
,
0001
1000
0001
1000
0000
0110
0000
0000
,
0001
0100
0001
0100
0000
1010
0000
0000
,
1000
0100
1000
0100
0000
1010
0000
0100
,
0001
0010
0001
0100
0001
0000
1000
0000
,
0001
0100
0010
1000
0000
1010
0000
0000
,
0001
0100
0001
0100
0000
0011
0000
0000
,
1000
0010
0100
0010
0000
1000
1000
0000
,
1010
0001
0101
0010
,
1000
0010
1000
0010
0000
0101
0000
0000
,
0100
0001
0100
0001
0000
0101
0000
0000
,
0001
1000
0001
1000
0000
1001
0000
0000
,
0010
0100
1000
0000
0010
1000
1000
0001
,
0100
1000
0100
0010
0000
1100
0000
0000
,
0010
0001
0010
0001
0000
0011
0000
0000
,
1000
0010
0100
1000
0000
1010
0000
0000
,
0101
0001
1010
1000
,
0011
0100
0010
1000
,
1001
0010
0100
1000
,
0001
1000
0001
0000
0100
0010
0100
0000
,
1000
0001
1000
0010
0100
0010
0100
0000
,
2000
0000
0000
0000
0000
3000
0001
0002
,
0000
0000
0000
0000
0000
0000
0000
0003
;

//---------------dance-single - Copied from----------------
#NOTES:
     dance-single:
     Copied from:
     Hard:
     10:
     0.792,0.817,0.703,0.196,0.369: // measure 1
0000
0000
0000
0000
,  // measure 2
0000
0000
0000
0000
,  // measure 3
0000
0000
0000
0000
,  // measure 4
0000
0000
0000
0000
,  // measure 5
0000
0000
0000
0000
,  // measure 6
1000
0000
0010
0000
1000
0000
1001
0000
0000
0000
0101
0000
0000
0000
0010
0100
,  // measure 7
0010
0000
1000
0000
0001
0000
1100
0000
0000
0000
1001
0000
0000
0000
0010
0100
,  // measure 8
0010
0100
0010
1001
0000
1010
0000
0000
,  // measure 9
0001
0010
0001
1000
0010
1000
0001
0010
0001
0000
1000
0000
0010
0000
0000
0000
,  // measure 10
0100
0000
0001
0000
1000
0000
0101
0000
0000
0000
1001
0000
0000
1000
0001
1000
,  // measure 11
0010
0100
0010
0110
0000
0011
0000
0000
,  // measure 12
1000
0100
1000
0100
0100
0010
0010
0100
,  // measure 13
1000
0100
0010
1000
0101
0000
0101
0000
,  // measure 14
0010
0000
1000
0000
0010
0000
0100
0000
0000
0000
0110
0000
0000
0010
0100
0010
,  // measure 15
0001
0000
1000
0000
0001
0000
1100
0000
0000
0000
1001
0000
0000
0010
0100
0010
,  // measure 16
0001
0100
0001
0001
0000
0011
0000
0000
,  // measure 17
1000
0100
1000
0100
0010
0001
0010
0100
1000
0000
0001
0000
1000
0000
0000
0000
,  // measure 18
0001
0000
0100
0000
0010
0000
1010
0000
0000
0000
1100
0000
0001
0010
0001
0000
,  // measure 19
0010
0000
0100
0000
0010
0000
1100
0000
0000
0000
1100
0000
0000
0001
0010
0001
,  // measure 20
1000
0100
0001
0010
0000
1000
1000
0000
,  // measure 21
0001
0011
0000
0010
0110
0000
1010
0000
,  // measure 22
0000
0001
1000
0001
1000
0001
0100
0000
,  // measure 23
0010
0000
0000
0002
0000
0000
1000
0000
1000
0000
0000
0010
0000
0000
0100
0000
,  // measure 24
0103
0000
0001
0010
1000
0010
1000
0000
,  // measure 25
0001
0000
0000
2000
0000
0000
0001
0000
0001
0000
0000
0010
0000
0000
0100
0000
,  // measure 26
0100
0001
3001
0001
1000
0000
0110
0000
,  // measure 27
0010
0000
0000
2000
0000
0000
0001
0000
0001
0000
0000
0001
0000
0000
0100
0000
,  // measure 28
3100
0000
0001
0010
0001
0010
1000
0001
,  // measure 29
2000
0010
0010
3010
,  // measure 30
0001
0000
0000
0000
0100
0010
0000
0100
0010
0000
0000
0000
0011
0000
0000
0000
,  // measure 31
0002
0010
0000
2003
0100
0000
3020
0001
,  // measure 32
0030
0100
0010
0000
0001
1000
0001
1000
,  // measure 33
2000
0100
0000
3020
0001
0030
0200
0010
,  // measure 34
0000
0302
0100
0003
1000
0001
1000
0010
,  // measure 35
0001
0100
0001
0000
0000
0000
1000
0100
1000
0100
0000
0000
0100
0010
0100
0010
,  // measure 36
0000
0000
0001
0010
0001
0010
0000
0000
1000
0100
1000
0100
0000
0000
0001
0000
,  // measure 37
1000
0000
0100
1000
0010
1000
0100
1000
0010
1000
0100
0001
0010
0001
0100
0010
,  // measure 38
0100
0001
0001
0010
0010
1000
1000
0100
,  // measure 39
0000
1000
1000
0000
0001
0001
0001
0000
,  // measure 40
1000
0000
0010
0000
0100
0000
1001
0000
0000
0000
1001
0000
0000
0010
0100
0010
,  // measure 41
0001
0000
0010
0000
0001
0000
1010
0000
0000
0000
1010
0000
0000
0000
0010
0001
,  // measure 42
0010
0000
0100
0000
0001
0000
1001
0000
0000
0000
0101
0000
0000
0000
0000
1000
,  // measure 43
0010
1000
0001
0100
0001
1000
0010
1000
0001
0000
0000
0000
1000
0000
0000
0000
,  // measure 44
0001
0000
1000
0000
0001
0000
1000
0000
0000
0000
0110
0000
0000
0001
0010
0001
,  // measure 45
1000
0001
1000
1001
0000
0011
0000
0000
,  // measure 46
0100
0010
1000
0100
0000
1100
0001
0001
,  // measure 47
0100
1000
0100
0010
0100
1000
0100
0000
,  // measure 48
0001
0000
1000
0000
0001
0000
1100
0000
0000
0000
0011
0000
0100
0010
0100
0000
,  // measure 49
1000
0000
0010
0000
1000
0000
0110
0000
0000
0000
1100
0000
0001
0010
0001
0000
,  // measure 50
1000
0010
0100
0110
0000
1100
0000
0000
,  // measure 51
0001
1000
0001
1000
0001
1000
0001
0000
0100
0000
0000
0000
0010
0000
0000
0000
,  // measure 52
0001
0000
1000
0000
0100
0000
1001
0000
0000
0000
0011
0000
0000
0010
0100
0010
,  // measure 53
1000
0010
1000
0101
0000
1100
0000
0000
,  // measure 54
0010
0100
0010
1001
0000
0011
0100
0000
,  // measure 55
1010
0010
0010
0100
0100
0100
0110
0000
,  // measure 56
0101
0001
0001
1000
1000
1000
1100
0100
,  // measure 57
0001
0010
0001
1000
1000
0100
0010
0000
,  // measure 58
0001
0000
0001
0000
1000
0000
1000
0000
0000
0000
0010
0000
0100
0010
0100
0000
,  // measure 59
0001
1000
0001
2001
0000
3010
0000
0000
,  // measure 60
0001
0100
0001
2001
0000
3010
0000
0000
,  // measure 61
1000
0100
0001
0120
0000
1030
0000
0000
,  // measure 62
0001
1000
0100
1000
0001
1000
0100
1000
0001
0000
0000
0000
1000
0000
0000
0000
,  // measure 63
0001
0000
0100
0000
0010
0000
2001
0000
0000
0000
3010
0000
0000
0100
0010
0100
,  // measure 64
0001
0000
0100
0000
0001
0000
2001
0000
0000
0000
3001
0000
0010
0100
0010
0000
,  // measure 65
1000
0010
0100
0011
0000
1010
1000
0001
,  // measure 66
1000
0100
0010
0001
1000
0010
0010
0000
,  // measure 67
1000
0000
0010
0000
1000
0000
0102
0000
0000
0000
0103
0000
0010
0100
0010
0000
,  // measure 68
0100
0000
0001
0000
0100
0000
2001
0000
0000
0000
3001
0000
1000
0001
1000
0000
,  // measure 69
0001
0000
1000
0000
0001
0000
1200
0000
0000
0000
1300
0000
0000
0000
0000
0001
,  // measure 70
0010
0001
1000
0010
1000
0010
0100
0001
0100
0000
0000
0000
0010
0000
0000
0000
,  // measure 71
0100
0000
1000
0000
0100
0000
0110
0000
0000
0000
1100
0000
1000
0010
1000
0000
,  // measure 72
0010
0000
0001
0000
0010
0000
0101
0000
0000
0000
0011
0000
0010
1000
0010
0000
,  // measure 73
1000
0010
0100
1010
0000
1001
0001
0100
,  // measure 74
0101
0001
1010
1100
,  // measure 75
0011
0101
1010
1100
,  // measure 76
1001
0110
0101
1010
,  // measure 77
0001
1000
0001
0000
0100
0010
0100
0000
,  // measure 78
1000
0001
0100
0001
1000
0001
0100
0001
1000
0001
0100
0001
1000
0000
0000
0000
,  // measure 79
2000
0000
0000
0000
0000
3000
0001
2002
,  // measure 80
0000
0000
0000
0000
0000
0000
0000
3003
;
