#TITLE:DEADLOCK XXX;
#SUBTITLE:;
#ARTIST:BlackY;
#TITLETRANSLIT:;
#SUBTITLETRANSLIT:;
#ARTISTTRANSLIT:;
#GENRE:;
#CREDIT:;
#BANNER:[Round 7] - DEADLOCK XXX.png;
#BACKGROUND:[Round 7] - DEADLOCK XXX-bg.png;
#LYRICSPATH:;
#CDTITLE:cdtitle.png;
#MUSIC:[Round 7] - DEADLOCK XXX.mp3;
#OFFSET:-0.223000;
#SAMPLESTART:29.386999;
#SAMPLELENGTH:17.297001;
#SELECTABLE:YES;
#BPMS:0.000000=222.000000
,103.750000=444.000000
,199.000000=222.000000
,200.000000=444.000000
,214.000000=222.000000
,215.000000=444.000000
,231.000000=111.000000
,247.000000=222.000000
,279.000000=111.000000
,280.000000=444.000000
,337.000000=222.000000
,340.000000=444.000000
,354.000000=222.000000
,356.000000=444.000000
,364.000000=222.000000
,366.000000=444.000000
,466.000000=111.000000
;
#STOPS:103.750000=0.980000,
280.000000=0.405000
;
#BGCHANGES:;
#KEYSOUNDS:;
#ATTACKS:;

//---------------dance-single - ----------------
#NOTES:
     dance-single:
     :
     Challenge:
     13:
     1.000000,1.000000,0.427088,0.072917,0.677090,753.000000,41.000000,7.000000,69.000000,0.000000,0.000000,1.000000,1.000000,0.427088,0.072917,0.677090,753.000000,41.000000,7.000000,69.000000,0.000000,0.000000:
0000
0000
0000
0000
,
0000
0000
0000
0000
,
0001
1000
0000
1010
0000
1000
0001
0000
,
1000
0001
0000
0011
0000
0001
1000
0001
,
0100
0010
0000
1010
0000
0010
0100
0000
,
0001
0000
0000
0011
0000
0000
0000
0000
0000
0001
0000
0000
1000
0000
0001
0000
1000
0000
0001
0000
1000
0000
0100
0000
,
0010
0100
0000
1100
0000
0100
0010
0000
,
0001
0000
0000
0000
0100
0000
0110
0000
0000
0000
0010
0100
0010
0100
0010
0100
,
0001
0000
1100
0000
0001
0010
0001
1000
,
0100
0000
1100
0000
0000
0000
1000
0000
0001
0100
0001
0100
0001
0100
0001
0100
,
0010
1000
0000
0101
01M0
1000
0100
0001
,
0010
0100
1000
1010
0M00
0010
0001
0010
,
1000
0100
0000
0110
001M
1000
0010
0001
,
0100
0000
0110
0000
0000
0000
0001
0000
M100
0000
0010
0000
1000
0000
0100
0010
,
0100
0010
0000
0011
0M10
0001
0100
1000
,
0100
0010
0100
0010
0100
0000
0101
0000
M000
0000
0010
1000
0010
1000
0010
1000
,
0001
0000
1010
0000
00M1
0100
1000
0001
,
0010
0000
0110
0000
0000
0000
0010
0000
1M00
0000
0001
1000
0100
0010
0100
0010
,
0100
0010
0000
0011
M001
0010
1000
0010
,
0001
0100
0010
1010
000M
0010
1000
0100
,
0001
0100
0000
1100
10M0
0100
0001
0100
,
0010
0000
0000
0011
0000
0000
0000
0000
0000
0001
0000
0000
M100
0000
0001
0000
0100
0000
0010
0000
1000
0000
0010
0000
,
0100
0001
0000
0011
0M01
1000
0100
0001
,
0100
0010
0100
0010
0100
0000
1100
0000
000M
0000
0010
0001
0010
0001
0010
0001
,
1000
0000
0101
0000
1M00
0010
M001
0010
,
010M
0000
1000
0000
01M0
0000
0001
0000
M010
0100
001M
0100
1000
0001
0010
M100
,
0000
1000
0100
0001
,
0100
1000
0100
0000
0010
0001
0010
0000
,
0001
1000
0010
0001
,
0010
0100
0010
0100
0001
1000
0001
0000
,
1000
0100
0010
0000
0100
0000
0001
0000
,
0100
0010
0100
0000
1000
0100
1000
0000
,
0001
0100
1000
0100
,
0001
0000
1000
0100
0010
0100
1000
0001
,
1000
0001
0100
0000
1000
0000
0100
0000
,
0001
0100
0001
0000
0010
0100
0010
0000
,
0100
1000
0001
0000
0010
0000
1000
0000
,
0010
0100
0010
0100
1000
0001
1000
0001
,
0100
0010
1000
0000
0010
0000
0001
0000
,
0010
0100
0010
0000
1000
0010
1000
0000
,
0010
0100
0100
0010
,
0010
0000
1000
0100
0010
0001
2M00
00M0
,
0M00
00M0
3001
0000
0010
0000
1000
0000
,
0010
0100
0010
0000
0001
1000
0001
0000
,
0100
1000
0100
0010
,
1000
0010
1000
0010
0100
0001
0100
0000
,
0001
0010
0100
0000
0001
0000
0100
0000
,
1000
0010
1000
0000
0001
0010
0001
0000
,
0100
1000
0001
0010
,
1000
0010
0100
0010
1000
0001
1000
0MM0
,
1001
0000
1000
0000
0010
0000
1000
0100
,
1000
0000
0001
0010
0001
0000
0100
0010
,
1000
0000
0010
0000
0001
0000
0010
1000
,
0010
1000
0001
0100
M0M1
0000
1001
0000
,
0010
0001
0100
1001
,
0010
0000
1000
0000
0001
0000
1000
0100
,
1000
0100
0010
0001
0010
0001
1000
0100
,
0010
0001
1000
0010
0100
0001
2MM0
0010
,
0001
0001
0001
0000
3010
1000
0000
1100
0000
1000
0100
0010
0002
0010
0000
1000
,
0000
0000
0000
0010
0000
0000
0013
0000
0000
0001
0000
0000
2000
0000
0000
0010
0000
0000
0000
0000
0000
3010
0000
0000
1000
0000
0100
0000
1000
0000
0001
0000
0100
0000
0001
0000
0020
0000
0000
0001
0000
0000
0000
0000
0000
0100
0000
0000
,
0000
0000
0001
0000
0031
0000
0010
0000
0100
0000
0001
0000
0100
0000
1100
0000
0000
0000
1000
0001
1000
0001
1000
0001
0200
0000
0000
0000
0010
0000
0000
0000
,
0010
0000
0010
0000
0310
0000
0100
0000
0002
0000
1000
0000
0000
0000
1003
0000
0001
0000
1000
0100
1000
0100
1000
0100
1000
0000
0000
0000
0001
0000
0010
0000
,
0001
0000
0100
0000
0010
0000
1000
0100
1000
0000
0010
0000
0100
0000
0001
0010
,
0001
0000
0100
0000
0010
0000
1000
0100
1000
0000
0010
0000
0100
0000
0010
1000
,
0010
0000
0001
0000
1000
0000
0100
0001
0100
0000
1000
0000
0001
0000
0010
1000
,
0010
0000
0001
0000
1000
0000
0100
0001
0100
0000
0010
0000
1010
0000
0100
0000
,
0001
0100
1000
0100
0001
0010
0011
0100
,
1000
0000
0000
0100
0000
0000
0001
0000
0000
0100
0000
0000
0010
0000
0000
0001
0000
0000
10M0
0000
0100
0000
0010
0000
,
0001
0100
0010
100M
0100
0001
0100
0010
0001
1M00
0010
0001
,
1000
0000
0000
0000
0100
0000
0000
0000
0001
0000
0000
0000
M010
0000
0000
0001
0000
0000
0010
0000
0000
0001
0000
0000
1000
0000
0000
0001
0000
0000
0100
0000
0000
0010
0000
0000
0100
0000
0000
0000
0000
0000
0000
0000
0000
0000
0000
0000
,
M11M
0MM0
0001
0000
1000
0100
0010
0000
,
0100
0000
0001
0000
0100
0010
0001
0000
,
1000
0000
0010
0000
0001
0000
0010
0100
,
0001
0000
1000
0100
1000
0100
0010
0001
,
0010
0001
1000
0000
0100
0010
0001
0000
,
0100
0000
1000
0000
0100
0010
1000
0000
,
0001
0000
0000
1000
0000
0010
0000
0100
0000
0001
0000
0010
,
0000
0100
0000
0001
0000
0100
0000
1000
0000
0010
0000
0001
,
0000
0000
0010
0000
0000
0000
1000
0000
0000
0000
0000
0000
0010
0000
0000
0100
0000
0000
0001
0000
0000
0000
0000
0000
,
0010
0000
1000
0000
0010
0100
1000
0000
,
0100
0000
0001
0000
0100
0000
0010
0100
,
1000
0000
0001
0100
0001
0100
0010
1000
,
0010
1000
0001
0000
1000
0010
0100
0000
,
1000
0000
0100
0000
0001
0000
0010
0100
,
1000
0000
0000
0000
00M1
0000
1000
0100
0000
0100
1000
0000
0001
0000
1000
0100
,
M010
0001
0010
0100
1000
0000
0001
0100
,
0010
0000
1000
0000
0100
0010
0001
0000
,
0100
1000
0001
0010
,
0100
0000
0010
0000
1000
0000
0000
0000
M001
0100
0001
0100
0010
1000
0010
1000
,
0M01
0000
1000
0001
0100
0000
0010
0000
,
0001
0000
1000
0000
0100
0001
1000
0000
,
110M
0000
1000
0100
0000
1000
0001
1000
0M01
0000
1000
0000
0001
0000
1000
0000
,
0100
0000
0000
0010
0000
0000
0001
0000
0000
1000
0000
0000
00M1
0000
0000
0000
0100
0000
0000
0000
1000
0000
0000
0000
,
0100
0000
0010
0000
1000
0000
01M0
0000
0001
0000
0100
0000
,
0010
0000
0001
0000
1000
0000
0M01
0000
0010
0000
1000
0000
,
0010
0000
0001
0000
0100
0000
M010
0000
0001
0000
0010
0000
,
1000
0000
0001
0000
1000
0000
1001
0000
0000
0010
0000
0000
,
0001
0100
1001
0010
,
1000
0100
1001
0100
,
0001
0000
0010
0000
0001
0010
0100
1000
,
0001
0100
0010
1000
0001
0000
0010
0000
,
1000
0010
0011
00MM
,
0001
0100
1000
0100
,
0001
0000
1010
M0M0
,
1010
M0M0
1000
0010
,
0001
0010
1010
M0M0
,
1000
0100
0001
0100
,
1000
0100
0001
0100
,
1000
0100
0010
0001
,
0100
0001
0011
00MM
,
0100
1000
0010
1000
,
0100
0000
1001
M00M
,
0001
0010
0100
1000
0001
0100
0001
0000
,
1000
0010
1000
0000
0001
0010
0001
0000
,
1000
0000
0000
0100
0000
0000
1000
0000
0000
0000
0000
0000
0100
0000
0000
0000
1000
0000
0000
0000
0010
0000
0000
0000
,
0100
0000
0000
0000
0001
0000
0000
0000
0010
0000
0000
0000
0001
0000
0000
1000
0000
0000
0001
0000
0000
1000
0000
0000
,
0010
0100
0001
1000
0100
M00M
0MM0
0MM0
,
M00M
0000
0000
0000
;

//---------------dance-single - ----------------
#NOTES:
     dance-single:
     :
     Hard:
     12:
     1.000000,1.000000,0.177085,0.156252,0.651048,708.000000,17.000000,15.000000,30.000000,0.000000,0.000000,1.000000,1.000000,0.177085,0.156252,0.651048,708.000000,17.000000,15.000000,30.000000,0.000000,0.000000:
0000
0000
0000
0000
,
0000
0000
0000
0000
,
0001
0100
0000
0020
0000
0130
0001
0000
,
1000
0100
0000
0020
0000
0130
1000
0001
,
0100
0010
0000
2000
0000
3010
0100
0000
,
0001
0000
0000
0020
0000
0000
0000
0000
0000
0031
0000
0000
1000
0000
0001
0000
1000
0000
0001
0000
1000
0000
0001
0000
,
0010
0100
0000
2000
0000
3100
0010
0000
,
0001
0000
0000
0000
0100
0000
0020
0000
0000
0000
0130
0010
0100
0010
0100
0010
,
0200
0300
0200
0300
0001
0010
0001
1000
,
0100
0000
0020
0000
0000
0000
0130
0000
1000
0100
1000
0100
1000
0100
1000
0100
,
1000
0001
0000
0001
0100
0010
1000
0001
,
0010
0100
1000
0010
0000
0100
0010
1000
,
0100
0010
0000
0100
0010
0001
0100
0010
,
1000
0000
0001
0000
0000
0000
1000
0000
0001
0000
0100
0000
0010
0000
1000
0010
,
1000
0010
0000
0100
0001
0010
0100
1000
,
0200
0000
0000
0000
0310
0000
0001
0000
0000
0000
0100
0010
0100
0010
0100
0010
,
0100
0000
0100
0000
0001
0100
0010
1000
,
0100
0000
0010
0000
0000
0000
0100
0000
1000
0000
0001
1000
0001
0000
0100
0001
,
0100
0010
0000
1000
0010
0100
0001
0010
,
0001
0100
0010
1000
0000
0010
1000
0100
,
0010
0100
0000
0010
0001
0100
0010
1000
,
0001
0000
0000
0010
0000
0000
0000
0000
0000
0001
0000
0000
1000
0000
0010
0000
1000
0000
0010
0000
1000
0000
0010
0000
,
0100
0010
0000
1000
0001
1000
0100
0010
,
0002
0000
0000
0000
0103
0000
0010
0000
0000
0000
0100
0010
0100
0010
0100
0010
,
0100
0000
0100
0000
0001
0010
0001
0100
,
1000
0000
0100
0000
0001
0000
0010
0000
0100
1000
0100
1000
0100
1000
0100
10MM
,
0000
1000
0100
0001
,
0100
1000
0010
0001
,
0010
1000
0100
0010
,
0001
0100
1000
0100
,
0001
1000
0001
0000
0100
0000
0010
0000
,
1000
0100
0001
0100
,
1000
0010
0001
0010
,
1000
0000
0100
0010
0100
0010
0100
0000
,
1000
0001
1000
0000
0001
0000
0100
0000
,
1000
0100
0010
1000
,
0100
0010
0100
0000
0010
0000
1000
0000
,
0010
0000
0001
0000
1000
0000
0001
1000
,
0001
1000
0001
0000
0100
0000
1000
0000
,
0100
0001
0010
1000
,
0010
0001
0001
1000
,
1000
0000
0001
1000
0001
2000
0M02
00M0
,
3M03
0001
0010
1000
,
0010
0001
1000
0100
,
0001
0100
1000
0010
,
0001
0010
1000
0100
,
0010
0100
1000
0000
0010
0000
0001
0000
,
0010
0100
0010
1000
,
0100
0010
1000
0010
,
0001
0000
1000
0000
0001
1000
0MM2
0000
,
1003
0001
0010
0001
,
0100
1000
0100
0001
,
0010
1000
0010
0100
,
0010
0001
2MM0
3001
,
0010
1000
0010
0001
,
0100
0000
1000
0000
0100
0000
0001
0100
,
0001
0000
1000
0010
1000
0000
0001
1000
,
0001
1000
0001
1000
0001
0000
1MM1
0001
,
1000
0010
1000
0000
0010
1000
0000
1001
0000
1000
0100
0010
0001
0010
0000
0011
,
0000
0000
0000
0001
0000
0000
0010
0000
0000
0001
0000
0000
1000
0000
0000
1010
0000
0000
0000
0000
0000
0010
0000
0000
1000
0000
0001
0000
1000
0000
0001
0000
1000
0000
0001
0000
0010
0000
0000
0001
0000
0000
0000
0000
0000
0101
0000
0000
,
0000
0000
0001
0000
0100
0000
0010
0000
0100
0000
0001
0000
1000
0000
1100
0000
0000
0000
1000
0001
1000
0001
1000
0001
1000
0000
0000
0000
1001
0000
0000
0000
,
1000
0000
0100
0000
0010
0000
0100
0000
0010
0000
0011
0000
0000
0000
0010
0000
0100
0000
1000
0001
1000
0001
1000
0001
1000
0000
0000
0000
0001
0000
0010
0000
,
0001
0000
0100
0000
0010
0000
1000
0100
1000
0000
0010
0000
0100
0000
0001
0010
,
0001
0000
0100
0000
0010
0000
1000
0100
1000
0000
0010
0000
0100
0000
0001
1000
,
0001
0000
0010
0000
1000
0000
0010
0100
0010
0000
0001
0000
0100
0000
0001
1000
,
0001
0000
0010
0000
1000
0000
0010
0100
0010
0000
0001
0000
1001
0000
1000
0000
,
0010
0010
0100
0100
0001
0010
0011
0001
,
0100
0000
0000
0100
0000
0000
0010
0000
0000
0010
0000
0000
1000
0000
0000
0001
0000
0000
1000
0000
0100
0000
1000
0000
,
0001
0100
0001
1000
0010
1000
0001
0010
0001
1000
0100
0010
,
0001
0000
0000
0000
0100
0000
0000
0000
0010
0000
0000
0000
1000
0000
0000
0001
0000
0000
1000
0000
0000
0001
0000
0000
1000
0000
0000
0001
0000
0000
1000
0000
0000
0001
0000
0000
0010
0000
0000
0000
0000
0000
0000
0000
0000
0000
0000
0000
,
M11M
0MM0
0001
0000
1000
0001
1000
0000
,
0001
0000
0010
0000
0100
0010
0100
0000
,
0010
0000
0001
0000
0100
0000
0010
0100
,
0010
0000
1000
0010
1000
0001
1000
0001
,
1000
0010
1000
0000
0100
0010
0100
0000
,
1000
0000
0010
0000
0100
0001
0100
0000
,
0001
0000
0000
1000
0000
0010
0000
1000
0000
0001
0000
0100
,
0000
0001
0000
1000
0000
0100
0000
1000
0000
0001
0000
0010
,
0000
0000
0001
0000
0000
0000
1000
0000
0000
0000
0000
0000
0010
0000
0000
0100
0000
0000
0010
0000
0000
0000
0000
0000
,
1000
0000
0001
0000
0010
0100
0010
0000
,
0001
0000
1000
0000
0100
0000
1000
0001
,
1000
0000
0001
0100
0001
1000
0001
1000
,
0001
0100
0001
0000
1000
0010
1000
0000
,
0100
0000
0010
0000
0001
0000
0100
0001
,
0100
0000
0000
0000
00M1
0000
1000
0001
0000
1000
0001
0000
0100
0000
0001
0010
,
M001
0010
0001
0010
0001
0000
1000
0100
,
1000
0000
0010
0000
0100
0010
0100
0000
,
1000
0100
0001
0010
,
0100
0000
0010
0000
0100
0000
0000
0000
10M0
0001
1000
0001
1000
0001
1000
0001
,
10M0
0000
0100
1000
0100
0000
0001
0000
,
1000
0000
0010
0000
0001
1000
0001
0000
,
1M00
0000
0010
1000
0000
1000
0001
0010
MM01
0000
0010
0000
0001
0000
0010
0000
,
0001
0000
0000
0010
0000
0000
0001
0000
0000
0010
0000
0000
0001
0000
0000
0000
0010
0000
0000
0000
0100
0000
0000
0000
,
1000
0000
0100
0000
0010
0000
0001
0000
0100
0000
0010
0000
,
1000
0000
0010
0000
0100
0000
0001
0000
0010
0000
0100
0000
,
1000
0000
0010
0000
0100
0000
0001
0000
1000
0000
0100
0000
,
0010
0000
0001
0000
0100
0000
0010
0000
0000
0100
0000
0000
,
0001
0100
1000
0100
,
0001
0010
0100
1000
,
0010
0000
1000
0000
0001
0010
0001
0010
,
0100
1000
0100
1000
0001
0000
0010
0000
,
0001
0100
1010
0000
,
1000
0010
1000
0100
,
0010
0000
0011
0000
,
0011
0000
1000
0100
,
1000
0010
0101
0000
,
0001
0010
0001
0100
,
1000
0100
0001
0010
,
0001
0100
0010
1000
,
0100
1000
0011
0000
,
0100
1000
0010
0100
,
0001
0000
0011
0000
,
0001
0000
0010
0000
0100
1000
0100
0000
,
1000
0001
1000
0000
0001
0100
0001
0000
,
1000
0000
0000
0001
0000
0000
1000
0000
0000
0000
0000
0000
0010
0000
0000
0000
0100
0000
0000
0000
0010
0000
0000
0000
,
0100
0000
0010
0000
0100
0000
0001
0000
0000
0000
0000
0000
,
1000
0001
1000
0010
0100
M00M
0MM0
0MM0
,
M00M
0000
0000
0000
;

//---------------dance-single - ----------------
#NOTES:
     dance-single:
     :
     Medium:
     10:
     0.879473,1.000000,0.333337,0.229169,0.223961,537.000000,32.000000,22.000000,22.000000,0.000000,0.000000,0.879473,1.000000,0.333337,0.229169,0.223961,537.000000,32.000000,22.000000,22.000000,0.000000,0.000000:
0000
0000
0000
0000
,
0000
0000
0000
0000
,
1000
0100
0000
0020
0000
0130
1000
0000
,
0001
0100
0000
0020
0000
0130
0001
1000
,
0100
0010
0000
0002
0000
0013
0100
0000
,
1000
0000
0000
0020
0000
0000
0000
0000
0000
1030
0000
0000
0001
0000
1000
0000
0001
0000
1000
0000
0001
0000
1000
0000
,
0001
0010
0000
0002
0000
0013
0100
0000
,
1000
0000
0010
0200
0000
0301
1000
0001
,
0101
0000
1010
0000
1000
0010
0100
0001
,
0010
0200
0000
0310
0001
0100
0010
1000
,
1001
0001
0000
0010
0000
0001
0100
0000
,
0010
1000
0100
0010
0000
0100
1000
0010
,
0100
0001
0000
0010
0000
0001
0100
0000
,
0010
0000
0000
1000
0000
0000
0000
0000
0000
0001
0000
0000
0100
0000
0010
0000
0100
0000
0010
0000
0100
0000
0010
0000
,
0100
0001
0000
0010
0000
0001
0100
0000
,
0010
1000
0001
0010
0000
0001
0100
0010
,
1010
0000
0101
0000
0100
0001
0010
0001
,
1000
0010
0000
0100
1000
0100
0001
0010
,
0100
1000
0000
0010
0000
1000
0100
0000
,
0010
0001
0100
0010
0000
0100
0001
0010
,
0100
1000
0000
0010
0000
1000
0100
0000
,
0010
0000
0000
0001
0000
0000
0000
0000
0000
1000
0000
0000
0010
0000
0100
0000
0010
0000
0100
0000
0010
0000
0100
0000
,
0010
1000
0000
0001
0000
1000
0100
0000
,
1000
0000
0010
0100
0000
0001
0010
0100
,
1100
0000
0011
0000
0001
0010
0001
0100
,
0010
0000
1000
0000
0100
0000
0010
0000
0100
0000
0001
0000
0100
0000
1000
00MM
,
0000
1000
0100
0010
,
0100
1000
0001
1000
,
0010
1000
0001
0010
,
0001
1000
0001
0100
,
0001
1000
0100
0010
,
0100
0001
0100
0010
,
0100
1000
0010
0100
,
0010
0001
0010
2000
,
0000
3001
0100
0001
,
1000
0001
0010
0001
,
1000
0010
1000
0001
,
1000
0100
1000
0010
,
1000
0001
0010
0100
,
0010
0001
0010
1000
,
0010
0001
0100
0010
,
1000
0001
2000
0002
,
3003
1000
0001
0010
,
0001
0100
0001
0010
,
0001
1000
0010
1000
,
0100
1000
0010
1000
,
0001
1000
0010
0001
,
0010
1000
0100
0001
,
0100
1000
0010
0100
,
0001
1000
0100
2000
,
3001
0100
0010
0100
,
0001
0010
0100
0010
,
0001
0100
1000
0100
,
0001
0000
0010
0000
0200
0300
1001
0000
,
0001
0100
0000
1001
,
1000
0010
0000
1000
,
0100
0010
0001
0100
,
1000
0100
0001
2MM1
,
0100
0000
0000
0000
0001
0000
0000
0010
0000
0000
3001
0000
1002
0000
0000
0010
,
0000
0000
1003
0000
0020
1000
0000
1030
0010
0000
0110
0000
2001
0000
0000
0010
,
0000
0000
0001
0000
0100
0000
0000
0001
0000
0000
3010
0000
1020
0000
1000
0000
,
0100
0000
0130
0000
0102
0000
1000
0000
0013
0001
0010
0100
100M
0000
0100
0000
,
0010
0100
1000
0100
0010
0100
1000
0001
,
0100
0001
1000
0001
0100
0001
0010
1000
,
0010
0001
0010
1000
0010
0001
0100
1000
,
0100
0001
0100
1000
0100
0001
0100
0010
,
1000
0100
0010
0100
1000
0010
0100
0001
,
0010
0000
0000
0100
0000
0000
0010
0000
0000
0001
0000
0000
0100
0000
0000
0010
0000
0000
1000
0000
0001
0000
1000
0000
,
0001
1000
0001
0100
0010
0100
0010
0100
0010
1000
0001
1000
,
0001
1000
0001
2000
0000
0000
3002
0000
0000
0M13
0000
0000
,
0110
0MM0
0001
0000
1000
0000
0001
0000
,
0010
0001
0100
0010
,
1000
0001
0010
0000
,
0100
1000
0010
0001
,
0010
1000
0100
1000
,
0010
0100
0001
1000
,
0100
0011
0000
0101
,
0000
1010
0000
1100
,
0000
1000
0010
0100
,
0010
1000
0001
0010
,
0100
1000
0010
0000
,
0100
0001
0010
1000
,
0010
0001
0100
0010
,
1000
0001
0010
0001
,
0100
0000
0000
0000
M01M
0000
0000
0100
0000
0000
0010
0000
1000
0000
0000
0000
,
0MM1
1000
0001
0010
,
0100
1000
0010
0100
,
0001
0010
0001
0100
,
0010
1000
0002
0000
,
1003
0100
0010
0001
,
0100
1000
0100
0001
,
M010
0000
0000
0100
0000
0000
0010
0000
M001
0000
0000
0000
0100
0000
0000
0000
,
1000
0000
0000
0100
0000
0000
0101
0000
0000
0000
0001
0000
,
0000
0000
0100
0000
0000
0000
1010
0000
0000
0000
1000
0000
,
0000
0000
0100
0000
0000
0000
0011
0000
0000
0000
0010
0000
,
0000
0000
0100
0000
0000
0000
1100
0000
0000
0000
1000
0000
,
0000
0000
0001
0000
0000
0000
0101
0000
0000
0100
0000
0000
,
0001
0100
0001
1000
,
0001
1000
0001
0010
,
0001
0010
0100
1000
,
0010
0100
0001
1000
,
0001
0000
1001
0000
,
1000
0010
1000
0001
,
1000
0000
1001
0000
,
1001
0000
1000
0100
,
1000
0000
0011
0000
,
0001
0100
0001
0100
,
0010
1000
0001
0100
,
0001
1000
0001
0010
,
0001
0000
0011
0000
,
0100
1000
0100
1000
,
0010
0000
1010
0000
,
1000
0001
1000
0100
,
0001
0100
1000
0100
,
0001
0100
1000
0100
,
0010
0001
0200
0000
,
0301
0000
1000
0000
0110
M00M
0MM0
0MM0
,
M00M
0000
0000
0000
;

//---------------dance-single - ----------------
#NOTES:
     dance-single:
     :
     Easy:
     8:
     0.641376,0.975010,0.333337,0.125001,0.005208,387.000000,32.000000,12.000000,17.000000,0.000000,0.000000,0.641376,0.975010,0.333337,0.125001,0.005208,387.000000,32.000000,12.000000,17.000000,0.000000,0.000000:
0000
0000
0000
0000
,
0000
0000
0000
0000
,
1000
0000
0000
0001
0000
0000
1000
0000
,
0100
0000
0000
0010
0000
0000
0100
0000
,
1000
0000
0000
0001
0000
0000
0100
0000
,
0010
0000
0100
0100
,
0001
0000
0000
1000
0000
0000
0001
0000
,
0010
0000
0000
0100
0000
0000
0010
0000
,
0001
0001
1000
0001
,
0100
0010
0000
0000
0010
0000
1000
0000
,
1001
0000
0000
0001
0000
1000
0100
0000
,
1000
0000
0001
0100
0000
0000
0010
0000
,
1000
0000
0000
0001
0000
0010
0001
0000
,
0100
0010
0000
0100
0001
0000
1000
0000
,
0100
0000
0000
0010
0000
0001
0100
0000
,
0001
0000
1000
0010
0000
0000
0100
0001
,
1000
0000
1000
0000
0001
1000
0001
0000
,
1000
0100
0000
0000
0010
0001
0100
0000
,
0010
0000
0000
1000
0000
0001
0100
0000
,
0001
0000
1000
0100
0000
0000
0010
0000
,
0001
0000
0000
0010
0000
0100
1000
0000
,
0001
0100
0000
0010
1000
0000
0001
0000
,
0010
0000
0000
0100
0000
0010
0001
0000
,
0100
0000
0010
1000
0000
0000
0001
1000
,
0100
0000
0100
0000
0010
0001
0100
0000
,
0010
0000
1000
0000
0000
0000
0001
0000
1000
0000
0100
0000
0010
0000
0001
MM00
,
0000
0001
0100
0001
,
0000
1000
0100
1000
,
0000
0001
0010
0001
,
0000
1000
0010
1000
,
0000
0010
0100
0010
,
0000
1000
0001
1000
,
0000
0100
0010
0100
,
0000
1000
0001
2000
,
0000
3001
0100
0001
,
0000
1000
0100
1000
,
0000
0001
0010
0001
,
0000
1000
0010
1000
,
0000
0001
0010
0001
,
0000
0010
0100
1000
,
0000
0001
0100
0001
,
0100
0010
1000
0002
,
0000
1003
0100
1000
,
0000
0001
0100
0001
,
0000
1000
0010
1000
,
0000
0001
0010
0001
,
0000
0100
0010
1000
,
0000
0010
0100
0001
,
0000
1000
0100
0010
,
0000
0001
0010
0200
,
1300
0001
1000
0000
,
0010
0100
0010
0000
,
1000
0001
1000
0000
,
0100
0010
0002
0013
,
0100
1000
0000
0010
,
0100
0001
0000
1000
,
0001
1000
0001
0010
,
0100
0010
0000
2001
,
0100
0000
0001
0000
0010
3001
1002
0000
,
0013
0000
2001
0000
3100
0010
1002
0000
,
0010
1000
0103
0201
,
0310
0000
2100
0000
3001
0001
1000
0100
,
1000
0000
0100
0010
0100
0000
0010
0001
,
0010
0000
0001
1000
0001
0000
0100
0001
,
0100
0000
0010
0100
0010
0000
1000
0010
,
1000
0000
0001
1000
0001
0000
1000
0100
,
0010
0001
0010
0100
1000
0000
0001
0100
,
0010
1000
0010
0100
0001
0000
0010
0100
,
1000
0000
0010
0100
0001
0000
1000
0100
,
0010
0000
0001
0100
0010
0000
1001
0000
,
M110
0001
0000
0001
,
0000
0010
0001
0100
,
0000
0010
1000
0000
,
0001
0010
0100
1000
,
0000
0001
0000
0001
,
0000
0010
0001
0100
,
0000
1010
0000
0101
,
0000
0011
0000
1100
,
0000
1000
0000
1000
,
0000
0010
1000
0100
,
0000
0010
0001
0000
,
1000
0010
0100
0001
,
0000
1000
0000
1000
,
0000
0010
1000
0100
,
0000
001M
0010
0010
,
M010
0001
1000
0000
,
1000
0000
0100
1000
,
0010
0000
0100
0001
,
0000
1000
0200
0000
,
0310
0000
0010
0000
,
0001
0100
0010
0000
,
1MM1
0000
M11M
0000
,
1001
0000
1010
0000
,
0100
0000
0011
0000
,
0100
0000
1010
0000
,
0100
0000
0011
0000
,
0100
0000
1001
0000
,
1000
0010
0100
0000
,
0010
0100
0001
0000
,
0010
0001
0100
0010
,
1000
0100
0010
0000
,
0010
0000
1001
0000
,
0001
1000
0010
0000
,
0010
0000
1001
0000
,
1000
0000
0100
0000
,
0100
0000
1001
0000
,
0001
0100
0010
0000
,
1010
0000
0110
0000
,
0101
0000
0001
0000
,
0001
0000
0011
0000
,
0100
1000
0100
0000
,
1000
0000
1010
0000
,
1000
0100
0010
0000
,
1001
0000
0100
0000
,
1001
0000
1000
0100
,
0010
0001
0200
0000
,
0310
0000
0000
0000
0110
M00M
0MM0
0MM0
,
M00M
0000
0000
0000
;

//---------------dance-single - ----------------
#NOTES:
     dance-single:
     :
     Beginner:
     6:
     0.473219,0.849488,0.375004,0.177085,0.000000,265.000000,36.000000,17.000000,0.000000,0.000000,0.000000,0.473219,0.849488,0.375004,0.177085,0.000000,265.000000,36.000000,17.000000,0.000000,0.000000,0.000000:
// measure 0
0000
0000
0000
0000
,  // measure 1
0000
0000
0000
0000
,  // measure 2
1000
0000
1000
1000
,  // measure 3
0001
0000
0001
0001
,  // measure 4
0100
0000
0100
0100
,  // measure 5
0010
0000
0010
1000
,  // measure 6
0001
0000
0001
0001
,  // measure 7
1000
0000
1000
1000
,  // measure 8
0100
0010
0100
0010
,  // measure 9
0001
0000
0001
1000
,  // measure 10
1001
0000
0001
0100
,  // measure 11
0010
0000
1000
0100
,  // measure 12
0010
0000
0001
0100
,  // measure 13
0010
0000
1000
1000
,  // measure 14
0001
0000
0010
0001
,  // measure 15
0100
0000
0010
1000
,  // measure 16
0001
0100
0001
0100
,  // measure 17
0010
0000
1000
0100
,  // measure 18
0010
0000
0100
1000
,  // measure 19
0010
0000
0100
0001
,  // measure 20
0010
0000
0100
0010
,  // measure 21
0001
0000
0100
0100
,  // measure 22
0010
0000
1000
0001
,  // measure 23
0010
0000
0001
1000
,  // measure 24
0010
0100
0010
0100
,  // measure 25
0001
0000
0000
0000
1000
0000
0000
0000
0100
0000
0000
0000
0020
0000
0000
0030
,  // measure 26
0000
0001
0000
0100
,  // measure 27
0000
0001
0000
1000
,  // measure 28
0000
0010
0000
1000
,  // measure 29
0000
0001
0000
0010
,  // measure 30
0000
0100
0000
0010
,  // measure 31
0000
0001
0000
0100
,  // measure 32
0000
0010
0000
1000
,  // measure 33
0000
0001
0000
2000
,  // measure 34
0000
3001
0000
1000
,  // measure 35
0000
0100
0000
0010
,  // measure 36
0000
0001
0000
1000
,  // measure 37
0000
0001
0000
0100
,  // measure 38
0000
0001
0000
1000
,  // measure 39
0000
0100
0000
0010
,  // measure 40
0000
0001
0000
0001
,  // measure 41
0000
2002
0000
3003
,  // measure 42
0000
1000
0000
0010
,  // measure 43
0000
1000
0000
0001
,  // measure 44
0000
0010
0000
0001
,  // measure 45
0000
0100
0000
0010
,  // measure 46
0000
1000
0000
0001
,  // measure 47
0000
0010
0000
0100
,  // measure 48
0000
1000
0000
0001
,  // measure 49
0000
0100
0000
0002
,  // measure 50
1003
0000
0001
0000
,  // measure 51
0010
0000
0100
0000
,  // measure 52
1000
0000
0001
0000
,  // measure 53
0100
0000
0000
1001
,  // measure 54
0000
1000
0000
1001
,  // measure 55
0000
0001
0000
1000
,  // measure 56
0000
0100
0000
0010
,  // measure 57
0000
0001
0000
2001
,  // measure 58
0100
0001
3100
1002
,  // measure 59
0103
2001
3010
1002
,  // measure 60
0010
1000
0013
2001
,  // measure 61
3010
1002
0103
0001
,  // measure 62
0001
0100
0100
0010
,  // measure 63
0010
1000
1000
0001
,  // measure 64
0001
0010
0010
0100
,  // measure 65
0100
1000
1000
1001
,  // measure 66
0001
0100
0001
1001
,  // measure 67
1000
0100
1000
1001
,  // measure 68
0000
0110
0000
1001
,  // measure 69
0000
0100
0010
1001
,  // measure 70
0110
0001
0000
0001
,  // measure 71
0000
1000
0000
1000
,  // measure 72
0000
0100
0000
0000
,  // measure 73
0000
1001
0000
0110
,  // measure 74
0000
1000
0000
1000
,  // measure 75
0000
0001
0000
0001
,  // measure 76
0000
2000
0000
3200
,  // measure 77
0000
0320
0000
0032
,  // measure 78
0000
1003
0000
1000
,  // measure 79
0000
0001
0000
0001
,  // measure 80
0000
0010
0000
0000
,  // measure 81
0000
0110
0000
1001
,  // measure 82
0000
0001
0000
0001
,  // measure 83
0000
1000
0000
1000
,  // measure 84
0000
0010
0000
0000
,  // measure 85
0110
0000
1001
0000
,  // measure 86
0100
0000
0010
0000
,  // measure 87
0001
0000
0100
0000
,  // measure 88
0000
0000
0110
0000
,  // measure 89
1001
0000
0001
0000
,  // measure 90
0100
0000
0010
0000
,  // measure 91
1000
0000
2002
0000
,  // measure 92
3003
0000
1001
0000
,  // measure 93
1000
0000
1010
0000
,  // measure 94
1000
0000
1001
0000
,  // measure 95
0001
0000
0011
0000
,  // measure 96
0001
0000
0100
0000
,  // measure 97
0100
0000
0001
0000
,  // measure 98
0001
0000
1000
0000
,  // measure 99
1000
0000
0100
0000
,  // measure 100
0100
0000
0010
0000
,  // measure 101
0000
0000
1001
0000
,  // measure 102
0000
0000
0001
0000
,  // measure 103
1000
0000
1001
0000
,  // measure 104
0000
0000
0100
0000
,  // measure 105
0000
0000
1001
0000
,  // measure 106
0000
0000
0001
0000
,  // measure 107
1000
0000
0001
0000
,  // measure 108
0100
0000
0001
0000
,  // measure 109
0000
0000
1001
0000
,  // measure 110
0000
0000
1000
0000
,  // measure 111
0100
0000
0110
0000
,  // measure 112
0000
0000
0001
0000
,  // measure 113
0001
0000
1000
0000
,  // measure 114
1000
0000
0010
0000
,  // measure 115
0100
0000
0001
0000
,  // measure 116
0000
0000
1001
0000
;
