#VERSION:0.81;
#TITLE:Bangin' Burst;
#SUBTITLE:;
#ARTIST:かめりあ;
#TITLETRANSLIT:;
#SUBTITLETRANSLIT:;
#ARTISTTRANSLIT:Camellia;
#GENRE:888. On Steroids.;
#ORIGIN:;
#CREDIT:;
#BANNER:[Round 7] - Bangin' Burst.png;
#BACKGROUND:[Round 7] - Bangin' Burst-bg.png;
#PREVIEWVID:;
#JACKET:[Round 7] - Bangin' Burst-jacket.png;
#CDIMAGE:;
#DISCIMAGE:;
#LYRICSPATH:;
#CDTITLE:;
#MUSIC:[Round 7] - Bangin' Burst.mp3;
#OFFSET:-0.350;
#SAMPLESTART:49.569;
#SAMPLELENGTH:16.410;
#SELECTABLE:YES;
#DISPLAYBPM:*;
#BPMS:0.000=234.000,
32.000=468.000,
156.000=936.000,
164.000=468.000,
176.000=234.000,
178.000=468.000,
190.000=234.000,
192.000=468.000,
224.000=234.000,
284.000=117.000,
286.000=468.000,
598.000=234.000,
602.000=468.000,
662.000=234.000,
664.000=468.000,
676.000=234.000,
678.000=468.000,
706.000=234.000,
708.000=468.000,
724.000=234.000,
756.000=936.000,
780.000=234.000;
#STOPS:;
#DELAYS:;
#WARPS:;
#TIMESIGNATURES:0.000=4=4,
176.000=2=4,
178.000=4=4,
190.000=2=4,
192.000=4=4,
284.000=2=4,
286.000=4=4,
662.000=2=4,
664.000=4=4,
676.000=2=4,
678.000=4=4,
706.000=2=4,
708.000=4=4;
#TICKCOUNTS:0.000=4;
#COMBOS:0.000=1;
#SPEEDS:0.000=1.000=0.000=0;
#SCROLLS:0.000=1.000;
#FAKES:;
#LABELS:0.000=Song Start;
#BGCHANGES:;
#KEYSOUNDS:;
#ATTACKS:
;

//---------------dance-single - ----------------
#NOTEDATA:;
#CHARTNAME:;
#STEPSTYPE:dance-single;
#DESCRIPTION:;
#CHARTSTYLE:;
#DIFFICULTY:Hard;
#METER:10;
#RADARVALUES:1.000,1.000,0.583,0.076,0.093,792.000,69.000,9.000,0.000,0.000,0.000,0.000,0.000,1.000,1.000,0.583,0.076,0.093,792.000,69.000,9.000,0.000,0.000,0.000,0.000,0.000;
#CREDIT:;
#DISPLAYBPM:*;
#NOTES:
0000
0000
0000
0000
,
0000
0000
0000
0000
,
0000
0000
0000
0000
,
0000
0000
0000
0000
,
0101
0000
0000
0000
,
1100
0000
0000
0000
,
0011
0000
1010
0000
,
1001
0000
1000
1001
,
0001
0010
0100
1000
,
0001
0000
0100
0000
0010
0000
1000
0010
,
1000
0000
0001
0000
1000
0001
1000
0000
,
0001
0000
0010
0100
0010
0000
0100
0000
,
1000
0100
1000
0001
,
0100
0010
1000
0001
,
0010
0000
0010
0100
,
0000
0100
1000
0001
,
0100
0010
0100
0010
,
1000
0001
1000
0001
,
0010
0100
1000
0001
,
1000
0010
0100
0001
,
0101
0000
0100
0001
,
1001
0000
0000
0000
1000
0100
1000
0100
,
1000
0000
0000
0000
0010
1000
0010
1000
,
0010
0000
1010
0000
,
1000
0010
0100
0010
,
0001
0010
0100
0010
,
1000
0100
0010
0100
,
0001
0100
0010
0100
,
0110
0000
0000
0000
0011
0000
0000
0000
1001
0000
0000
0000
,
0101
0000
0000
0000
0110
0000
0000
0000
1010
0000
0000
0000
,
1001
0000
0000
0000
1100
0000
0000
0000
0110
0000
0000
0000
,
0011
0000
0001
1000
,
0001
0100
0010
1000
,
0001
0100
0010
1000
,
0001
0010
0100
1000
,
0001
0010
0100
1000
,
0001
0000
1001
0000
,
1000
0001
1001
0000
,
1000
0100
1000
0100
,
0020
0000
0000
0000
,
0000
0000
0000
0000
,
0031
0010
0001
0010
,
0001
1000
0001
1000
,
0010
1000
0010
0100
,
0010
0110
0100
0010
,
0100
0010
0100
0001
,
0100
0001
1000
0001
,
1000
0001
1000
1001
,
0001
0010
0001
0010
,
0001
1000
0001
0000
1000
0001
1000
0000
,
0001
0000
0000
0000
0100
0000
0000
0000
0010
0000
0000
0000
,
1000
0000
1001
0000
,
0001
0010
0100
1000
,
0001
0100
0010
1000
,
0001
0000
0100
0000
,
0010
0000
0110
0000
,
0100
0010
1000
0001
0100
0010
1000
0001
,
0010
0000
0100
0000
1000
0000
0001
0010
0001
0000
0010
0000
0100
0000
1000
0000
,
0001
0100
0010
1000
0001
0100
0010
1000
,
0100
0010
0001
0000
1001
0000
1001
0000
,
1000
0010
0001
0010
1000
0010
1000
0001
,
1000
0000
0100
0000
0001
0000
0100
1000
0100
0000
1000
0000
0001
0000
1000
0000
,
1001
0000
0001
0101
0000
0100
0110
0000
,
0010
1010
0000
1000
1001
0000
0011
0000
,
0110
0000
1100
0000
,
1001
0000
0000
0000
1001
0000
0000
0000
0001
0000
1000
0001
1000
0000
0001
0000
,
0101
0000
0000
0000
0110
0000
0000
1010
,
0000
0000
1001
0000
0000
0000
0001
1000
0001
0000
1000
0000
0001
0000
1000
0000
,
0001
0000
0000
0000
0100
0001
0100
0001
0100
0000
0000
0000
0010
1000
0010
1000
,
0010
0000
1010
0000
1000
0010
0001
0010
,
1000
0000
0000
0000
0100
1000
0100
1000
0100
0000
0000
0000
0010
0001
0010
0001
,
0020
0000
0000
0000
0130
0000
1000
0001
,
0100
0000
0001
0000
0100
0001
1000
0000
,
0100
0010
0001
0001
,
0010
0010
0100
0100
,
1000
0000
1000
0000
0001
0000
0010
0001
,
1000
0000
0010
0000
1000
0001
0010
0000
,
0100
1000
0001
0100
,
1000
0100
0001
0010
,
1000
0000
0010
0000
0001
0000
1000
0001
,
1000
0000
0010
0000
0100
0010
0100
0000
,
0010
1000
0001
0001
,
0100
0100
0010
0010
,
1000
0000
1000
0000
0001
0000
0100
0010
,
1000
0000
0001
0000
0010
0100
1000
0000
,
0001
0000
0100
0000
0010
1000
0010
1000
,
0001
1000
0001
1000
0100
0000
0000
0000
,
1100
0000
0000
0000
1000
0000
0100
1000
,
0100
0000
1000
0000
0001
0100
0001
0000
,
1000
0001
0010
0100
,
1000
0001
0100
0010
,
1000
0000
0001
0000
0010
0000
0100
0010
,
0100
0000
1000
0000
0001
1000
0001
0000
,
1000
0010
0200
0000
,
0302
0000
1003
0001
,
1000
0000
0100
0000
0010
0000
0001
0010
,
0001
0000
1000
0000
0010
1000
0010
0000
,
0100
0010
0100
0100
,
0001
0001
1000
1000
,
0100
0100
0010
0001
,
0000
0011
0000
1001
,
0000
0000
1000
0000
0010
0100
0010
0100
,
0010
0100
0010
0000
1000
0000
0001
0000
,
1001
0000
1000
0100
,
0010
0100
0001
0100
,
0010
0100
1000
0100
,
0001
0100
1000
0010
,
0001
0010
1000
0010
,
0100
0010
0001
0010
,
0100
0010
1000
0010
,
0001
0010
1000
0100
,
0001
0100
1000
0100
,
0010
0100
0001
0100
,
0010
0100
1000
0100
,
0001
0100
1000
0010
,
0001
0010
1000
0000
,
1000
0010
0000
0010
,
0100
0000
0001
1000
0100
0000
0000
0110
,
0000
0011
0000
0001
,
0010
0100
1000
0000
,
1000
0001
0000
0001
,
0100
0010
1000
0100
,
0001
0100
1000
0010
,
0001
0010
1000
0000
,
1000
0100
0000
0100
,
0010
0001
1000
0010
,
0001
0010
1000
0100
,
0001
0100
1000
0000
,
1000
0010
0000
0010
,
0100
0001
1000
0010
,
0001
1000
0100
0001
,
0010
0100
1000
0000
,
1000
0100
0000
0100
,
0010
0001
1000
0100
,
0001
1000
0010
0000
,
0011
0000
0000
0000
0001
0000
1000
0001
,
1000
0000
0010
0000
0100
0010
0100
0000
,
0010
0100
0001
0010
,
0001
0010
0001
0000
,
0011
0000
0000
0000
0010
0000
0100
0010
,
0100
0000
0010
0000
0001
1000
0001
0000
,
0010
0100
1000
0010
,
1000
0010
1000
0000
,
1010
0000
0000
0000
0010
1000
0001
1000
,
0100
0000
1000
0100
,
1000
0000
0100
0000
1000
0100
0010
0001
,
1000
0000
0001
1000
,
0001
0000
1000
0000
0001
1000
0001
0000
,
1000
1000
0100
0100
,
0010
0000
0010
0000
0001
0100
0010
1000
,
0001
1001
1000
0100
,
0001
0100
1000
0100
,
0001
0100
1000
0000
,
1100
0000
0110
0000
,
0011
0000
0001
0100
,
1000
0100
0001
0100
,
1000
0100
0001
0000
,
0101
0000
0100
1000
,
0001
0010
1000
0010
,
0001
0010
1000
0010
,
0001
0010
1000
0000
,
1010
0000
1001
0000
,
0011
0000
0001
0010
,
1000
0010
0001
0010
,
1000
0010
0001
0000
,
0011
0000
0000
0000
0220
0000
0000
0330
,
0100
0000
1000
0100
1000
0000
0001
0000
,
0100
0001
0100
0000
0010
0000
1000
0000
,
0001
0000
0101
0000
,
0220
0000
0000
0330
0010
0000
1000
0010
,
1000
0000
0001
0000
0010
0001
0010
0000
,
0100
0000
1000
0000
0001
0100
0001
0000
,
0010
1000
0010
0000
1000
0001
1000
0000
,
0100
0010
0100
0000
0010
0000
0010
0000
,
0001
0001
1000
1000
,
0010
0000
0010
0000
0100
0010
0100
0010
,
0100
0000
0001
0000
0100
0000
0001
0000
2000
0000
0000
0000
0000
0000
0000
3000
,
0001
0000
0010
0001
0010
0000
0100
0000
,
1000
0100
1000
0000
0001
0000
1000
0000
,
0010
0010
1000
1000
,
0100
0100
0010
0000
,
0001
0000
0001
1000
0000
1000
0001
0010
,
0001
0000
0001
0010
0000
0010
0100
1000
,
0001
0100
0010
0000
0100
0010
1000
0000
,
0001
0010
0000
0011
0000
0010
0100
1000
,
1100
0100
1000
0001
,
1001
0000
0101
0000
0000
0001
0100
0010
,
1010
0000
1001
0000
,
0001
0010
0001
0000
0010
0000
0100
0010
0100
0000
1000
0000
0001
0000
0100
0000
,
0010
0100
0010
0100
,
0010
0100
0010
0100
,
0010
0100
0010
0100
,
0010
0100
0010
0100
,
0010
0100
0010
0100
,
0010
0100
0010
0100
,
0010
0000
0000
0000
;

//---------------dance-single - ----------------
#NOTEDATA:;
#CHARTNAME:;
#STEPSTYPE:dance-single;
#DESCRIPTION:;
#CHARTSTYLE:;
#DIFFICULTY:Challenge;
#METER:10;
#RADARVALUES:1.000,1.000,0.456,0.101,0.072,853.000,54.000,12.000,248.000,0.000,0.000,0.000,0.000,1.000,1.000,0.456,0.101,0.072,853.000,54.000,12.000,248.000,0.000,0.000,0.000,0.000;
#CREDIT:;
#DISPLAYBPM:*;
#NOTES:
0000
0000
0000
0000
,
0000
0000
0000
0000
,
0000
0000
0000
0000
,
0000
0000
0000
0000
,
1100
0100
0010
0001
,
0011
0000
0001
0000
1000
0001
1000
0010
,
1010
0010
0110
0100
,
0101
0001
1001
MMMM
,
1000
0100
0010
0001
,
1000
0000
0010
0000
0100
0000
0001
0100
,
0001
0000
MMMM
0000
1000
0100
1000
0000
,
MMMM
0000
0001
1000
0001
0000
0010
0000
,
0100
1000
0001
0100
,
0001
0010
0100
1000
,
0001
0000
0001
0010
,
0000
0010
0100
1000
,
0001
0100
0010
1000
,
0001
0100
0010
1000
,
0100
0000
0010
0000
0001
0000
1000
0001
,
1000
0001
0100
0010
,
MMMM
0000
1000
0001
,
MMMM
0000
0000
0000
1000
0100
0010
0001
,
1000
0000
MMMM
0000
0001
0100
0010
1000
,
0001
0000
MMMM
0000
,
0001
0100
1000
0100
,
0001
0000
0100
0000
0010
0000
1000
0001
,
1000
0000
0100
0000
0001
0000
0100
1000
,
0100
0000
0010
0000
0001
1000
0001
1000
,
0001
0000
0000
0000
1001
0000
0000
0000
0101
0000
0000
0000
,
0110
0000
0000
0000
1001
0000
0000
0000
MMMM
0000
0000
0000
,
1001
0000
0000
0000
0011
0000
0000
0000
0110
0000
0000
0000
,
1100
0000
1000
0001
,
1000
0000
0010
0000
0001
0000
0010
0100
,
0001
0000
0010
0000
1000
0000
0010
0001
,
1000
0000
0010
0000
0100
0000
0001
1000
,
0100
0000
0010
0000
0001
0010
0100
1000
,
0001
0000
MMMM
0000
,
0001
1000
MMMM
0000
,
0001
0010
0100
1000
0001
0000
1000
0000
,
0020
0000
0000
0000
,
0000
0000
0000
0000
,
1030
0010
0001
0010
,
1000
0000
0100
0000
0001
0000
0100
1000
,
0001
0000
0100
0010
1000
0000
0001
0000
,
0010
MMMM
0001
0010
,
1000
0010
0001
0100
,
1000
0000
0100
0001
1000
0000
0100
1000
,
0001
0100
0010
MMMM
,
0100
0010
1000
0001
,
0010
0001
0010
0000
0100
1000
0100
0000
,
1100
0000
0000
0000
0110
0000
0000
0000
0011
0000
0000
0000
,
1001
0000
MMMM
0000
,
1000
0100
0010
0001
1000
0100
0010
0001
,
1000
0000
0001
1000
0001
0000
0100
0000
,
0010
0000
1000
0000
,
2002
3003
MMMM
0000
,
1000
0010
0100
MMMM
0010
0100
0001
MMMM
,
1000
0000
0001
0000
0010
0000
0100
1000
0100
0000
1000
0000
0001
0000
0100
0000
,
0010
MMMM
0100
0010
1000
MMMM
0010
1000
,
0001
0000
MMMM
0000
0010
0001
0010
0000
0011
0000
0000
0000
1001
0000
0000
0000
,
1010
1000
0010
MMMM
0100
0001
1000
MMMM
,
0001
0000
0100
0000
0010
0000
1000
0001
1000
0000
0100
0000
0010
0000
0001
0000
,
0011
0000
MMMM
1001
0000
MMMM
1010
0000
,
MMMM
0000
1001
0000
0000
0000
MMMM
0000
0001
0000
0010
0100
1000
0000
0001
0000
,
1001
1000
0010
0100
0101
0001
0010
0100
,
1100
0000
1000
0000
1001
0000
0001
0000
0100
0000
0010
1000
0010
0000
1000
0000
,
1001
0001
0010
0100
1100
1000
0001
1001
,
1000
0000
1001
0000
0001
0000
0100
0001
0100
0000
0100
0000
0010
0000
0010
0000
,
1010
1000
0001
0010
0011
0001
0010
0100
,
1100
0000
1000
0000
1001
0000
0001
0000
0100
0000
0010
0100
0010
0000
1000
0000
,
1010
0010
1000
0001
1001
1000
0100
0010
,
0022
0000
0033
MMMM
0001
0000
0010
0100
,
1000
0000
0001
0000
1000
0010
0100
0000
,
0001
0010
0100
1000
,
0001
0100
0001
1000
,
0010
0000
0100
0000
0001
0000
0010
0001
,
1000
0000
0010
0000
0100
0001
1000
0000
,
0001
0000
0010
0000
0100
1000
0100
0000
,
0010
0010
0001
0001
,
1000
0000
1000
0000
0001
0000
0100
0010
,
1000
0000
0010
0000
0100
0001
1000
0000
,
0001
0010
0100
1000
,
0001
0100
0010
1000
,
0001
0000
0010
0000
0100
0000
0010
0001
,
1000
0000
0001
0000
0010
0100
1000
0000
,
0001
0000
0100
0000
0010
1000
0010
1000
,
0001
1000
0001
1000
0001
0000
0000
0000
,
1001
0000
0000
0000
1000
0000
0100
1000
,
0100
0000
1000
0000
0001
1000
0001
0000
,
1000
0010
0100
0100
,
0001
0001
0010
0010
,
0010
0000
0010
0000
0100
0000
1000
0100
,
1000
0000
0001
0000
1000
0001
1000
0000
,
0010
0100
0001
0001
,
0001
0001
1000
1000
,
1000
0000
1000
0000
0001
0000
0010
0001
,
1000
0000
0001
0000
0100
0010
1000
0000
,
0010
1000
0001
0001
,
1000
0000
1000
0000
0001
1000
0001
1000
,
0001
1000
0001
1000
0001
0000
0100
0000
,
MMMM
0101
MMMM
1010
,
MMMM
0000
1001
0000
0001
0010
0001
0010
,
0001
0010
0100
0000
1000
0000
0001
0000
,
1001
0000
1000
0100
,
0001
0100
1000
0000
,
MMMM
0000
0001
0100
,
1000
0100
0001
0000
,
MMMM
0000
1000
0100
,
0010
0100
0001
0100
,
0010
0100
1000
0010
,
0100
0010
0001
0010
,
0100
0000
0010
0000
1000
0000
0001
0010
,
0100
0000
MMMM
0000
1000
0010
0100
0000
,
MMMM
0001
1000
0010
,
0001
0010
1000
0100
,
0010
0000
0001
0000
1000
0010
1000
0010
,
1000
0000
0001
0100
0001
0100
0001
0000
,
1000
0001
1000
0001
1000
0000
0000
1100
,
0000
0220
0330
0010
,
0001
0000
1000
0010
0100
0000
0001
0100
,
0001
0000
MMMM
0000
1000
0100
1000
0000
,
0100
0010
0001
0001
,
1000
1000
0010
0010
,
0100
0000
0100
0000
0010
0000
1000
0010
,
1000
0000
MMMM
0000
0001
0010
0001
0000
,
0010
0100
1000
1000
,
0001
0001
0100
0100
,
0010
0000
0010
0000
1000
0000
0010
0100
,
0001
0000
MMMM
0000
1000
0100
0010
0000
,
0001
1000
0001
0100
,
0001
0100
0010
1000
,
0010
0000
1000
0000
0001
0000
0010
0100
,
1000
0000
MMMM
0000
0100
1000
0010
0000
,
0100
0000
0001
0000
1000
0010
0100
0001
,
1000
0010
0100
0001
1000
0000
0000
0000
,
MMMM
0000
0000
0000
0001
0000
1000
0010
,
0001
0000
0010
0000
0001
0010
1000
0000
,
0100
0010
0001
0010
,
0100
1000
0001
0000
,
MMMM
0000
0000
0000
1000
0000
0001
0010
,
1000
0000
0010
0000
1000
0010
0001
0000
,
0100
0010
1000
0010
,
0100
0001
1000
0000
,
MMMM
0000
0000
0000
1000
0100
0010
0001
,
0010
0000
0001
1000
,
0001
0000
1000
0000
0001
0100
0010
1000
,
0010
0000
1000
0001
,
1000
0000
0001
0000
1000
0001
1000
0000
,
0100
0100
0010
0010
,
0001
0000
0001
0000
1000
0010
0001
1000
,
0100
MMMM
0001
0100
,
0010
0100
1000
0100
,
0010
0000
0100
0001
1000
0000
0100
0000
,
0010
0000
0001
1000
0010
0000
0100
0000
,
0001
0000
1000
0001
1000
0000
0100
0000
,
0010
0100
0001
0100
,
0010
0000
0100
1000
0001
0000
0100
0000
,
0010
0000
1000
0001
1000
0000
0000
0000
,
MMMM
0000
1000
0010
,
0100
0010
0001
0010
,
0100
0000
0010
1000
0001
0000
1000
0000
,
0100
0000
0010
0000
0001
0010
0001
0000
,
1000
0000
0001
1000
0001
0000
0100
0000
,
0010
1000
0001
0010
,
0100
0000
1000
0000
0100
1000
0001
0000
,
0100
0000
0010
1000
0002
0000
0000
0000
,
1003
0000
0010
0100
0001
0000
MMMM
0000
,
0100
0001
1000
0000
MMMM
0000
1000
0000
,
1100
MMMM
0110
MMMM
,
0022
0000
0000
0033
0001
0000
1000
0010
,
0100
0000
MMMM
0000
0100
0001
1000
0000
,
MMMM
0000
0001
0000
1000
0100
1000
0100
,
1000
0001
1000
0001
0100
0001
0100
0001
,
0100
0010
0100
0010
1000
0000
1000
0000
,
0001
0001
0010
0010
,
0100
0100
1100
MMMM
,
1001
0000
MMMM
0000
0202
0000
0000
0303
,
0100
0000
0010
1000
0001
0000
MMMM
0000
,
0001
1000
0010
0000
MMMM
0000
1000
0000
,
0010
0100
0010
0000
0100
0001
0100
0001
,
1000
0001
1000
0001
0010
0000
0000
0000
,
0100
1000
0100
0000
1000
0001
1000
0000
,
0001
0100
0001
0000
1000
0010
0001
0010
,
1000
0010
MMMM
0000
1000
0001
MMMM
0000
,
1000
0100
0001
0100
1000
0100
0010
0001
,
MMMM
0010
0001
1000
,
MMMM
0000
MMMM
0000
1000
0010
0100
0001
,
MMMM
1000
MMMM
0010
,
0100
0001
1000
0000
MMMM
0000
0001
1000
0010
0000
MMMM
0000
0100
0000
0001
0000
,
1000
0001
1000
0001
,
1000
0001
1000
0001
,
1000
0001
1000
0001
,
1000
0001
1000
0001
,
1000
0001
1000
0001
,
1000
0001
1000
0001
,
1000
MMMM
0000
0000
;

//---------------dance-single - ----------------
#NOTEDATA:;
#CHARTNAME:;
#STEPSTYPE:dance-single;
#DESCRIPTION:;
#CHARTSTYLE:;
#DIFFICULTY:Medium;
#METER:8;
#RADARVALUES:0.815,1.000,0.220,0.101,0.034,637.000,26.000,12.000,0.000,0.000,0.000,0.000,0.000,0.815,1.000,0.220,0.101,0.034,637.000,26.000,12.000,0.000,0.000,0.000,0.000,0.000;
#CREDIT:;
#DISPLAYBPM:*;
#NOTES:
0000
0000
0000
0000
,
0000
0000
0000
0000
,
0000
0000
0000
0000
,
0000
0000
0000
0000
,
1000
0000
0000
0000
,
0001
0000
0000
0000
,
1000
0000
0001
0000
,
1000
0000
1001
0000
,
0001
0100
0001
0100
,
0010
0100
0010
0100
,
0010
0000
0010
1000
,
0000
1000
0001
1000
,
0001
0010
0001
0010
,
0100
0010
0100
0010
,
0100
0000
0100
1000
,
0000
1000
0010
0100
,
0001
0100
0001
0100
,
0001
1000
0001
1000
,
0100
1000
0100
1000
,
0100
0010
0001
1000
,
0001
0000
0100
0010
,
0100
0000
0001
1000
,
0001
0000
0010
0100
,
0010
0000
0010
0000
,
0001
0010
0100
1000
,
0001
0010
0100
1000
,
0001
0100
0010
1000
,
0001
0100
0010
1000
,
0001
0000
0000
0000
1000
0000
0000
0000
0001
0000
0000
0000
,
0000
0010
0000
0000
0000
0001
0000
0000
0000
0010
0000
0000
,
0000
0100
0000
0000
0000
0000
0010
0000
0000
0100
0000
0000
,
0000
0000
1000
0000
0000
0000
0100
0000
0000
1000
0000
0000
,
0001
0100
0001
0100
,
0010
1000
0010
1000
,
0100
1000
0100
1000
,
0001
0010
0001
0010
,
0100
0000
0100
0000
,
1000
0100
1000
1000
,
0001
1000
0001
1000
,
0002
0000
0000
0000
,
0000
0000
0000
0000
,
1003
0100
0010
0001
,
1000
0010
0100
0001
,
1000
0100
0010
0001
,
1000
1000
0001
0100
,
0010
1000
0001
0010
,
0100
1000
0001
0100
,
0010
1000
0001
0001
,
1000
0000
1000
0000
,
0010
0100
0010
0100
,
0001
0000
0000
0001
0000
0000
0001
0000
,
1000
0000
1001
0000
,
0001
0010
0100
1000
,
0001
0010
0100
1000
,
0001
0000
0100
0000
,
0020
0000
0030
0000
,
1000
0010
1000
0000
0001
1000
0001
0000
,
0010
0001
0010
0000
0001
0010
0100
1000
,
0001
0100
0001
0000
1000
0100
1000
0000
,
0001
1000
0001
0000
1000
0010
0100
0001
,
1000
0100
1000
0000
0001
0010
0001
0000
,
0100
0001
0100
0000
0010
1000
0010
0000
,
1010
0000
0000
0110
0000
0000
0101
0000
,
0000
1001
0000
0000
1000
0100
0010
0001
,
1000
0000
1001
0000
,
0001
0000
1001
0000
1000
0100
0001
0100
,
1000
0000
0000
0000
1001
0000
0000
0001
,
0000
1001
0000
0000
0001
0100
1000
0100
,
0001
0000
1001
0000
,
0001
0000
1001
0000
1000
0100
0010
0001
,
1000
0000
1001
0000
,
2020
0000
0000
3030
1000
0000
0010
0000
,
0100
0000
0010
0100
,
0001
0000
0100
0000
,
0001
0000
1000
0000
,
0100
0000
0010
0001
,
1000
0000
0001
1000
,
0010
0000
1000
0010
,
0100
0000
0001
0100
,
1000
0100
0001
1000
,
0100
0000
1000
0001
,
0100
0000
0001
0000
,
0100
0000
0010
0000
,
1000
0000
0100
1000
,
0001
0000
1000
0001
,
0010
0000
0001
0100
,
1000
0100
0001
0000
,
0001
0000
1000
0001
,
1000
0001
1000
0100
,
1000
0100
1000
0000
,
1000
0000
0100
0000
,
0100
0000
0010
0100
,
0010
0100
0010
0001
,
0010
0001
1000
0000
,
1000
0000
0001
0000
,
0001
0000
0100
0001
,
0100
0001
0100
0010
,
0100
0010
1000
0000
,
1000
0000
0010
0000
,
0010
0000
1000
0001
,
0000
1000
0000
1000
,
0000
1000
0001
0010
,
0100
1000
0001
0100
,
0010
0000
1000
0100
,
0010
0001
1000
0100
,
0010
0001
1000
0010
,
0100
0001
1000
0010
,
0100
0001
1000
0000
,
1000
0100
0000
0100
,
0010
0001
1000
0000
,
1001
0000
0001
0000
,
1001
0000
1000
0000
,
1000
0001
0000
0001
,
0100
0010
1000
0000
,
1010
0000
1000
0000
,
1001
0000
0001
0000
,
0001
0010
0000
0010
,
0100
0000
1000
0000
0001
0000
0000
1000
,
0000
2002
0000
0000
,
3003
0000
0001
0000
,
0001
0100
0000
0100
,
0010
1000
0002
0000
,
0010
0000
0100
0000
,
0010
0000
1003
0000
,
1000
0010
0000
0010
,
0100
0001
0010
0000
,
0110
0000
0100
0000
,
1100
0000
1000
0000
,
1000
0001
0000
0001
,
0100
0010
2000
0000
,
0001
0000
0010
0000
,
0100
0000
3001
0000
,
0001
0010
0000
0010
,
0100
1000
0001
0000
,
0100
0000
0010
0000
,
1010
0000
1000
0010
,
1000
0001
0100
0001
,
1000
0001
1000
0100
,
0010
0001
1000
0000
,
1001
0000
0001
0100
,
0001
1000
0010
1000
,
0001
1000
0001
0010
,
0100
1000
0001
0000
,
1001
0000
1000
0010
,
1000
0000
0001
1000
,
0001
1000
0001
0010
,
0001
0000
1000
0001
,
1000
0001
1000
0010
,
0100
0100
0001
0001
,
1000
1000
0002
0000
,
0000
0003
1000
0100
,
0010
0001
1000
0100
,
0010
0001
1000
0100
,
0001
0100
1000
0100
,
0001
0100
1000
0010
,
0100
0001
1000
0010
,
0100
0001
1000
0010
,
0001
0010
1000
0000
,
1010
0000
0001
0100
,
0010
1000
0001
0010
,
0100
1000
0001
0100
,
1000
0100
0001
0010
,
1000
0010
0001
0010
,
0100
1000
0001
0100
,
0010
1000
0001
0100
,
0010
1000
0002
0000
,
0103
0010
1000
0001
,
0100
0010
1000
0001
,
0010
0100
1000
0001
,
0020
0000
0130
1000
,
0001
0100
0010
1000
,
0001
0010
0100
0100
,
1000
1000
0001
0001
,
0100
0100
0010
1000
,
0001
1000
0001
0010
,
0100
0010
0100
1000
,
0001
0100
0020
0000
,
1030
0010
1000
0010
,
1000
0001
1000
0001
,
0010
0100
1000
0001
,
0100
0010
1000
0000
,
0001
0000
0010
0001
,
1000
0000
0001
1000
,
0010
1000
0010
0000
0100
0010
0100
0000
,
0001
0000
0000
1001
0000
1000
0100
0010
,
0001
1000
0010
0100
,
0001
0000
0001
0000
1000
0100
0010
0001
,
1000
1000
0001
0001
,
0100
0001
0100
0000
0000
0000
0010
1000
0010
0000
1000
0000
0001
0000
0010
0000
,
0100
0000
1000
0000
,
0100
0000
1000
0000
,
0100
0000
1000
0000
,
0100
0000
1000
0000
,
0100
0000
1000
0000
,
0100
0000
1000
0000
,
0100
0000
0000
0000
;

//---------------dance-single - ----------------
#NOTEDATA:;
#CHARTNAME:;
#STEPSTYPE:dance-single;
#DESCRIPTION:;
#CHARTSTYLE:;
#DIFFICULTY:Easy;
#METER:6;
#RADARVALUES:0.454,0.824,0.076,0.085,0.000,357.000,9.000,10.000,0.000,0.000,0.000,0.000,0.000,0.454,0.824,0.076,0.085,0.000,357.000,9.000,10.000,0.000,0.000,0.000,0.000,0.000;
#CREDIT:;
#DISPLAYBPM:*;
#NOTES:
0000
0000
0000
0000
,
0000
0000
0000
0000
,
0000
0000
0000
0000
,
0000
0000
0000
0000
,
0001
0000
0000
0000
,
0001
0000
0000
0000
,
1000
0000
1000
0000
,
1000
0000
0000
0000
,
0001
0000
0010
0000
,
0100
0000
1000
0000
,
0001
0000
0000
0001
,
0000
0000
0001
0000
,
1000
0000
0001
0000
,
0100
0000
0010
0000
,
1000
0000
0000
1000
,
0000
0000
1000
0000
,
0010
0000
0100
0000
,
0001
0000
0100
0000
,
0001
0000
1000
0000
,
0001
0000
0010
0000
,
0010
0000
0100
0000
,
0100
0000
1000
0000
,
1000
0000
0001
0000
,
0001
0000
1001
0000
,
1000
0000
0010
0000
,
0100
0000
0010
0000
,
0001
0000
0010
0000
,
0100
0000
0010
0000
,
2000
0000
0000
0000
,
0000
0000
0000
0000
,
0002
0000
0000
0000
,
0000
0000
0000
3003
,
1000
0000
0100
0000
,
0001
0000
0100
0000
,
1000
0000
0010
0000
,
0001
0000
0010
0000
,
1000
0000
1000
0000
,
0001
0000
0001
0000
,
1000
0000
0100
0000
,
0010
0000
0000
0000
,
0000
0000
0000
0000
,
0001
0000
0001
0000
,
1000
0000
1000
0000
,
0010
0000
0100
0000
,
0001
0000
0100
0000
,
0100
0000
0010
0000
,
0010
0000
1000
0000
,
0100
0000
0010
0000
,
0001
0000
0001
0000
,
1000
0000
0000
0000
,
0010
0000
0010
0000
,
0100
0000
0000
0000
,
0010
0000
0100
0000
,
0001
0000
1000
0000
,
0100
0000
0010
0000
,
0110
0000
0000
0000
,
0100
0000
1000
0000
,
0001
0000
0100
0100
,
0100
0000
0010
0000
,
1000
0000
0001
0001
,
0001
0000
0010
0000
,
0100
0000
1000
1000
,
1000
0000
0000
0100
0000
0000
1000
0000
,
0000
0001
0000
0000
0100
0000
0010
0000
,
1000
0000
0010
0000
,
1000
1000
0001
0001
,
1000
0000
0001
0000
,
0010
0010
0100
0100
,
1000
0000
0001
0000
,
0100
0100
0010
0010
,
1000
0000
0001
0000
,
2000
0000
3001
0000
,
0001
0000
0100
0000
,
0100
0000
0010
0000
,
1000
0000
0001
0000
,
0010
0000
0100
0000
,
0100
0000
1000
0000
,
1000
0000
0001
0000
,
0100
0000
0010
0000
,
1000
0000
0001
0000
,
0010
0000
0100
0000
,
1000
0000
0001
0000
,
0001
0000
1000
0000
,
1000
0000
0001
0000
,
0100
0000
0010
0000
,
1000
0000
0001
0000
,
0100
0000
0010
0000
,
0010
0000
1000
0000
,
0010
0000
0100
0000
,
0001
0000
1000
0000
,
1000
0000
0001
0000
,
0001
0000
1000
0000
,
0100
0000
0010
0000
,
0001
0000
0100
0000
,
0100
0000
0010
0000
,
0010
0000
1000
0000
,
0010
0000
0001
0000
,
0010
0000
1000
0000
,
1000
0000
0001
0000
,
0001
0000
1000
0000
,
0000
0001
0000
0001
,
0000
0000
1000
0000
,
0100
0000
0010
0000
,
0000
0000
0001
0000
,
0010
0000
0001
0000
,
0010
0000
0100
0000
,
1000
0000
0100
0000
,
1000
0000
0010
0000
,
1000
0000
0010
0000
,
1000
0000
0010
0000
,
0010
0000
0100
0000
,
0100
0000
0001
0000
,
0100
0000
0001
0000
,
0100
0000
0001
0000
,
1000
0000
0001
0000
,
1000
0000
0100
0000
,
0000
0000
0100
0000
,
0000
0000
0010
0000
,
0010
0000
0010
0000
,
0000
0000
0001
0000
,
0010
0000
0001
0000
,
1000
0000
0010
0000
,
0010
0000
0010
0000
,
0010
0000
0100
0000
,
0010
0000
0100
0000
,
0001
0000
1000
0000
,
1000
0000
0001
0000
,
0001
0000
1000
0000
,
0100
0000
0010
0000
,
0001
0000
0100
0000
,
0100
0000
0100
0000
,
0100
0000
0001
0000
,
0100
0000
0010
0000
,
1000
0000
0001
0000
,
0001
0000
1000
0000
,
1000
0000
0001
0000
,
0010
0000
1000
0000
,
0010
0000
0001
0000
,
0001
0000
0001
0000
,
0000
0000
1000
0000
,
0010
0000
0001
0000
,
0010
0000
1000
0000
,
1000
0000
1000
0000
,
0000
0000
2002
0000
,
0000
0000
3003
0000
,
0000
0000
0220
0000
,
0000
0000
0330
0000
,
0000
0000
1001
0000
,
1000
0000
0100
0000
,
0010
0000
0002
0000
,
0000
0000
1003
0000
,
0100
0000
0001
0000
,
0100
0000
1000
0000
,
0100
0000
1000
0000
,
0001
0000
1000
0000
,
0010
0000
0001
0000
,
0010
0000
1000
0000
,
0010
0000
1000
0000
,
1000
0000
0001
0000
,
0010
0000
0100
0000
,
1000
0000
0001
0000
,
0001
0000
1000
0000
,
1000
0000
0001
0000
,
0100
0000
0010
0000
,
1000
0000
0001
0000
,
1000
0000
1001
0000
,
0001
0000
0010
0000
,
0100
0000
1000
0000
,
0001
0000
1000
0000
,
1001
0000
0001
0000
,
0100
0000
0010
0000
,
0100
0000
0010
0000
,
0010
0000
1000
0000
,
1000
0000
0001
0000
,
0010
0000
0100
0000
,
1000
0000
0001
0000
,
1000
0000
1001
0000
,
0001
0000
0100
0000
,
0010
0000
1000
0000
,
0100
0000
0100
0000
,
0010
0000
0010
0000
,
0001
0000
0000
0010
,
0001
0000
0000
1000
,
0001
0001
1000
0000
,
0001
0000
0100
0010
,
1000
0000
0000
0000
,
0010
0010
0000
1000
,
0001
0000
0010
0000
,
0100
1000
0100
0000
1000
0001
1000
0000
,
2002
0000
0000
0000
,
0000
0000
0000
0000
,
0000
0000
0000
0000
,
0000
0000
0000
0000
,
0000
0000
0000
0000
,
0000
0000
0000
0000
,
3003
0000
0000
0000
;

//---------------dance-single - ----------------
#NOTEDATA:;
#CHARTNAME:;
#STEPSTYPE:dance-single;
#DESCRIPTION:;
#CHARTSTYLE:;
#DIFFICULTY:Beginner;
#METER:4;
#RADARVALUES:0.334,0.479,0.110,0.017,0.000,262.000,13.000,2.000,0.000,0.000,0.000,0.000,0.000,0.334,0.479,0.110,0.017,0.000,262.000,13.000,2.000,0.000,0.000,0.000,0.000,0.000;
#CREDIT:;
#DISPLAYBPM:*;
#NOTES:
0000
0000
0000
0000
,
0000
0000
0000
0000
,
0000
0000
0000
0000
,
0000
0000
0000
0000
,
1000
0000
0000
0000
,
1000
0000
0000
0000
,
0001
0000
0000
0000
,
0001
0000
0000
0000
,
1000
0000
0000
0000
,
0100
0000
0000
0000
,
1000
0000
0000
0000
,
0000
0000
0000
0000
,
0001
0000
0000
0000
,
0010
0000
0000
0000
,
0001
0000
0000
0000
,
0000
0000
0000
0000
,
1000
0000
0000
0000
,
0010
0000
0000
0000
,
1000
0000
0000
0000
,
0000
0000
0000
0000
,
0001
0000
0000
0000
,
0001
0000
0000
0000
,
0100
0000
0000
0000
,
0100
0000
0000
0000
,
0001
0000
0001
0000
,
0001
0000
0001
0000
,
1000
0000
1000
0000
,
1000
0000
1000
0000
,
0200
0000
0000
0000
,
0000
0000
0000
0000
,
0320
0000
0000
0000
,
0000
0000
0000
0000
,
0031
0000
0001
0000
,
0001
0000
0001
0000
,
0100
0000
0100
0000
,
0100
0000
0100
0000
,
0010
0000
0000
0000
,
0010
0000
0000
0000
,
1000
0000
1000
0000
,
1000
0000
0000
0000
,
0000
0000
0000
0000
,
0001
0000
0000
0000
,
0001
0000
0000
0000
,
0001
0000
0000
0000
,
1001
0000
1000
0000
,
0000
0000
1000
0000
,
0000
0000
1000
0000
,
0000
0000
1001
0000
,
0100
0000
0000
0000
,
0110
0000
0000
0000
,
0010
0000
0000
0000
,
0011
0000
0000
0000
,
0001
0000
0000
0000
,
0001
0000
0000
0000
,
1000
0000
1000
0000
,
1000
0000
0000
0000
,
0001
0000
0000
0000
,
0100
0000
0010
0000
,
1000
0000
0000
0000
,
0010
0000
1000
1000
,
1000
0000
0000
0000
,
0001
0000
1000
0000
,
0100
0000
0100
0000
,
0100
0000
0000
0000
,
0010
0000
0001
0000
,
0010
0000
0010
0000
,
0001
0000
1000
0000
,
0001
0000
0001
0000
,
1000
0000
0010
0000
,
1000
0000
1000
0000
,
0010
0000
0100
0000
,
0110
0000
0010
0000
,
0000
0000
0100
0000
,
0000
0000
0001
0000
,
0001
0000
0001
0000
,
0000
0000
0100
0000
,
0000
0000
0001
0000
,
0000
0000
1000
0000
,
1000
0000
1000
0000
,
0000
0000
0001
0000
,
0000
0000
0010
0000
,
0000
0000
0100
0000
,
0100
0000
0100
0000
,
0000
0000
0010
0000
,
0000
0000
0100
0000
,
0000
0000
1000
0000
,
1000
0000
1000
0000
,
0000
0000
0001
0000
,
0000
0000
0100
0000
,
0000
0000
0010
0000
,
0010
0000
0010
0000
,
0000
0000
1000
0000
,
0000
0000
0001
0000
,
0000
0000
0010
0000
,
0010
0000
0010
0000
,
0000
0000
0100
0000
,
0000
0000
1000
0000
,
0000
0000
0001
0000
,
0001
0000
0001
0000
,
0000
0000
1000
0000
,
0000
0000
0010
0000
,
0000
0000
0100
0000
,
0100
0000
0100
0000
,
0000
0000
0001
0000
,
0001
0000
0100
0000
,
0100
0000
0001
0000
,
0100
0000
0001
0000
,
0100
0000
0001
0000
,
0001
0000
1000
0000
,
1000
0000
0001
0000
,
1000
0000
0001
0000
,
1000
0000
0100
0000
,
0100
0000
0010
0000
,
0010
0000
0100
0000
,
0010
0000
0100
0000
,
0010
0000
0001
0000
,
0000
0000
1000
0000
,
0000
0000
1001
0000
,
0000
0000
0000
0000
,
0000
0000
0001
0000
,
0000
0000
0100
0000
,
0000
0000
0010
0000
,
0010
0000
0010
0000
,
0000
0000
0100
0000
,
0000
0000
0010
0000
,
0000
0000
1000
0000
,
1000
0000
0001
0000
,
0001
0000
1000
0000
,
0000
0000
0100
0000
,
0000
0000
0010
0000
,
0010
0000
0010
0000
,
0000
0000
0100
0000
,
0000
0000
0010
0000
,
0000
0000
0001
0000
,
0001
0000
1000
0000
,
1000
0000
1001
0000
,
0000
0000
0000
0000
,
0000
0000
0001
0000
,
1000
0000
0001
0000
,
0000
0000
0110
0000
,
0000
0000
0000
0000
,
0000
0000
0100
0000
,
0010
0000
0100
0000
,
0000
0000
0110
0000
,
0000
0000
0000
0000
,
0000
0000
1001
0000
,
0000
0000
0000
0000
,
0000
0000
1001
0000
,
0001
0000
1001
0000
,
1000
0000
1001
0000
,
0000
0000
0001
0000
,
0100
0000
0010
0000
,
1000
0000
0100
0000
,
0100
0000
1000
0000
,
1000
0000
0001
0000
,
0100
0000
0010
0000
,
1000
0000
0001
0000
,
0001
0000
1000
0000
,
1000
0000
0001
0000
,
0010
0000
0100
0000
,
1000
0000
0100
0000
,
0100
0000
1000
0000
,
1000
0000
0001
0000
,
0100
0000
0010
0000
,
1000
0000
0001
0000
,
0001
0000
0001
0000
,
1000
0000
0100
0000
,
0010
0000
0001
0000
,
1000
0000
1000
0000
,
1000
0000
0001
0000
,
0100
0000
0010
0000
,
1000
0000
0001
0000
,
0001
0000
1000
0000
,
1000
0000
0001
0000
,
0010
0000
0100
0000
,
1000
0000
0001
0000
,
0001
0000
0001
0000
,
1000
0000
0010
0000
,
0100
0000
0001
0000
,
1000
0000
1000
0000
,
0001
0000
0001
0000
,
1000
0000
0000
0000
,
0100
0000
0000
0000
,
0010
0000
0010
0000
,
0010
0000
0000
0000
,
0001
0000
0000
0000
,
1000
0000
0000
0000
,
0010
0000
0010
0000
,
0100
0000
0100
0000
,
0001
0000
0000
0000
;
