#TITLE:A Sky Full of Stars;
#SUBTITLE:;
#ARTIST:Coldplay;
#TITLETRANSLIT:;
#SUBTITLETRANSLIT:;
#ARTISTTRANSLIT:;
#GENRE:Dance;
#CREDIT:;
#BANNER:;
#BACKGROUND:;
#LYRICSPATH:;
#CDTITLE:;
#MUSIC:A Sky Full of Stars.mp3;
#OFFSET:-0.461325;
#SAMPLESTART:100.258331;
#SAMPLELENGTH:17.279999;
#SELECTABLE:YES;
#BPMS:0.000000=124.999992
;
#STOPS:
;
#BGCHANGES:-0.500=A Sky Full of Stars.avi=1.000=0=0=0=StretchNoLoop====,
99999=-nosongbg-=1.000=0=0=0 // don't automatically add -songbackground-
;
#KEYSOUNDS:;
#ATTACKS:;

//---------------dance-single - ----------------
#NOTES:
     dance-single:
     :
     Hard:
     6:
     0.322935,0.304223,0.091549,0.084506,0.084506,296.000000,13.000000,12.000000,0.000000,0.000000,0.000000,0.322935,0.304223,0.091549,0.084506,0.084506,296.000000,13.000000,12.000000,0.000000,0.000000,0.000000:
// measure 0
0000
0000
0000
0000
,  // measure 1
0000
0000
0000
0000
,  // measure 2
0000
0000
0000
0000
,  // measure 3
0000
0000
0000
0000
,  // measure 4
0000
0000
0000
0000
,  // measure 5
0000
0000
0000
0000
,  // measure 6
0000
0000
0000
0000
,  // measure 7
0000
0000
0000
0000
,  // measure 8
0000
0000
0000
0000
0000
0010
1000
0000
,  // measure 9
0020
0000
0000
0000
0030
0010
1000
0000
,  // measure 10
0020
0000
0000
0000
0000
0130
0001
1000
,  // measure 11
0000
0000
0000
0000
,  // measure 12
0000
0000
0000
0000
0000
0001
1000
0100
,  // measure 13
0020
0000
0000
0000
0000
0130
0010
0002
,  // measure 14
0000
0003
0000
0000
,  // measure 15
0000
0000
0000
0000
,  // measure 16
1000
0000
0000
1000
0000
0000
1000
0000
0000
0000
0001
0000
1000
0000
0000
0000
,  // measure 17
0010
0000
0000
0100
0000
0000
0100
0000
0000
0000
0100
0000
0010
0000
0100
0000
,  // measure 18
0001
0000
0000
0001
0000
0000
0001
0000
0000
0000
1000
0000
0001
0000
0000
0000
,  // measure 19
0100
0000
0000
0010
0000
0000
1000
0000
0000
0000
0001
0000
1000
0000
0000
0000
,  // measure 20
0001
0000
0000
0100
0000
0000
0001
0000
0000
0000
0100
0000
0010
0000
0000
0000
,  // measure 21
0010
0000
0000
1000
0000
0000
0010
0000
0000
0000
1000
0000
0100
0000
0000
0000
,  // measure 22
0100
0000
0000
0010
0000
0000
0100
0000
0000
0000
0010
0000
0000
0000
0100
0000
,  // measure 23
0010
0000
0000
0100
0000
0000
1000
0000
0000
0000
0001
0000
0010
0000
0001
0000
,  // measure 24
1000
0000
0000
0100
0000
0000
0001
0000
0000
0000
0100
0000
0000
0000
1000
0000
,  // measure 25
0010
0000
0000
0001
0000
0000
0010
0000
0000
0000
1000
0000
0000
0000
0000
0000
,  // measure 26
0100
0000
0000
0010
0000
0000
0001
0000
0000
0000
0010
0000
0000
0000
0001
0000
,  // measure 27
0010
0000
0000
0100
0000
0000
1000
0000
0000
0000
0001
0000
1000
0000
0010
0000
,  // measure 28
1000
0000
0000
0010
0000
0000
1000
0000
0000
0000
0001
0000
0000
0000
0001
0000
,  // measure 29
0010
0000
0000
0001
0000
0000
0100
0000
0000
0000
0010
0000
0000
0000
0100
0000
,  // measure 30
0001
0000
0000
0001
0000
0000
1000
0000
0000
0000
1000
0000
0000
0000
0100
0000
,  // measure 31
0010
0000
0000
0010
0000
0000
0010
0000
0000
0000
0100
0000
0010
0000
0001
0000
,  // measure 32
1000
0000
0000
0001
0000
0000
0100
0000
0000
0000
0101
0000
0000
0000
0100
0000
,  // measure 33
0001
0000
0000
1000
0000
0000
0100
0000
0000
0000
0110
0000
0000
0000
0010
0000
,  // measure 34
0100
0000
0000
0010
0000
0000
0001
0000
0000
0000
1000
0000
0000
0000
0001
0000
,  // measure 35
1000
0000
0000
0100
0000
0000
0010
0000
0000
0000
0001
0000
0010
0000
0100
0000
,  // measure 36
1000
0000
0000
0100
0000
0000
1000
0000
0000
0000
1010
0000
0000
0000
0010
0000
,  // measure 37
0100
0000
0000
0010
0000
0000
1000
0000
0000
0000
1001
0000
0000
0000
1000
0000
,  // measure 38
0001
0000
0000
0010
0000
0000
0100
0000
0000
0000
1000
0000
0000
0000
0100
0000
,  // measure 39
1000
0000
0000
0100
0000
0000
0010
0000
0000
0000
0001
0000
1000
0000
0001
0000
,  // measure 40
1001
0000
0000
1000
0100
0001
0100
0010
,  // measure 41
0000
0000
0000
0010
0001
0010
1000
0010
,  // measure 42
0000
0000
0000
0100
0010
0001
1000
0010
,  // measure 43
0000
0000
0000
0100
1000
0100
0001
1000
,  // measure 44
0000
0000
0000
0001
0010
0100
0010
0001
,  // measure 45
0000
0000
0000
1000
0100
0010
0100
1000
,  // measure 46
0000
0000
0000
0001
1000
0010
1000
0001
,  // measure 47
0000
0000
0000
1000
0001
0100
0001
1000
,  // measure 48
0002
0100
0100
0103
,  // measure 49
2000
0100
0100
3100
,  // measure 50
0002
0100
0100
0103
,  // measure 51
2000
0100
0100
3100
,  // measure 52
0002
0010
0010
0013
,  // measure 53
2000
0010
0010
3010
,  // measure 54
0002
0010
0010
0013
,  // measure 55
2000
0010
0010
3010
,  // measure 56
1000
1010
0001
0011
,  // measure 57
1000
1010
0001
0011
,  // measure 58
1000
1100
0001
0101
,  // measure 59
1000
1100
0001
0101
,  // measure 60
0001
0010
0100
0010
,  // measure 61
0100
1000
0000
0100
1000
0001
1000
0001
,  // measure 62
0100
0010
1000
0100
,  // measure 63
1000
0001
0000
1000
0010
0100
0001
1000
,  // measure 64
0001
0010
0001
0000
0010
0000
0100
0000
,  // measure 65
1000
0010
1000
0000
0010
0000
0100
0000
,  // measure 66
0001
1000
0001
0000
1000
0000
0100
0000
,  // measure 67
0010
0001
0010
0000
0001
0000
1000
0000
,  // measure 68
0100
1000
0100
0000
0010
0000
0001
0000
,  // measure 69
1000
0010
1000
0000
0010
0000
0100
0010
,  // measure 70
1000
0001
1000
0000
0001
0000
0100
0010
,  // measure 71
0100
0001
1000
0000
0010
0000
0100
0001
,  // measure 72
1000
0000
0000
0000
;

//---------------dance-single - ----------------
#NOTES:
     dance-single:
     :
     Medium:
     5:
     0.253519,0.304223,0.049295,0.133802,0.028169,226.000000,7.000000,19.000000,0.000000,0.000000,0.000000,0.253519,0.304223,0.049295,0.133802,0.028169,226.000000,7.000000,19.000000,0.000000,0.000000,0.000000:
0000
0000
0000
0000
,
0000
0000
0000
0000
,
0000
0000
0000
0000
,
0000
0000
0000
0000
,
0000
0000
0000
0000
,
0000
0000
0000
0000
,
0000
0000
0000
0000
,
0000
0000
0000
0000
,
0000
0000
0000
0000
0000
1000
0001
0000
,
2000
0000
0000
0000
3000
0001
1000
0000
,
0002
0000
0000
0000
0003
1000
0001
0200
,
0000
0300
0000
0000
,
0000
0000
0000
0000
0000
0010
0100
0010
,
0002
0000
0000
0000
0003
1000
0001
0100
,
0000
0000
0000
0000
,
0000
0000
0000
0000
,
1001
0000
0000
0000
0000
0001
1000
0000
,
0200
0000
0000
0000
0000
1300
0001
0000
,
0200
0000
0000
0000
0000
0301
0100
0020
,
0000
0030
0100
0000
,
0010
0000
0000
0000
1000
0000
0001
1000
,
0200
0000
0000
0000
0000
0310
0001
1000
,
0000
0000
0000
0000
,
0001
0000
1000
0000
,
0100
1000
0100
1000
,
0100
0010
0100
0010
,
0001
0010
0001
0010
,
0001
0001
1000
1000
,
0010
1000
0010
1000
,
0010
0100
0010
0100
,
0001
0100
0001
0100
,
0001
1000
0100
0010
,
0001
0000
0000
0001
0000
0000
0001
0000
0000
0000
1000
0000
0000
0000
0000
0000
,
1000
0000
0000
1000
0000
0000
1000
0000
0000
0000
0001
0000
0000
0000
0000
0000
,
0100
0000
0000
0100
0000
0000
0100
0000
0000
0000
0010
0000
0000
0000
0000
0000
,
0100
0000
0000
0010
0000
0000
1000
0000
0000
0000
0001
0000
0000
0000
0000
0000
,
1000
0000
0000
0100
0000
0000
0010
0000
0000
0000
0001
0000
0000
0000
0000
0000
,
0001
0000
0000
0010
0000
0000
0100
0000
0000
0000
1000
0000
0000
0000
0000
0000
,
0010
0000
0000
0100
0000
0000
0001
0000
0000
0000
1000
0000
0000
0000
0000
0000
,
0100
0000
0000
0010
0000
0000
0001
0000
0000
0000
1000
0000
0000
0000
0000
0000
,
1001
0000
0000
0001
0100
0001
0100
0001
,
0000
0000
0000
0100
0010
0100
0010
0100
,
0000
0000
0000
0010
1000
0010
1000
0010
,
0000
0000
0000
1000
0001
1000
0001
1000
,
0000
0000
0000
0001
0010
0100
1000
0100
,
0000
0000
0000
1000
0100
0010
0001
0010
,
0000
0000
0000
0001
0100
0010
1000
0001
,
0000
0000
0000
1000
0010
0100
0001
1000
,
0001
0000
0100
0000
0010
1000
0010
1000
,
0010
0000
0100
0000
0001
1000
0001
1000
,
0001
0000
0010
0000
0100
0010
0100
0010
,
0100
0000
1000
0000
0100
0010
0001
1000
,
0001
0000
1000
0000
0010
1000
0010
1000
,
0010
0000
0100
0000
0001
0100
0001
0100
,
0001
0000
1000
0000
0100
0010
0100
0010
,
0001
0000
0100
0000
0010
1000
0001
1000
,
0200
0000
0000
0000
0000
0310
0001
2000
,
0000
0000
0000
0000
0000
3001
1000
0002
,
0000
0003
0101
0000
0000
0000
1010
0000
,
0000
1100
0000
0011
,
1001
0001
1000
0001
,
0100
0001
0100
0001
,
1000
0001
1000
0001
,
1000
0100
1000
0100
,
2000
0000
0000
3000
,
0002
0000
0000
0003
,
0200
0000
0000
0300
,
0002
0000
0000
0003
,
2000
0000
0000
3000
,
0002
0000
0000
0003
,
0200
0000
0000
0300
,
0020
0000
0000
0030
,
0100
0000
0000
0000
;

//---------------dance-single - ----------------
#NOTES:
     dance-single:
     :
     Easy:
     2:
     0.127766,0.177464,0.007042,0.035211,0.000000,121.000000,1.000000,5.000000,0.000000,0.000000,0.000000,0.127766,0.177464,0.007042,0.035211,0.000000,121.000000,1.000000,5.000000,0.000000,0.000000,0.000000:
0000
0000
0000
0000
,
0000
0000
0000
0000
,
0000
0000
0000
0000
,
0000
0000
0000
0000
,
0000
0000
0000
0000
,
0000
0000
0000
0000
,
0000
0000
0000
0000
,
0000
0000
0000
0000
,
0000
0000
0000
1000
,
0100
0000
0000
1000
,
0100
0000
0000
0010
,
0001
0000
0000
0000
,
0000
0000
0000
1000
,
0001
0000
0000
0001
,
0100
0000
0000
0000
,
0010
0000
0000
0000
,
0100
0000
0000
0010
,
1000
0000
0000
0010
,
1000
0000
0000
0001
,
0001
0000
0000
0000
,
1000
0000
0000
0100
,
0010
0000
0000
0001
,
1000
0000
0000
0000
,
0100
0000
0000
0000
,
1000
0000
0000
0001
,
1000
0000
0000
0010
,
0010
0000
0000
0100
,
0001
0000
0000
0000
,
1000
0000
0000
0100
,
0010
0000
0000
0001
,
0100
0000
0000
0000
,
0010
0000
1000
0000
,
0100
0000
0000
1000
,
0001
0000
0000
1000
,
0001
0000
0000
0001
,
0100
0000
0001
0000
,
0200
0000
0300
0010
,
2000
0000
3000
0001
,
2000
0000
0000
0000
,
0002
0000
0000
3003
,
1001
0000
0001
1000
,
0100
0000
0010
0001
,
1000
0000
0001
1000
,
0010
0000
1000
0100
,
1000
0000
0010
0100
,
0001
0000
1000
0001
,
1000
0000
0001
0010
,
0100
0000
0010
0100
,
0010
0000
0001
1000
,
0010
0000
1000
0001
,
0100
0000
0010
1000
,
0001
0000
0100
0010
,
1000
0000
0100
0010
,
0001
0000
0010
0100
,
1000
0000
0001
0010
,
0100
0000
1000
0010
,
0100
0000
0000
0010
,
2000
0000
0000
0000
,
3100
1000
0000
0010
,
0000
0100
0000
0001
,
1000
0000
0000
0000
,
0100
0000
0000
0000
,
0010
0000
0000
0000
,
0001
0000
0000
0000
,
1000
0000
0000
0000
,
0100
0000
0000
0000
,
0010
0000
0000
0000
,
0001
0000
0000
0000
,
1000
0000
0000
0000
,
0010
0000
0000
0000
,
0100
0000
0000
0000
,
0001
0000
0000
0000
,
1000
0000
0000
0000
;

//---------------dance-single - ----------------
#NOTES:
     dance-single:
     :
     Beginner:
     1:
     0.072434,0.101408,0.007042,0.000000,0.000000,71.000000,1.000000,0.000000,0.000000,0.000000,0.000000,0.072434,0.101408,0.007042,0.000000,0.000000,71.000000,1.000000,0.000000,0.000000,0.000000,0.000000:
0000
0000
0000
0000
,
0000
0000
0000
0000
,
0000
0000
0000
0000
,
0000
0000
0000
0000
,
0000
0000
0000
0000
,
0000
0000
0000
0000
,
0000
0000
0000
0000
,
0000
0000
0000
0000
,
0000
0000
0000
1000
,
1000
0000
0000
1000
,
1000
0000
0000
0001
,
0000
0000
0000
0000
,
0000
0000
0000
0100
,
0100
0000
0000
0100
,
0000
0000
0000
0000
,
0010
0000
0000
0000
,
0000
0000
0000
0100
,
0100
0000
0000
0010
,
0010
0000
0000
1000
,
1000
0000
0000
0000
,
0000
0000
0000
0000
,
0001
0000
0000
0000
,
1000
0000
0000
0000
,
0000
0000
0000
0000
,
0010
0000
0000
0100
,
0100
0000
0000
0000
,
0001
0000
0000
1000
,
1000
0000
0000
0000
,
0000
0000
0000
0010
,
0010
0000
0000
0000
,
0100
0000
0000
0000
,
0001
0000
0001
0000
,
1000
0000
0000
0000
,
0001
0000
0000
0000
,
0001
0000
0000
0000
,
0100
0000
0010
0010
,
0010
0000
0000
0000
,
0100
0000
0000
0000
,
0001
0000
0000
0000
,
1000
0000
0000
0000
,
1001
0000
0000
0000
,
1000
0000
0000
0000
,
0100
0000
0000
0000
,
1000
0000
0000
0000
,
0001
0000
0000
0000
,
0100
0000
0000
0000
,
0001
0000
0000
0000
,
0010
0000
0000
0000
,
0001
0000
0000
0000
,
1000
0000
0000
0000
,
0010
0000
0000
0000
,
1000
0000
0000
0000
,
0100
0000
0000
0000
,
1000
0000
0000
0000
,
0010
0000
0000
0000
,
0100
0000
0000
0000
,
0001
0000
0000
0000
,
1000
0000
0000
0000
,
0100
0000
0000
0000
,
1000
0000
0000
0000
,
0010
0000
0000
0000
,
0010
0000
0000
0000
,
0100
0000
0000
0000
,
0100
0000
0000
0000
,
0001
0000
0000
0000
,
1000
0000
0000
0000
,
0001
0000
0000
0000
,
1000
0000
0000
0000
,
0010
0000
0000
0000
,
0100
0000
0000
0000
,
0010
0000
0000
0000
,
0100
0000
0000
0000
,
0001
0000
0000
0000
;
