#TITLE:Love Again;
#SUBTITLE:;
#ARTIST:Pentatonix;
#TITLETRANSLIT:;
#SUBTITLETRANSLIT:;
#ARTISTTRANSLIT:;
#GENRE:POP-CAPELLA;
#CREDIT:;
#BANNER:[Round 6] - Love Again.png;
#BACKGROUND:[Round 6] - Love Again-bg.png;
#LYRICSPATH:;
#CDTITLE:cdtitle.png;
#MUSIC:[Round 6] - Love Again.ogg;
#OFFSET:-0.035000;
#SAMPLESTART:50.936283;
#SAMPLELENGTH:14.549976;
#SELECTABLE:YES;
#BPMS:0.000000=131.899002
,39.500000=132.199997
,47.000000=133.699997
,48.000000=131.959000
,72.000000=65.978996
,74.000000=66.099998
,75.000000=68.000000
,76.000000=131.959000
,139.000000=132.500000
,140.000000=132.000000
,224.000000=132.300003
,228.000000=132.100006
,256.000000=66.050003
;
#STOPS:
;
#BGCHANGES:;
#KEYSOUNDS:;
#ATTACKS:;

//---------------dance-single - ----------------
#NOTES:
     dance-single:
     :
     Challenge:
     9:
     0.648791,0.741592,0.082125,1.000000,0.316183,419.000000,10.000000,124.000000,26.000000,0.000000,0.000000,0.648791,0.741592,0.082125,1.000000,0.316183,419.000000,10.000000,124.000000,26.000000,0.000000,0.000000:
0000
0000
0000
0000
,
0000
0000
0000
0000
,
0000
0000
0000
0000
,
0000
0000
0000
0000
,
0002
0000
1003
0002
0000
0203
0000
0320
,
0000
2030
0000
3002
0000
0003
000M
0000
,
0002
0000
1003
0002
0000
0023
0000
2030
,
0000
3020
0000
0032
0000
0003
000M
0002
,
0000
0203
0000
2300
0000
3000
M000
2000
,
0000
3200
0000
0302
0000
0003
000M
0002
,
0010
0023
1000
2030
0010
3020
0001
0032
,
0100
0000
0000
0000
0203
0000
0000
0000
2300
0000
0000
0000
3200
0000
0000
0000
0302
0000
0000
0000
0023
0000
0000
0000
0230
0300
0000
0000
0000
0000
0000
0000
,
1000
0010
0001
0010
1000
0000
1000
0200
,
0001
0000
0000
0000
0301
0000
0100
0010
0001
0000
1000
0000
0010
0000
0100
0000
,
0001
0000
0001
1000
0100
1000
0100
0020
,
0001
0000
0001
0000
0031
2000
0001
0000
,
3001
0000
0000
0100
0000
0000
0001
0000
1000
0000
0000
0001
0000
0000
0020
0000
,
1000
0000
0000
0000
1030
0000
0010
0100
1000
0000
0001
0000
0100
0000
0010
0000
,
2000
0000
0000
3020
0000
0000
0032
0000
0000
0000
2003
0000
3200
0000
0302
0000
0000
0000
2000
0000
0000
0000
0000
0000
0003
0000
0000
0000
3100
0000
0010
0000
,
0001
0000
0010
0000
1000
0000
0010
0000
0001
0000
0100
0010
1000
0000
0100
0000
,
0001
0000
0100
0000
1000
0000
0010
0000
0100
0000
0001
1000
0100
0000
0010
0000
,
0001
0011
0000
1100
0000
1000
0010
0002
,
0000
1003
0001
0010
2000
3200
0302
0203
,
1300
0000
0010
1000
0010
0000
0100
0000
0001
0000
1000
0001
1000
0000
0100
0000
,
0010
0000
0001
1000
0010
0000
1000
0000
0100
0000
0010
0001
0100
0000
0010
0000
,
1020
0000
0000
0130
0000
0000
2001
0000
0000
3100
0000
0000
0010
0000
0001
0000
,
0100
0000
0000
0100
0010
0000
2000
0000
0002
0000
0000
0000
0000
0000
3003
0000
,
1001
0000
2000
0200
3000
0002
0300
2000
,
0000
0003
3002
2000
0003
0020
3000
0002
,
0000
0030
0203
2000
0300
0002
3000
2000
,
0000
0003
3002
0023
2030
3200
0310
0001
,
0100
0000
0000
0100
0002
0000
2000
0000
0003
0000
0002
0000
3000
0000
0200
0000
,
0003
2000
0300
0020
3000
2000
0030
3200
,
0301
0000
0020
0032
0100
0203
0010
0310
,
1010
0000
0000
0000
0000
0000
0000
0000
0000
0101
0000
0000
0000
0000
0000
0000
0000
0000
1001
0000
0000
0000
0000
0000
1000
0000
0000
0000
0100
0000
0000
0000
0010
0000
0000
0000
0001
0000
0000
0000
0000
0000
0000
0000
0000
0000
0000
0000
,
1000
0000
0000
0000
0000
0000
0100
0000
0000
0000
0000
0000
0010
0000
0001
0000
0010
0000
0001
0000
0000
0000
0000
0000
1000
0000
0000
0000
0000
0000
0001
0000
0000
1000
0000
0000
0001
0000
0000
1000
0000
0000
0001
0000
1000
0000
0001
0000
,
1000
0000
0000
0000
0010
0000
0000
0000
1000
0000
0000
0000
0001
0000
0000
0000
0010
0000
0000
0000
0100
0000
0000
0000
1000
0000
0000
0001
0000
0000
0010
0000
0000
0100
0000
0000
1000
0000
0000
0001
0000
0000
1000
0000
0000
0001
0000
0000
,
0100
0000
0000
0000
0000
0000
0010
0000
0000
0000
0000
0000
1000
0000
0010
0000
1000
0000
0010
0000
0000
0000
0000
0000
0100
0000
0000
0000
0000
0000
0010
0000
0000
1000
0000
0000
0010
0000
0000
1000
0000
0000
0001
0000
1000
0000
0001
0000
,
1000
0000
0000
0000
0001
0000
0000
0000
0010
0000
0000
0000
0100
0000
0000
1000
0000
0000
0001
0000
0000
0010
0000
0000
0100
0000
0000
1000
0000
0000
0010
0000
0000
1000
0000
0000
0001
0000
0000
0000
0000
0000
0000
0000
0000
0000
0000
0000
,
0100
0000
0000
0000
0000
0000
0010
0000
0000
0000
0000
0000
1000
0000
0001
0000
1000
0000
0001
0000
0000
0000
0000
0000
0100
0000
0000
0000
0000
0000
0001
0000
0000
0010
0000
0000
0100
0000
0000
1000
0000
0000
0001
0000
1000
0000
0001
0000
,
1000
0000
0000
0000
0001
0000
0000
0000
1000
0000
0000
0000
0001
0000
0000
0000
0100
0000
0000
0000
0010
0000
0000
0000
1000
0000
0000
0001
0000
0000
1000
0000
0000
0100
0000
0000
0010
0000
0000
0001
0000
0000
1000
0000
0000
0100
0000
0000
,
1000
0001
1000
0001
0100
0010
0100
0010
0100
0000
0010
0000
1000
0000
0100
0000
,
0010
0010
0001
0001
1000
2000
0000
0000
,
0000
0000
0000
0000
,
3M02
0000
1003
0002
0000
0203
0000
0320
,
0M00
2030
0000
3002
0000
2003
0000
3100
,
M020
0000
0130
2000
0000
3020
0000
0032
,
00M0
0023
1030
0200
0310
0001
1000
0010
,
M20M
0000
0301
2000
00MM
3200
0000
0320
,
M00M
0230
0000
2300
0M0M
3020
0000
0130
,
M0M2
0000
0013
0002
0MM0
2003
0000
3002
,
MM00
0023
1030
0020
M13M
0010
0001
1000
,
0001
0000
0000
0001
1000
0000
0001
0000
0100
0000
0010
0000
1M00
0000
0001
0000
,
1000
0000
0000
1000
0001
0000
1000
0000
0100
0000
0010
0000
0M01
0000
1000
0000
,
0001
0100
0001
0100
1000
0100
1000
0001
,
0010
0000
1000
0000
0100
0000
0010
0000
0001
1000
0100
0010
0001
0000
1000
0000
,
0110
0000
0000
0000
,
1001
0000
2000
0020
3000
0002
0030
2003
,
0001
0000
3002
0020
0003
2000
0030
3200
,
0010
0000
0320
2000
0030
0002
3000
2003
,
0001
0000
3002
0203
2300
3020
0130
0001
,
1000
0000
0000
1000
0100
0000
0001
0000
0100
0000
0000
0100
0001
0000
0100
0000
,
1000
0000
0000
1000
0010
0000
0001
0000
1000
0000
0000
1000
0100
0000
0001
0000
,
0010
0001
0100
0010
1000
0100
1000
0020
,
0001
0000
2030
3200
0302
0023
0000
0000
0030
0000
0000
0000
0000
0000
0000
0000
;

//---------------dance-single - ----------------
#NOTES:
     dance-single:
     :
     Hard:
     7:
     0.516217,0.635651,0.057488,0.944442,0.106763,318.000000,7.000000,115.000000,0.000000,0.000000,0.000000,0.516217,0.635651,0.057488,0.944442,0.106763,318.000000,7.000000,115.000000,0.000000,0.000000,0.000000:
0000
0000
0000
0000
,
0000
0000
0000
0000
,
0000
0000
0000
0000
,
0000
0000
0000
0000
,
0002
0000
1003
0002
0000
0203
0000
0320
,
0000
2030
0000
3002
0000
0000
0003
0000
,
0002
0000
1003
0002
0000
0023
0000
2030
,
0000
3020
0000
0032
0000
0000
0003
0002
,
0000
0203
0000
2300
0000
0000
3000
2000
,
0000
3200
0000
0302
0000
0000
0003
0002
,
0000
0023
0000
2030
0000
3020
0000
0032
,
0000
0000
0000
0000
0203
0000
0000
0000
0320
0000
0000
0000
2030
0000
0000
0000
3002
0000
0000
0000
0203
0000
0000
0000
0320
0030
0000
0000
0000
0000
0000
0000
,
1000
0010
1000
0010
0100
0000
0100
0002
,
0010
0000
0000
0000
0003
0000
0010
0001
0010
0000
0001
0000
0100
0000
0010
0000
,
1000
0000
0001
1000
0001
1000
0100
0020
,
0001
0000
0001
0000
0100
0230
1000
0000
,
1300
0000
0000
0010
0000
0000
0100
0000
0001
0000
0000
1000
0000
0000
0200
0000
,
0010
0000
0000
0000
0300
0000
1000
0100
1000
0000
0100
0000
1000
0000
0010
0000
,
0200
0000
0000
0302
0000
0000
2003
0000
0000
0000
3200
0000
0320
0000
0032
0000
0000
0000
2000
0000
0000
0000
0000
0000
0003
0000
0000
0000
3100
0000
0010
0000
,
0001
0010
0001
0010
0100
1000
0001
1000
,
0010
1000
0010
1000
0001
1000
0100
0010
,
0100
2000
0000
3020
0000
0230
0000
0302
,
0000
1000
2003
0000
3001
0100
0010
1000
,
0001
0000
0000
0010
0000
0000
0001
0000
1000
0000
0000
0010
0000
0000
1000
0000
,
0001
0000
0000
0100
0000
0000
0001
0000
0010
0000
0000
0100
0000
0000
1000
0000
,
0010
0000
0000
0010
0000
0000
0100
0000
0000
0010
0000
0000
2001
0000
0000
0000
,
3100
0000
0000
0010
0000
0000
0002
0000
2000
0000
0000
0000
0000
0000
3003
0000
,
1001
0000
1000
0200
0000
0320
0000
0032
,
0000
0000
1003
0020
0000
0230
0000
0302
,
0000
0000
1003
0200
0000
0320
0000
0032
,
0000
0000
0103
1000
0100
0002
1000
1003
,
0001
0000
0020
0032
0000
2003
0000
3002
,
0000
0023
0000
2030
0000
3020
0000
0032
,
0000
0000
1003
0010
0100
0001
1000
0001
,
1001
0000
0000
0000
0000
0000
0000
0000
0000
0110
0000
0000
0000
0000
0000
0000
0000
0000
1000
0000
0000
0000
0000
0000
0001
0000
0000
0000
1000
0000
0000
0000
0001
0000
0000
0000
1000
0000
0000
0000
0000
0000
0000
0000
0000
0000
0000
0000
,
0001
0000
0100
1000
0100
1000
0100
0001
,
0100
0000
0010
1000
0100
0000
1001
0000
,
1000
0000
0100
0001
0100
0001
0100
1000
,
0100
0000
0010
0001
0100
0000
0010
0000
,
2000
0000
3100
0010
0001
0200
0000
0000
,
0320
0000
0031
0010
1000
0200
0000
0000
,
0320
0000
1030
0010
0001
0100
0010
0100
,
0010
1000
0010
0100
0001
2000
0000
0000
,
0000
0000
0000
0000
,
3002
0000
0013
0002
0000
2003
0000
3020
,
0000
0230
0000
0302
0000
2003
0000
3100
,
0020
0000
0130
2000
0000
3002
0000
0203
,
0000
0000
0310
1000
0001
0020
0000
0000
,
0230
0000
1300
0020
0000
0230
0000
0302
,
0000
0023
0000
0032
0000
0203
0000
0310
,
2000
0000
3100
0020
0000
0032
0000
2003
,
0000
0000
3001
0100
0010
2000
0000
3002
,
0000
0023
0000
2030
0000
0000
3000
2000
,
0000
3020
0000
0032
0000
0000
0003
0002
,
0000
0203
0000
2300
0000
3020
0000
0032
,
0000
0000
1003
0001
,
0110
0000
0000
0000
,
1001
0000
0001
0010
0100
0010
0001
2000
,
0010
3000
1000
0010
1000
0100
0010
0002
,
0100
0003
0001
0010
0100
1000
0001
2000
,
0100
0000
3100
0001
0100
1000
0010
0100
,
0001
0000
0000
1000
0000
0000
0100
0000
0010
0000
0000
0001
0000
0000
0100
0000
,
0010
0000
0000
1000
0000
0000
0001
0000
0010
0000
0000
1000
0000
0000
0010
0000
,
0001
0100
0001
0010
0100
1000
0010
1000
,
0200
0000
0302
0203
2300
3020
0000
0000
0030
0000
0000
0000
0000
0000
0000
0000
;

//---------------dance-single - ----------------
#NOTES:
     dance-single:
     :
     Medium:
     6:
     0.422359,0.397282,0.131401,0.476327,0.012319,286.000000,16.000000,58.000000,0.000000,0.000000,0.000000,0.422359,0.397282,0.131401,0.476327,0.012319,286.000000,16.000000,58.000000,0.000000,0.000000,0.000000:
// measure 0
0000
0000
0000
0000
,  // measure 1
0000
0000
0000
0000
,  // measure 2
0000
0000
0000
0000
,  // measure 3
0000
0000
0000
0000
,  // measure 4
0002
0000
0003
2000
0000
3200
0000
0320
,  // measure 5
0000
0032
0000
2003
0000
0000
3000
0000
,  // measure 6
0002
0000
0003
2000
0000
3020
0000
0230
,  // measure 7
0000
0302
0000
0023
0000
0000
0030
0200
,  // measure 8
0000
2300
0000
3020
0000
0000
0030
0200
,  // measure 9
0000
0302
0000
0023
0000
0000
0030
0200
,  // measure 10
0000
2300
0000
3020
0000
0230
0000
0302
,  // measure 11
0000
0013
0100
1000
0001
0010
0100
0000
,  // measure 12
1000
0000
1000
0000
0001
0000
0100
0020
,  // measure 13
0000
0000
0130
0001
1000
0001
0010
0000
,  // measure 14
0100
0000
0100
0000
1000
0000
0001
2000
,  // measure 15
0000
0000
3001
0000
1000
0001
1000
0000
,  // measure 16
0010
0000
0010
0000
0100
0000
0001
2000
,  // measure 17
0000
0000
3001
0010
0100
0010
0001
0000
,  // measure 18
0200
0000
0000
0000
0000
0000
0000
0000
0300
0020
0000
0000
0000
0000
0000
0000
,  // measure 19
1030
0000
1000
0000
0010
0100
0001
1000
,  // measure 20
0001
0000
0001
0000
0010
0100
1000
0001
,  // measure 21
0100
0010
0000
0110
0000
1001
0000
1002
,  // measure 22
0000
1003
0100
0000
0010
0001
0100
0001
,  // measure 23
1000
0000
1000
0000
0010
1000
0001
0010
,  // measure 24
0100
0000
0100
0000
1000
0010
0100
0001
,  // measure 25
1000
0000
0010
1000
0001
0000
0010
0001
,  // measure 26
1000
0000
0010
1000
0002
0000
0000
0000
,  // measure 27
1003
0000
0010
1000
0000
0100
0000
1002
,  // measure 28
0000
0000
0013
0001
0000
0100
0000
2001
,  // measure 29
0000
0000
3010
1000
0000
0100
0000
0021
,  // measure 30
0000
0000
0031
0100
0010
2000
0000
0000
,  // measure 31
3001
0000
0010
0001
0000
0100
0000
2001
,  // measure 32
0000
3010
0000
1020
0000
0130
0000
0100
,  // measure 33
0001
0000
0010
0001
0000
0100
0000
0010
,  // measure 34
1000
0000
1000
0100
0001
0100
1000
0000
,  // measure 35
0001
0000
0010
0001
0010
0001
1000
0001
,  // measure 36
0100
0101
1010
0101
,  // measure 37
1000
0000
0010
1000
0010
1000
0001
1000
,  // measure 38
0100
1100
0011
1001
,  // measure 39
1000
0000
0010
1000
0010
0200
0000
0000
,  // measure 40
0301
0000
0010
0001
0010
0200
0000
0000
,  // measure 41
1300
0000
0001
0100
0010
2000
0000
3001
,  // measure 42
0010
0200
0000
1300
0010
0200
0000
0000
,  // measure 43
0000
0000
0000
0000
,  // measure 44
0301
0000
1000
0100
0000
1000
0000
0100
,  // measure 45
0000
0010
0000
0001
0000
0100
0000
0001
,  // measure 46
1000
0000
0001
0100
0000
0001
0000
2000
,  // measure 47
0000
0000
3100
1000
0001
0020
0000
0000
,  // measure 48
0031
0000
1000
0010
0000
0100
0000
0001
,  // measure 49
0000
0010
0000
1000
0000
0010
0000
0001
,  // measure 50
0010
0000
0100
1000
0000
0001
0000
0200
,  // measure 51
0000
0000
0301
1000
0100
0020
0000
0000
,  // measure 52
0031
0000
0001
1000
0001
0200
0000
0000
,  // measure 53
0301
0000
0001
1000
0001
0200
0000
0301
,  // measure 54
1000
0200
0000
1300
0001
0020
0000
0230
,  // measure 55
0000
0010
0010
0310
,  // measure 56
0110
0000
0000
0000
,  // measure 57
1001
0000
1000
0010
0000
0100
0001
2000
,  // measure 58
0000
0000
3001
0010
0000
0100
1000
0002
,  // measure 59
0000
0000
1003
0010
0000
0100
0001
0020
,  // measure 60
0000
0000
0130
1000
0010
0100
0001
0000
,  // measure 61
1000
0000
0010
0100
0000
0010
1000
0200
,  // measure 62
0000
0310
0001
2000
0000
3001
0100
0020
,  // measure 63
0000
0000
1030
0010
0100
0001
1000
0001
,  // measure 64
2000
0000
3100
1000
0001
0020
0000
0000
0030
0000
0000
0000
0000
0000
0000
0000
;

//---------------dance-single - ----------------
#NOTES:
     dance-single:
     :
     Easy:
     3:
     0.207660,0.243912,0.106763,0.090338,0.000000,153.000000,13.000000,11.000000,0.000000,0.000000,0.000000,0.207660,0.243912,0.106763,0.090338,0.000000,153.000000,13.000000,11.000000,0.000000,0.000000,0.000000:
// measure 0
0000
0000
0000
0000
,  // measure 1
0000
0000
0000
0000
,  // measure 2
0000
0000
0000
0000
,  // measure 3
0000
0000
0000
0000
,  // measure 4
0001
0000
0000
0100
0000
0000
0000
0010
,  // measure 5
0000
0000
0000
1000
0000
0000
0000
0000
,  // measure 6
1000
0000
0000
0100
0000
0000
0000
1000
,  // measure 7
0000
0000
0000
0001
0000
0000
0000
1000
,  // measure 8
0000
0000
0000
0001
0000
0000
0000
1000
,  // measure 9
0000
0000
0000
0001
0000
0000
0000
1000
,  // measure 10
0000
0000
0000
1000
0000
0000
0000
1000
,  // measure 11
0000
0000
0001
0000
1000
0000
0002
0003
,  // measure 12
1000
0000
1000
0000
,  // measure 13
0100
0000
0010
0001
,  // measure 14
0100
0000
0001
0000
,  // measure 15
2000
0000
3001
1000
,  // measure 16
0001
0000
0001
0000
,  // measure 17
0100
0000
0010
1000
,  // measure 18
2002
0000
3003
0000
,  // measure 19
0000
2000
0000
0000
0000
0000
0000
0000
,  // measure 20
3001
0001
0100
0100
,  // measure 21
0010
1000
0001
1000
,  // measure 22
0000
0100
0100
0100
,  // measure 23
0020
0000
0030
0001
,  // measure 24
1000
1000
0001
0001
,  // measure 25
0010
0100
1000
0001
,  // measure 26
0000
0101
0000
1010
,  // measure 27
0000
0101
0000
0000
,  // measure 28
0000
0001
0000
0001
,  // measure 29
0000
1000
0000
1000
,  // measure 30
0000
0001
0000
0010
,  // measure 31
0000
0100
0000
1000
,  // measure 32
1000
0000
0001
0000
,  // measure 33
0100
0000
0010
0000
,  // measure 34
1000
0000
0100
0000
,  // measure 35
1001
0000
0000
0110
,  // measure 36
1001
0001
0100
0100
,  // measure 37
0000
0001
0100
0010
,  // measure 38
0000
1000
1000
0100
,  // measure 39
0000
1000
0100
0110
,  // measure 40
1001
1000
0010
0000
,  // measure 41
1000
0001
0010
0000
,  // measure 42
0001
0000
0100
0000
0010
0000
0000
0010
,  // measure 43
0000
0000
0000
0010
0000
0020
0000
0000
,  // measure 44
0000
0000
0000
0000
,  // measure 45
1030
0000
1000
0000
,  // measure 46
0001
0000
0001
0000
,  // measure 47
1000
0000
1000
0000
,  // measure 48
0001
0000
0001
0000
,  // measure 49
1000
0000
0100
0000
,  // measure 50
0010
0000
0001
0000
,  // measure 51
0100
0000
0010
0000
,  // measure 52
1000
0000
0000
0000
0001
0000
0000
1000
,  // measure 53
0000
0000
0000
0001
0000
0000
0000
1000
,  // measure 54
0000
0000
0000
0001
0000
0000
0000
1000
,  // measure 55
0000
0000
0000
1000
0000
0000
0000
0220
,  // measure 56
0000
0000
0000
0330
,  // measure 57
1001
0000
0000
0000
,  // measure 58
1001
0001
1000
0100
,  // measure 59
0100
1000
0001
0100
,  // measure 60
0100
0001
1000
0010
,  // measure 61
0010
1000
0100
0010
,  // measure 62
0001
1000
1000
0001
,  // measure 63
1000
0100
0010
0100
,  // measure 64
1000
0001
0100
0010
,  // measure 65
2002
0000
0000
0000
,  // measure 66
3003
0000
0000
0000
;

//---------------dance-single - ----------------
#NOTES:
     dance-single:
     :
     Beginner:
     1:
     0.118495,0.162608,0.032850,0.057488,0.000000,90.000000,4.000000,7.000000,0.000000,0.000000,0.000000,0.118495,0.162608,0.032850,0.057488,0.000000,90.000000,4.000000,7.000000,0.000000,0.000000,0.000000:
0000
0000
0000
0000
,
0000
0000
0000
0000
,
0000
0000
0000
0000
,
0000
0000
0000
0000
,
0001
0000
0000
0000
,
0000
0000
0000
0000
,
1000
0000
0000
0000
,
0000
0000
0000
0000
,
0100
0000
0000
0000
,
0100
0000
0000
0000
,
0100
0000
0100
0000
,
0100
0100
0100
0000
,
1000
0000
1000
0000
,
0010
0000
0000
0000
,
0100
0000
0100
0000
,
0001
0000
0000
1000
,
1000
0000
0001
0000
,
1000
0000
0000
0000
,
2002
0000
3003
0000
,
0000
0000
0000
0000
,
0001
0000
0001
0000
,
1000
0000
1000
0000
,
0000
0010
0010
0010
,
0010
0000
0000
0000
,
1000
0000
1000
0000
,
0001
0000
0001
0000
,
0000
0100
0000
0100
,
0000
0100
0000
0000
,
0001
0000
0000
0000
,
0010
0000
0000
0000
,
0100
0000
0000
0000
,
1000
0000
0000
0000
,
0001
0000
0000
0000
,
1000
0000
0000
0000
,
0010
0000
0000
0000
,
0100
0000
0100
0000
,
0001
0000
0001
0000
,
0000
0000
1000
0000
,
0001
0000
0001
0000
,
0000
0000
1000
0000
,
0001
0000
0100
0000
,
0001
0000
0100
0000
,
0010
0000
1000
0000
,
1000
0000
2000
0000
,
0000
0000
0000
3000
,
0001
0000
0000
0000
,
0001
0000
0000
0000
,
1000
0000
0000
0000
,
1000
0000
0000
0000
,
0001
0000
0001
0000
,
1000
0000
1000
0000
,
0001
0000
0001
0000
,
1000
0000
1000
0000
,
0100
0000
0000
0000
,
0100
0000
0000
0000
,
0100
0000
0100
0000
,
0220
0000
0000
0000
,
0330
0000
0000
0000
,
1001
0000
0001
0000
,
1000
0000
1000
0000
,
0010
0000
0010
0000
,
0100
0000
0100
0000
,
0001
0000
1000
0000
,
0001
0000
1000
0000
,
0100
0000
0010
0000
,
2002
0000
0000
0000
,
3003
0000
0000
0000
;
