#TITLE:Electrodynamix;
#SUBTITLE:;
#ARTIST:DJ Nate;
#TITLETRANSLIT:;
#SUBTITLETRANSLIT:;
#ARTISTTRANSLIT:;
#GENRE:please make it superfast;
#CREDIT:;
#BANNER:banner.png;
#BACKGROUND:bg.png;
#LYRICSPATH:;
#CDTITLE:;
#MUSIC:Dj Nate - Electrodynamix.mp3;
#OFFSET:0.310000;
#SAMPLESTART:37.862988;
#SAMPLELENGTH:15.110672;
#SELECTABLE:YES;
#BPMS:0.000000=126.999992
,17.000000=253.999985
,73.000000=126.999992
,77.000000=253.999985
,165.000000=126.999992
,169.000000=253.999985
,201.000000=507.999969
,393.000000=126.999992
,397.000000=507.999969
,413.000000=126.999992
;
#STOPS:
;
#BGCHANGES:;
#KEYSOUNDS:;
#ATTACKS:;

//---------------dance-single - ----------------
#NOTES:
     dance-single:
     :
     Challenge:
     11:
     1.000000,1.000000,1.000000,0.456879,0.054104,419.000000,155.000000,38.000000,0.000000,0.000000,0.000000,1.000000,1.000000,1.000000,0.456879,0.054104,419.000000,155.000000,38.000000,0.000000,0.000000,0.000000:
// measure 0
0000
0000
0000
0000
,  // measure 1
0000
0000
0000
0000
,  // measure 2
0000
0000
0000
0000
,  // measure 3
0000
0000
0000
0000
0000
0000
0001
0000
1000
1000
0010
1000
1000
0001
0010
0000
,  // measure 4
1001
0110
0120
1030
,  // measure 5
0100
0010
0001
0100
0010
1000
0100
0010
,  // measure 6
0100
1000
0010
1000
0100
0010
0001
1000
,  // measure 7
0100
0010
0001
0100
0010
1000
0001
0100
,  // measure 8
0010
1000
1001
0000
2001
0000
3100
0000
,  // measure 9
1000
0000
0010
0100
0010
1000
0100
0010
,  // measure 10
0100
1000
0001
0100
0010
1000
0001
0100
,  // measure 11
0010
1000
0001
0010
0100
1000
0001
0010
,  // measure 12
0100
1000
0001
0100
1000
0100
0001
0010
,  // measure 13
1000
0010
0001
0000
0010
0000
2002
0000
,  // measure 14
3003
0000
1000
0010
0100
0010
1000
0100
,  // measure 15
0010
0100
1000
0001
0100
0001
0010
0001
,  // measure 16
0100
0010
0110
0000
0210
0000
0301
0000
,  // measure 17
1000
0100
1000
0001
0100
0001
1000
0010
,  // measure 18
1000
0000
0001
0000
0010
0000
0001
0000
1000
0100
1000
0001
0100
0001
1000
0000
,  // measure 19
1001
1010
0012
1003
,  // measure 20
0010
0100
0110
0000
0101
0000
0011
0000
,  // measure 21
1100
0011
1010
0110
,  // measure 22
0001
1000
2002
0000
3003
0000
1001
0000
,  // measure 23
0110
1010
0101
1010
,  // measure 24
0101
1010
0011
0101
,  // measure 25
1100
1001
2001
3100
,  // measure 26
1000
0001
2002
0000
3003
0000
1001
0000
,  // measure 27
0110
0000
2100
0000
3010
0100
0001
0010
,  // measure 28
0100
0001
1000
0000
1000
0001
0100
0010
,  // measure 29
0001
0100
0110
0000
0102
0000
1003
0000
,  // measure 30
0001
0010
0220
0000
0330
0000
0110
0000
,  // measure 31
1001
1010
0101
0001
,  // measure 32
1000
0100
1000
0000
1100
0000
0101
0000
,  // measure 33
0110
1001
1100
1001
,  // measure 34
0101
1001
1010
0011
,  // measure 35
1001
2100
3010
0101
,  // measure 36
0001
0010
0011
0000
1001
0000
1010
0000
,  // measure 37
0110
2001
3100
0120
,  // measure 38
0031
1000
0001
0000
0101
0000
1100
0000
,  // measure 39
0101
1020
0031
1000
,  // measure 40
0100
0010
1000
0000
1100
0000
0011
0000
,  // measure 41
1001
0000
1010
0011
0100
0100
0011
2010
,  // measure 42
3001
0100
0010
0000
1010
0000
0000
0000
1001
0000
0000
0000
1001
0000
0000
0000
,  // measure 43
1100
0011
1010
0101
,  // measure 44
1100
1001
1001
0101
,  // measure 45
0010
0100
0110
0000
1010
0000
1100
0000
,  // measure 46
0101
0011
1001
0210
,  // measure 47
0301
1000
0001
0000
1100
0000
1100
0000
,  // measure 48
0011
0101
0101
1010
,  // measure 49
0010
0100
0010
0000
0100
0001
1000
0000
,  // measure 50
1001
1010
0000
0101
,  // measure 51
0000
1001
0000
1200
,  // measure 52
0000
0301
0000
0201
,  // measure 53
0000
2000
0000
3300
,  // measure 54
0000
0011
0000
1100
,  // measure 55
0000
1001
0000
1000
,  // measure 56
0100
0001
0100
1000
,  // measure 57
0010
0002
0000
1003
,  // measure 58
0000
0110
0000
1001
,  // measure 59
0000
1001
0000
0201
,  // measure 60
0000
1300
0000
1200
,  // measure 61
0000
0002
0000
0303
,  // measure 62
0000
1010
0000
0101
,  // measure 63
0000
1001
0000
1000
,  // measure 64
0010
0001
0010
1000
,  // measure 65
0100
0002
0000
1003
,  // measure 66
0000
1000
0100
0010
,  // measure 67
0001
1000
0100
0010
,  // measure 68
0001
1000
0010
0100
,  // measure 69
0001
1000
0010
0100
,  // measure 70
0001
1000
0100
0010
,  // measure 71
0001
1000
0100
0010
,  // measure 72
0001
1000
0010
0100
,  // measure 73
0001
1000
0010
0100
,  // measure 74
0001
1001
0000
1100
,  // measure 75
0000
0011
0000
1200
,  // measure 76
0000
0310
0000
0201
,  // measure 77
0000
0020
0000
0330
,  // measure 78
0000
1100
0000
0101
,  // measure 79
0000
0110
0000
1000
,  // measure 80
0100
0001
0100
1000
,  // measure 81
0010
0001
0010
1000
,  // measure 82
0100
0001
0000
0101
,  // measure 83
0000
1100
0000
1000
,  // measure 84
0010
1010
0000
0101
,  // measure 85
0000
1100
0000
0011
,  // measure 86
0000
1001
0000
1001
,  // measure 87
0000
0210
0000
0301
,  // measure 88
0100
0101
0000
1010
,  // measure 89
0000
1100
0000
0011
,  // measure 90
0000
1001
0000
1001
,  // measure 91
0000
0120
0000
1030
,  // measure 92
0010
1010
0000
0011
,  // measure 93
0000
1010
0000
0011
,  // measure 94
0000
1200
0000
0301
,  // measure 95
0000
1001
0000
0001
,  // measure 96
1000
0001
0000
1001
,  // measure 97
0000
0001
0100
1000
,  // measure 98
0000
0000
0000
0000
1001
0000
2001
0000
3100
0000
0010
0100
1000
0000
0101
0000
,  // measure 99
1100
0102
1003
0000
0100
0000
0010
0000
,  // measure 100
0001
1000
0100
0010
,  // measure 101
0001
1000
0010
0100
,  // measure 102
0001
1000
0010
0100
,  // measure 103
0001
0000
0000
0000
1001
0000
1002
0000
0013
0000
0001
1000
1010
0000
0110
0000
,  // measure 104
0101
1001
0000
0000
0000
0000
0000
0000
;

//---------------dance-single - ----------------
#NOTES:
     dance-single:
     :
     Beginner:
     2:
     0.187217,0.376024,0.384740,0.000000,0.000000,77.000000,32.000000,0.000000,30.000000,0.000000,0.000000,0.187217,0.376024,0.384740,0.000000,0.000000,77.000000,32.000000,0.000000,30.000000,0.000000,0.000000:
0000
0000
0000
0000
,
0000
0000
0000
0000
,
0000
0000
0000
0000
,
0000
0000
0000
0000
,
0000
0010
0000
0000
,
0000
0010
0000
0000
,
0000
0010
0000
0000
,
0000
0000
0000
0000
,
0000
0100
0000
0000
,
0000
0100
0000
0000
,
0000
0100
0000
0000
,
0000
0000
0000
0000
,
0000
0001
0000
0000
,
0000
1000
0000
0000
,
0000
0001
0000
0000
,
0000
0000
0000
0000
,
0000
1000
0000
0000
,
0000
0001
0000
0000
,
0000
1001
0000
0000
,
0000
1000
0000
0000
,
0000
0100
0000
0000
,
0000
0010
0000
0000
,
0000
0110
0000
0000
,
0000
0010
0000
0000
,
0000
0001
0000
0000
,
0000
0100
0000
0000
,
0000
0110
0000
0000
,
0000
0010
0000
0000
,
0000
1000
0000
0000
,
0000
0100
0000
0000
,
0000
0110
0000
0000
,
0000
0010
0000
0000
,
0000
0001
0000
0000
,
0000
1000
0000
0000
,
0000
1001
0000
0000
,
0000
0110
0000
0000
,
0000
0110
0000
0000
,
0000
1001
0000
0000
,
0000
1001
0000
0000
,
0000
0110
0000
0000
,
0000
1001
0000
0000
,
0000
0110
0000
0000
,
0000
1001
0000
0000
,
0000
1001
0000
0000
,
0000
0110
0000
0000
,
0000
1001
0000
0000
,
0000
0110
0000
0000
,
0000
0110
0000
0000
,
0000
1001
0000
0000
,
0000
0110
0000
0000
,
0000
1001
0000
0000
,
0000
M000
0000
0000
,
0000
1000
0000
0000
,
0000
000M
0000
0000
,
0000
0001
0000
0000
,
0000
M000
0000
0000
,
0000
1000
0000
0000
,
0000
M00M
0000
0000
,
0000
1001
0000
0000
,
0000
000M
0000
0000
,
0000
0001
0000
0000
,
0000
0M00
0000
0000
,
0000
1000
0000
0000
,
0000
00M0
0000
0000
,
0000
0010
0000
0000
,
0000
0MM0
0000
0000
,
0000
0110
0000
0000
,
0000
0M00
0000
0000
,
0000
0100
0000
0000
,
0000
00M0
0000
0000
,
0000
0010
0000
0000
,
0000
0M00
0000
0000
,
0000
0100
0000
0000
,
0000
0MM0
0000
0000
,
0000
0110
0000
0000
,
0000
00M0
0000
0000
,
0000
0010
0000
0000
,
0000
M000
0000
0000
,
0000
1000
0000
0000
,
0000
000M
0000
0000
,
0000
0001
0000
0000
,
0000
M00M
0000
0000
,
0000
1001
0000
0000
,
0000
00M0
0000
0000
,
0000
0010
0000
0000
,
0000
0010
0000
0000
,
0000
0010
0000
0000
,
0000
0M00
0000
0000
,
0000
0100
0000
0000
,
0000
0100
0000
0000
,
0000
0100
0000
0000
,
0000
000M
0000
0000
,
0000
0001
0000
0000
,
0000
0001
0000
0000
,
0000
0001
0000
0000
,
0000
M000
0000
0000
,
0000
1000
0000
0000
,
0000
M00M
0000
0000
,
0000
1001
0000
0110
,
0000
1001
0000
0000
,
0000
M00M
0000
0000
,
0000
1001
0000
0000
,
0000
0MM0
0000
0000
,
0000
0110
0000
0110
,
0000
1001
0000
0000
;

//---------------dance-single - ----------------
#NOTES:
     dance-single:
     :
     Easy:
     5:
     0.434550,0.564035,0.721388,0.240463,0.000000,173.000000,60.000000,20.000000,0.000000,0.000000,0.000000,0.434550,0.564035,0.721388,0.240463,0.000000,173.000000,60.000000,20.000000,0.000000,0.000000,0.000000:
0000
0000
0000
0000
,
0000
0000
0000
0000
,
0000
0000
0000
0000
,
0000
0000
0000
0000
,
0000
1000
0000
1000
,
0000
1000
0100
0010
,
0000
0020
0000
0031
,
0000
0002
0000
1003
,
0000
0001
0000
0001
,
0000
0001
0100
0010
,
0000
0020
0000
1030
,
0000
2000
0000
3001
,
0000
0010
0000
0010
,
0100
0010
0000
1001
,
0000
1000
0000
0001
,
0000
0100
0000
0001
,
0000
1000
0000
1000
,
0000
1000
0100
0010
,
0000
0100
0020
0200
,
0330
1001
0000
1001
,
0000
1000
0100
0010
,
0000
0110
0000
0110
,
0000
2002
0000
3003
,
0000
1001
0000
1010
,
0000
0110
0000
0101
,
0000
1001
0000
1001
,
0000
0220
0000
0330
,
0000
0010
0100
0010
,
0001
1000
0001
1000
,
0010
0100
0000
0110
,
0000
2002
0000
3003
,
0000
1001
0000
1000
,
0100
0010
0000
0010
,
0000
0110
0000
0011
,
0000
1001
0000
0110
,
0000
2001
0000
0100
,
0000
0001
0000
3100
,
0000
0120
0000
0100
,
0000
0130
0000
0110
,
0000
0012
0000
1000
,
0000
0010
0000
1003
,
0000
1001
0000
1001
,
0000
1002
0000
0100
,
0000
1000
0000
0103
,
0000
0210
0000
0010
,
0000
0010
0000
0310
,
0000
2010
0000
0001
,
0000
0010
0000
3001
,
0000
1001
0000
1001
,
0000
0110
0000
1001
,
0000
1000
0000
0001
,
0000
1000
0000
0001
,
0000
1000
0000
0000
,
0000
1001
0000
0000
,
0000
1000
0000
0100
,
0000
1000
0000
0100
,
0000
1000
0000
0000
,
0000
1100
0000
0000
,
0000
0100
0000
0010
,
0000
0100
0000
0010
,
0000
0100
0000
0000
,
0000
0110
0000
0000
,
0000
0010
0000
0001
,
0000
0010
0000
0001
,
0000
0010
0000
0000
,
0000
0011
0000
0000
,
0000
1001
0000
0000
,
0000
1001
0000
0000
,
0000
1100
0000
0000
,
0000
1100
0000
0000
,
0000
0110
0000
0000
,
0000
0110
0000
0000
,
0000
0011
0000
0000
,
0000
0011
0000
0000
,
0000
1001
0000
0000
,
0000
1001
0000
0000
,
0000
2010
0000
0000
,
0000
3010
0000
0000
,
0000
1001
0000
0000
,
0000
1001
0000
0000
,
0000
0012
0000
0000
,
0000
0013
0000
0000
,
0000
1000
0000
0000
,
0000
1000
0000
0100
,
0000
0010
0000
0000
,
0000
0010
0000
0001
,
0000
1000
0000
0000
,
0000
0010
0000
0100
,
0000
0001
0000
0000
,
0000
0001
0000
1000
,
0000
0100
0000
0000
,
0000
0010
0000
0001
,
0000
1000
0000
0000
,
0000
0010
0000
1000
,
0000
0001
0000
0000
,
0000
0010
0000
0001
,
0000
1000
0000
0010
,
0000
1000
0000
0000
,
0000
1001
0000
1100
,
0000
0110
0000
0000
,
0000
0110
0000
0000
,
0000
0110
0000
0000
,
0000
0110
0000
0000
,
0000
0110
0000
0101
,
0000
1001
0000
0000
;

//---------------dance-single - ----------------
#NOTES:
     dance-single:
     :
     Medium:
     7:
     0.597721,0.875284,0.889712,0.264509,0.006012,252.000000,74.000000,22.000000,0.000000,0.000000,0.000000,0.597721,0.875284,0.889712,0.264509,0.006012,252.000000,74.000000,22.000000,0.000000,0.000000,0.000000:
// measure 0
0000
0000
0000
0000
,  // measure 1
0000
0000
0000
0000
,  // measure 2
0000
0000
0000
0000
,  // measure 3
0000
0000
0000
0000
,  // measure 4
0000
1000
0001
1000
,  // measure 5
0001
0100
0010
1000
,  // measure 6
0001
0010
0000
0010
,  // measure 7
0001
0010
0000
0011
,  // measure 8
0000
0001
1000
0001
,  // measure 9
1000
0100
1000
0001
,  // measure 10
1000
0010
0000
0010
,  // measure 11
1000
0010
0000
1010
,  // measure 12
0000
1000
0001
0100
,  // measure 13
1000
0100
0000
0102
,  // measure 14
0000
1003
0000
1000
,  // measure 15
0100
1000
0000
1100
,  // measure 16
0000
0010
0001
0010
,  // measure 17
0001
1000
0010
1000
,  // measure 18
0010
0000
1000
0000
0100
0000
0010
0001
,  // measure 19
1000
1001
0000
1001
,  // measure 20
0000
1000
0100
1100
,  // measure 21
0000
1001
0000
0101
,  // measure 22
0000
0110
0000
0010
,  // measure 23
1000
2002
3003
2200
,  // measure 24
3300
0202
0303
2002
,  // measure 25
3003
0110
0000
0110
,  // measure 26
0110
2002
3003
1001
,  // measure 27
0000
0001
0100
0010
,  // measure 28
1000
0001
1000
0100
,  // measure 29
0010
0001
0000
1001
,  // measure 30
1001
0220
0330
0110
,  // measure 31
0000
1001
0000
1100
,  // measure 32
0000
0101
0101
0011
,  // measure 33
0000
2002
3003
2020
,  // measure 34
3030
2002
3003
0022
,  // measure 35
0033
1001
0000
1000
,  // measure 36
0001
1000
0100
1000
,  // measure 37
0001
0101
0000
0100
,  // measure 38
0010
1000
0100
0010
,  // measure 39
0001
0011
0000
0001
,  // measure 40
1000
0010
0100
0001
,  // measure 41
0010
0011
1010
1001
,  // measure 42
0001
1000
0001
0000
1001
0000
0000
0000
1001
0000
0000
0000
1001
0000
0000
0000
,  // measure 43
0000
1000
0100
0001
,  // measure 44
0100
1000
0001
0001
,  // measure 45
1000
0000
0001
1000
,  // measure 46
0010
1000
0001
0010
,  // measure 47
0000
0010
0001
1000
,  // measure 48
0010
0100
0100
0010
,  // measure 49
0000
0100
0010
0110
,  // measure 50
0000
1001
0000
1001
,  // measure 51
0000
1001
0000
0000
,  // measure 52
0000
1000
0000
0100
,  // measure 53
0000
1100
0000
0000
,  // measure 54
0000
1001
0000
1001
,  // measure 55
0000
1001
0000
0000
,  // measure 56
0000
0001
0100
0001
,  // measure 57
0100
0001
0000
0000
,  // measure 58
0000
1001
0000
1001
,  // measure 59
0000
1001
0000
0000
,  // measure 60
0000
1000
0000
0010
,  // measure 61
0000
1010
0000
0000
,  // measure 62
0000
1001
0000
1001
,  // measure 63
0000
1001
0000
0000
,  // measure 64
0000
0001
0010
0001
,  // measure 65
0010
0001
0000
0000
,  // measure 66
0000
1000
0000
0100
,  // measure 67
0000
1000
0000
0100
,  // measure 68
0000
0010
0000
0001
,  // measure 69
0000
0010
0000
0001
,  // measure 70
0000
1000
0000
0010
,  // measure 71
0000
1000
0000
0010
,  // measure 72
0000
0100
0000
0001
,  // measure 73
0000
0100
0000
0001
,  // measure 74
0000
1001
0000
1001
,  // measure 75
0000
1001
0000
0000
,  // measure 76
0000
0010
0000
0100
,  // measure 77
0000
0110
0000
0000
,  // measure 78
0000
1001
0000
1001
,  // measure 79
0000
1001
0000
0000
,  // measure 80
0000
0100
0010
0100
,  // measure 81
0010
0100
0000
0000
,  // measure 82
0000
1001
0000
0000
,  // measure 83
0000
1000
0000
0100
,  // measure 84
0000
0001
0000
0100
,  // measure 85
0000
1000
0000
0000
,  // measure 86
0000
1001
0000
0000
,  // measure 87
0000
0001
0000
0100
,  // measure 88
0000
1000
0000
0100
,  // measure 89
0000
0001
0000
0000
,  // measure 90
0000
1001
0000
0000
,  // measure 91
0000
1000
0000
0100
,  // measure 92
0000
0010
0000
0001
,  // measure 93
0000
0100
0000
0010
,  // measure 94
0000
1001
0000
0000
,  // measure 95
0000
1001
0000
0000
,  // measure 96
0000
1001
0000
0110
,  // measure 97
0000
1001
0000
0110
,  // measure 98
0000
2001
0100
0100
,  // measure 99
3001
0100
0010
0100
,  // measure 100
0010
0100
0010
0100
,  // measure 101
0010
0100
0010
0100
,  // measure 102
0010
0100
0010
0100
,  // measure 103
0010
0100
1000
0001
,  // measure 104
1001
0000
0000
0000
;

//---------------dance-single - ----------------
#NOTES:
     dance-single:
     :
     Hard:
     10:
     0.946392,1.000000,1.000000,0.348671,0.018035,389.000000,133.000000,29.000000,0.000000,0.000000,0.000000,0.946392,1.000000,1.000000,0.348671,0.018035,389.000000,133.000000,29.000000,0.000000,0.000000,0.000000:
// measure 0
0000
0000
0000
0000
,  // measure 1
0000
0000
0000
0000
,  // measure 2
0000
0000
0000
0000
,  // measure 3
0000
0000
0000
0000
,  // measure 4
0000
1001
1001
0001
,  // measure 5
0010
0100
0010
0001
1000
0001
0100
0010
,  // measure 6
0100
0001
1000
0000
0001
1000
0001
1000
,  // measure 7
0001
1000
0001
0000
0100
0010
0100
0010
,  // measure 8
0100
0010
0110
0000
1001
0000
1000
0000
,  // measure 9
1000
0100
0010
0001
1000
0010
0100
0001
,  // measure 10
1000
0100
0010
0000
0100
0010
0100
0010
,  // measure 11
0100
0010
0100
0000
1000
0001
1000
0001
,  // measure 12
1000
0001
1000
0010
0001
0010
1000
0100
,  // measure 13
0001
0100
1000
0000
0000
0000
2002
0000
,  // measure 14
3003
0000
1000
0001
1000
0100
1000
0001
,  // measure 15
1000
0001
0100
0010
0100
0001
0100
0010
,  // measure 16
0100
0010
0110
0000
1001
0000
0000
0000
,  // measure 17
0000
0001
1000
0100
1000
0001
0100
0001
,  // measure 18
1000
0000
0100
0000
0001
0000
0100
0000
1000
0000
0001
0000
0100
0010
0100
0000
,  // measure 19
0110
1001
1001
0001
,  // measure 20
0100
0010
0110
0000
0101
0000
1001
0000
,  // measure 21
0011
0110
0110
0020
,  // measure 22
0031
2000
0002
0000
3003
0000
1001
0000
,  // measure 23
1100
0011
0001
0010
,  // measure 24
0001
0011
1010
0011
,  // measure 25
1010
0110
0110
0020
,  // measure 26
1030
0002
2000
0000
3003
0000
1001
0000
,  // measure 27
0101
0000
0001
0100
0001
0100
0001
1000
,  // measure 28
0001
1000
0100
1000
0100
1000
0001
1000
,  // measure 29
0001
1000
0001
0000
1001
0000
0002
0000
,  // measure 30
0103
0020
0200
0000
0330
0000
0110
0000
,  // measure 31
1001
1100
1200
0310
,  // measure 32
0001
0010
0001
0000
0011
0000
1001
0000
,  // measure 33
1010
0110
0010
0100
,  // measure 34
0010
0110
1001
0110
,  // measure 35
1001
1100
0101
1100
,  // measure 36
0001
0100
0001
0000
0101
0000
1100
0000
,  // measure 37
0101
0011
1010
0011
,  // measure 38
1000
0010
1000
0000
0011
0000
1010
0000
,  // measure 39
0011
1001
0110
1001
,  // measure 40
0010
0100
0010
0000
1001
0000
0110
0000
,  // measure 41
1001
0000
1100
0101
0000
0000
0011
1010
,  // measure 42
0000
1001
0110
0000
0101
0000
1001
0000
,  // measure 43
0000
1100
0101
1100
,  // measure 44
0101
0011
0011
1010
,  // measure 45
1010
0000
1001
0101
,  // measure 46
1001
1100
1001
0110
,  // measure 47
0000
0110
0101
1001
,  // measure 48
1100
0110
0101
1001
,  // measure 49
0000
0000
1000
0010
0100
0001
1000
0000
,  // measure 50
0001
1002
0000
1003
,  // measure 51
0000
1001
0000
1100
,  // measure 52
0000
1001
0000
0101
,  // measure 53
0000
2002
0000
3003
,  // measure 54
0000
2001
0000
3001
,  // measure 55
0000
1001
0000
1000
,  // measure 56
0100
0001
0100
1000
,  // measure 57
0020
0002
0000
0033
,  // measure 58
0000
0011
0000
1001
,  // measure 59
0000
1001
0000
1010
,  // measure 60
0000
1001
0000
0011
,  // measure 61
0000
2002
0000
3003
,  // measure 62
0000
1001
0000
1001
,  // measure 63
0000
0110
0000
1000
,  // measure 64
0100
0001
0100
1000
,  // measure 65
0020
0002
0000
0033
,  // measure 66
0000
1000
0001
1000
,  // measure 67
0001
1000
0001
1000
,  // measure 68
0001
1000
0100
1000
,  // measure 69
0100
0010
0100
0010
,  // measure 70
0100
0010
1000
0010
,  // measure 71
1000
0010
1000
0010
,  // measure 72
1000
0010
1000
0001
,  // measure 73
1000
0001
0010
0001
,  // measure 74
0010
0011
0000
1001
,  // measure 75
0000
1001
0000
1100
,  // measure 76
0000
0101
0000
1100
,  // measure 77
0000
2002
0000
3003
,  // measure 78
0000
1001
0000
0110
,  // measure 79
0000
1001
0000
1000
,  // measure 80
0100
0010
0001
1000
,  // measure 81
0010
0100
0001
1000
,  // measure 82
0001
2000
0000
3100
,  // measure 83
0000
1100
0000
0011
,  // measure 84
0000
1010
0000
0101
,  // measure 85
0000
1001
0000
1001
,  // measure 86
0000
0002
0000
0103
,  // measure 87
0000
0101
0000
1010
,  // measure 88
0000
1100
0000
0011
,  // measure 89
0000
1001
0000
1001
,  // measure 90
0000
0020
0000
1030
,  // measure 91
0000
1010
0000
0101
,  // measure 92
0000
0011
0000
1100
,  // measure 93
0000
1001
0000
1001
,  // measure 94
0000
0002
0000
0100
,  // measure 95
0000
2003
0000
0100
,  // measure 96
0000
3001
0100
1000
,  // measure 97
0100
0001
0010
1000
,  // measure 98
0010
0000
0000
0000
0001
0000
0001
0000
0000
0000
1000
0001
1000
0000
0010
0000
,  // measure 99
0100
0001
1000
0000
0100
0000
1000
0000
,  // measure 100
0100
1000
0001
1000
,  // measure 101
0001
0100
0001
0100
,  // measure 102
0001
1000
0001
1000
,  // measure 103
0001
0000
0000
0000
1000
0000
1000
0000
0000
0000
1000
0001
1000
0000
0010
0000
,  // measure 104
0100
0001
0000
0000
0000
0000
0000
0000
;
