#TITLE:猪突猛進ガール;
#SUBTITLE:;
#ARTIST:れるりり feat. 初音ミク & GUMI;
#TITLETRANSLIT:Chototsu Moushin Girl;
#SUBTITLETRANSLIT:;
#ARTISTTRANSLIT:rerulili feat. Hatsune Miku & GUMI;
#GENRE:;
#CREDIT:;
#BANNER:chototsu-moushin-Girl-bn.png;
#BACKGROUND:chototsu-moushin-Girl-bg.png;
#LYRICSPATH:;
#CDTITLE:loodeecdtitle.png;
#MUSIC:chototsu-moushin-Girl.ogg;
#OFFSET:-0.470;
#SAMPLESTART:63.140;
#SAMPLELENGTH:12.387;
#SELECTABLE:YES;
#BPMS:0.000=155.000;
#STOPS:;
#BGCHANGES:;
#KEYSOUNDS:;

//---------------dance-single - Loodee----------------
#NOTES:
     dance-single:
     Loodee:
     Hard:
     12:
     1.000,1.000,1.000,1.000,1.000:
0000
0000
0000
0000
,
0000
0000
0000
0000
,
0000
0000
0000
0000
,
0000
0000
0000
0000
,
2002
0000
0000
0000
0000
0000
0000
3003
2200
0000
0000
0000
0000
0000
0000
3300
0012
0000
0000
0000
0000
0000
1003
0000
0000
0000
0000
0000
0201
0000
0000
0000
,
0000
0000
0301
0010
0100
1000
0010
0100
0010
1000
0100
0010
0001
0100
0010
1000
,
0010
0100
0000
0000
0110
0000
0000
0000
0101
0000
0000
1100
0000
0000
1001
0000
,
0000
0001
0010
0001
0100
0010
1000
0100
1000
0100
0010
0001
0010
0100
0010
0001
,
2000
0000
0000
0000
0000
0000
0000
3000
0202
0000
0000
0000
0000
0000
0000
0303
2010
0000
0000
0000
0000
0000
3001
0000
0000
0000
0000
0000
0201
0000
0000
0000
,
0000
0000
0301
1000
0001
0010
0100
0010
0001
1000
0010
0100
0001
1000
0010
1000
,
0100
0010
0000
0000
0011
0000
0000
0000
0101
0000
0000
1100
0000
0000
2020
0000
,
0000
0000
0000
0000
0000
0000
0000
3030
0000
0000
0000
0000
1001
0000
0000
0000
,
0001
0000
0010
0100
0010
0000
0001
0000
1000
0010
0100
0001
0000
1000
0000
0100
,
0000
0010
0001
1000
0001
1000
0010
0100
0010
0000
0000
0000
0010
1000
0100
0010
,
0000
0001
0100
0001
1000
0010
1000
0100
0010
0001
0010
0001
0000
1000
0010
0200
,
0000
0300
0100
0001
0010
0200
0000
0300
2000
0000
0000
0000
0000
3001
0200
0000
,
0301
0010
0100
0000
0001
0000
0100
0000
1000
0001
0000
0100
0000
0010
0000
2000
,
0000
3100
0010
0100
0010
0001
0010
0001
1000
0000
0000
0000
1000
0100
0010
0001
,
0000
0010
0001
0100
0001
1000
0001
0010
0100
0000
0100
1000
0000
0002
0000
0103
,
0020
0000
1030
0100
1000
0100
0010
0001
1000
0010
0100
0001
1000
0100
1000
0100
,
0020
0000
0000
0000
0000
0000
0000
0030
0022
0000
0000
0000
0000
0000
0000
0033
2000
0000
0000
0000
0000
0000
3010
0000
0000
0000
0000
0000
0102
0000
0000
0000
,
0000
0000
1003
0001
0010
0001
0010
0100
0010
0001
1000
0010
0100
0010
1000
0001
,
1000
0100
0000
0000
1100
0000
0000
0000
0110
0000
0000
0011
0000
0000
1001
0000
,
0000
1000
0100
0010
0100
0010
0001
0100
0000
0000
0000
0000
0110
0000
0010
1000
,
0000
0001
0000
0010
0001
1000
0001
1000
0100
0010
0001
1000
0000
0001
0000
0200
,
0000
0000
0310
1000
0000
1000
0001
0010
0001
0000
0000
0000
0001
0010
0100
1000
,
0000
0010
0100
0001
1000
0100
1000
0010
1000
0100
0010
0001
0000
0100
0001
0100
,
0000
0001
0010
0001
1000
0010
1000
0002
0000
0000
0000
0000
0003
1000
0010
0100
,
0010
0000
1000
0001
1000
0100
0010
0100
1000
0010
0000
0001
0000
0010
0000
2000
,
0000
3100
0010
0001
0010
0001
0010
0100
0010
0000
0000
0000
0010
0100
1000
0002
,
0000
0103
0010
1000
0020
0000
0130
0001
1000
0100
0010
0200
0000
2300
0000
3001
,
0020
0000
2030
0000
3010
0002
0000
1003
0001
0010
0100
1000
0001
0010
0100
1000
,
0010
0000
1000
0000
0001
0000
1000
0000
0001
0000
0010
0100
1000
0100
0010
0001
,
0100
0000
1000
0000
0100
0010
0000
1000
0000
0000
0002
0000
0000
0023
0000
0000
,
0230
0000
0000
0000
0010
0000
0000
0310
0001
1000
0010
0100
0001
0100
0010
1000
,
0010
0000
0010
0000
1000
0001
0000
0020
0000
0230
0000
0300
2000
0000
3001
0100
,
0002
0000
0023
2030
3020
0000
0230
0000
,
2300
0000
3020
0000
0130
0001
0000
0100
0001
1000
0001
0010
0100
1000
0100
1000
,
0010
0000
0100
0000
0001
0000
1000
0000
1000
0001
0010
0100
1000
0100
0010
0001
,
2000
0000
3100
0000
0010
0001
0000
0102
0000
0000
0000
0000
1003
0000
0000
0000
,
1000
0010
0100
0001
0010
0001
0100
0010
1000
0000
1000
0000
0001
0000
0010
0100
,
0010
0000
0001
1000
0000
0010
0000
0100
0010
1000
0010
0100
0001
0010
0001
0010
,
0100
1000
0001
1000
0000
0020
0000
0130
0002
0000
0013
0100
2000
0000
0000
3010
,
0200
0000
0301
0010
0100
0010
0001
1000
0010
0100
0001
0000
1000
0001
0000
0020
,
0000
0000
0000
0000
0100
0000
0000
0000
0031
0000
0001
0000
1000
0010
0100
0010
,
1000
0001
1000
0100
0000
0010
0001
0010
0001
1000
0001
1000
0010
0100
0001
1000
,
0001
1000
0100
0010
0000
0001
0100
0001
2000
0000
3100
0010
0002
0000
1003
0010
,
2000
0000
3100
0010
0002
0000
1003
0010
0100
0001
0100
0010
1000
0002
0000
0203
,
0000
0000
0000
0000
0010
0000
0000
0000
0301
0000
0001
0000
1000
0000
0010
0100
,
0010
0000
1000
0100
0000
0010
0000
0001
1000
0001
1000
0100
0010
0100
1000
0001
,
0100
0001
0000
1000
0000
0200
0000
0310
0002
0000
1003
0010
0200
0000
0301
1000
,
0200
0000
0310
0001
0010
0001
1000
0010
1000
0100
0010
0100
1000
0002
0000
2003
,
0000
0000
0000
0000
0100
0000
0000
0000
3010
0000
0010
0000
1000
0000
0100
0010
,
0001
0010
0001
1000
0000
0002
0000
0103
0010
1000
0010
0100
0001
0000
1000
0000
,
0100
0010
0001
0010
0000
0001
1000
0001
0200
0000
0310
1000
0002
0000
0013
0100
,
2000
0000
3100
0010
0002
0000
0103
0010
1000
0001
1000
0100
0010
0001
0000
0001
,
1000
0010
0100
0001
1000
0010
0100
0001
2000
0000
0000
0000
0100
0000
0000
0000
,
0010
0000
0000
0000
0001
0000
0000
0000
0010
0000
0000
0000
3001
0000
0010
0001
,
0000
0001
1000
0000
0010
0000
0000
0000
0100
0001
0000
0000
0101
0000
0000
0000
,
0011
0000
0000
0110
0000
0000
1100
0000
0000
0100
1000
0100
0010
0100
1000
0010
,
0100
0000
0010
0000
1000
0000
0001
0000
0100
0000
0001
0000
0010
0000
0100
0000
2000
0000
0000
0000
0000
0000
0000
3000
2200
0000
0000
0000
0000
0000
0000
3300
,
0102
0000
0000
1003
0000
0000
0012
0000
0000
0000
0013
0100
1000
0001
0100
0010
,
1000
0001
0010
0100
0010
0001
1000
0010
1000
0001
0000
0000
2002
0000
0000
3003
,
1100
0000
0000
0110
0000
0000
0011
0000
0000
0000
0000
0000
0000
0000
0000
0000
;

//---------------dance-single - Loodee----------------
#NOTES:
     dance-single:
     Loodee:
     Medium:
     8:
     1.000,1.000,1.000,1.000,1.000:
0000
0000
0000
0000
,
0000
0000
0000
0000
,
0000
0000
0000
0000
,
0000
0000
0000
0000
,
1200
0000
0000
0000
0320
0000
0000
0000
0032
0000
0000
0103
0000
0000
0020
0000
,
0000
0000
1030
0001
1000
0000
0100
0000
0010
0000
0000
0000
0011
0000
0000
0000
,
0002
0000
0000
0000
0203
0000
0000
0000
0320
0000
0000
1030
0000
0000
0001
0000
,
0000
0100
0001
0100
0001
0000
1000
0000
0100
0000
0000
0000
1001
0000
0000
0000
,
0021
0000
0000
0000
0230
0000
0000
0000
2300
0000
0000
3001
0000
0000
0200
0000
,
0000
0000
0301
0100
0001
0000
1000
0000
0010
0000
0000
0000
0110
0000
0000
0000
,
2000
0000
0000
0000
3020
0000
0000
0000
0130
0000
0000
0110
0000
0000
2002
0000
,
0000
0000
3003
0001
,
0020
0000
0000
0130
1000
0000
0001
0000
0200
0000
0000
0320
0000
0000
2030
0000
,
0000
0000
0000
0000
3001
0000
0000
0010
0100
0010
0000
0000
0011
0000
0000
0000
,
0002
0000
0000
0103
0000
0000
0100
0000
0001
0000
0010
0000
0001
0000
1000
0000
,
0010
0000
0010
0000
0100
0000
0100
0000
0001
1000
0001
0000
0010
0000
0100
0000
,
2000
0000
0000
3001
0000
0000
0100
0000
0100
0000
0000
0010
0000
0000
2000
0000
,
0000
0000
0000
0000
3001
0000
0000
1000
0010
1000
0000
0000
1100
0000
0000
0000
,
0200
0000
0000
1300
0000
0001
1000
0000
0010
0000
0100
0000
0001
0000
1000
0000
,
0100
0100
0010
0010
0001
0100
1000
0100
,
0120
0000
0000
0000
2030
0000
0000
0000
3002
0000
0000
1003
0000
0000
0020
0000
,
0000
0000
0130
0001
0100
0000
0001
0000
1000
0000
0000
0000
1100
0000
0000
0000
,
0200
0000
0000
0000
0320
0000
0000
0000
0031
0000
0000
0011
0000
0000
2002
0000
,
0000
0000
3003
1000
,
0200
0000
0000
0310
0001
0000
1000
0000
0002
0000
0000
0203
0000
0000
0320
0000
,
0000
0000
0000
0000
1030
0000
0000
0001
0010
0001
0000
0000
1100
0000
0000
0000
,
2000
0000
0000
3001
0000
0000
0001
0000
1000
0000
0100
0000
1000
0000
0001
0000
,
0010
0000
0010
0000
0100
0000
0100
0000
1000
0001
1000
0000
0010
0000
0100
0000
,
0020
0000
0000
0130
0000
0000
0001
0000
0001
0000
0000
0010
0000
0000
0002
0000
,
0000
0000
0000
0000
1003
0000
0000
0001
0100
0000
0000
0000
1001
0000
0000
0000
,
2000
0000
0000
3100
0000
0010
0100
0000
1000
0000
0100
0000
1000
0000
0001
0000
,
0100
0100
0010
0010
1000
0010
0001
0010
,
1000
0001
1000
0001
0010
0100
0010
0100
,
1000
0010
1000
0010
1000
0100
0010
0001
,
1000
0010
0100
0001
0010
0100
0010
0001
,
0010
0001
0010
0001
1000
0001
1000
0010
,
0200
0000
0001
0000
0301
2000
0000
0000
,
3001
0001
0010
0010
0100
0100
1000
1000
,
1100
0000
0101
0000
,
0001
0000
0100
0000
0010
1000
0000
2001
0000
0000
0000
0000
3001
0000
0000
0000
,
0000
0000
0000
0000
0001
0001
0010
0100
,
0010
0000
0001
1000
0000
0000
0000
0000
0010
0000
0100
0000
0010
0000
1000
0000
,
0001
0010
0001
0010
0000
0000
0000
0000
0001
0000
0100
0000
1000
0000
0100
0000
,
0001
0100
1000
0100
0001
1000
0100
1000
,
0200
0000
0320
0000
0031
0001
1000
1000
,
0010
0000
0100
0001
0000
0000
0000
0000
1000
0000
0100
0000
0010
0000
0001
0000
,
0100
0001
1000
0001
1000
0100
0001
0100
,
1000
0100
0001
0100
1000
1000
0010
0010
,
0210
0000
0001
0000
0310
0010
1000
1000
,
0001
0010
0100
1000
0010
0010
0100
0100
,
0001
0010
0100
0010
0001
0010
1000
0010
,
0001
0010
1000
0010
0001
0001
1000
1000
,
0002
0000
0203
0000
0301
0001
0010
0010
,
0100
1000
0100
0010
0001
0001
1000
1000
,
0010
0100
0010
1000
1000
0010
0001
0010
,
1000
0010
0001
0010
1000
0100
1000
0100
,
0020
0000
0000
0000
0032
0000
0000
0203
0000
0000
0000
0000
0001
0000
0000
0000
,
0001
0000
0000
0000
0010
0000
0000
0000
0010
0000
0000
0000
0301
0000
0000
1000
,
0100
1000
0000
0000
1100
0000
0000
0000
0002
0000
0000
0000
0010
0000
0000
0000
,
0013
0000
0000
0100
0000
0000
2000
0000
0000
0000
3010
0100
0010
0000
1000
0000
,
0001
0010
0001
1000
0020
0000
0230
0000
,
0302
0000
0000
0013
0000
0000
0200
0000
0000
0000
1300
0100
1000
0000
0001
0000
,
0100
0001
1000
0100
0210
0000
0310
0000
,
0011
0000
0000
1001
0000
0000
1001
0000
0000
0000
0000
0000
0000
0000
0000
0000
;

//---------------dance-single - Loodee----------------
#NOTES:
     dance-single:
     Loodee:
     Easy:
     5:
     1.000,1.000,1.000,1.000,1.000:
0000
0000
0000
0000
,
0000
0000
0000
0000
,
0000
0000
0000
0000
,
0000
0000
0000
0000
,
0002
0000
0023
0000
0130
0000
0000
1000
,
0000
0001
1000
0001
1000
0000
1001
0000
,
2000
0000
3200
0000
0310
0000
0000
0001
,
0000
1000
0010
1000
0010
0000
1010
0000
,
0002
0000
0023
0000
0130
0000
0000
0010
,
0000
0001
0100
0001
0100
0000
0101
0000
,
2000
0000
0000
0000
3002
0000
0000
0000
0103
0000
0000
0100
0000
0000
0110
0000
,
0000
0000
0000
0000
,
2000
0000
0000
0000
3100
0000
0000
0000
0010
0000
0000
0001
0000
0000
2000
0000
,
0000
3001
0100
0010
,
2000
3001
0010
0100
,
1000
1000
0001
0000
0010
0001
0010
0000
,
0200
0000
0000
0000
1300
0000
0000
0000
0001
0000
0000
0100
0000
0000
0020
0000
,
0000
0130
0001
1000
,
0200
0310
0001
0100
,
0010
0010
1000
1000
0001
0000
0100
0000
,
0002
0000
2003
0000
3100
0000
0000
0010
,
0000
0001
0010
0100
1000
0000
1100
0000
,
2000
0000
0000
0000
3002
0000
0000
0000
0013
0000
0000
0010
0000
0000
0011
0000
,
0000
0000
0000
0000
,
2000
0000
0000
0000
3001
0000
0000
0000
0100
0000
0000
0010
0000
0000
0200
0000
,
0000
0301
0010
0011
,
2000
3010
0100
0100
,
0001
0100
0001
0000
1000
0100
1000
0000
,
0200
0000
0000
0000
0310
0000
0000
0000
0001
0000
0000
0001
0000
0000
0002
0000
,
0000
1003
0010
1010
,
2000
0000
3001
0000
0010
0100
0010
0100
,
0020
0032
2003
3002
,
0103
0100
0010
0010
,
1000
1000
1000
1000
,
0100
0100
0010
0010
,
0001
0000
0001
0000
0001
0000
0001
1000
,
0001
0001
0010
0010
,
0100
1000
0100
0000
1000
0001
1000
0000
,
1001
0000
0101
0000
,
0001
0000
1000
0000
0001
0000
0000
2002
0000
0000
0000
0000
3003
0000
0000
0000
,
0000
0000
0000
0000
0001
0001
1000
0000
,
0100
0000
0010
0000
0001
1000
0001
0000
,
0100
0000
0001
0000
1000
0100
0010
0000
,
0001
0010
0100
0000
1000
0000
1000
0000
,
0020
0000
0230
0000
0301
0001
0010
0000
,
0100
0000
0010
0000
0001
1000
0001
0000
,
0100
0000
0010
0000
1000
0010
1000
0000
,
0001
0010
0001
0000
0100
0000
0100
0000
,
2002
0000
3003
0000
1000
1000
0001
0000
,
0100
0000
0010
0000
1000
0100
1000
0000
,
0100
0000
0010
0000
0001
1000
0001
0000
,
0010
0100
0010
0000
0001
0000
0001
0000
,
2000
0000
3002
0000
0103
0100
0001
0000
,
1000
0000
0100
0000
0010
0001
0010
0000
,
0001
0000
1000
0000
0001
0010
0100
0000
,
1000
0100
0010
0000
0100
0000
0100
0000
,
2000
3002
0020
0000
,
0000
0000
0000
0033
,
1000
0000
0010
0000
0100
0001
1000
0000
,
0100
0000
0000
0010
0000
0001
1000
0010
,
1000
1010
0002
2003
,
3100
0000
0000
0010
0000
0001
0100
0001
,
0100
0101
0001
1000
,
1001
0000
0000
1001
0000
0000
1001
0000
0000
0000
0000
0000
0000
0000
0000
0000
;
