#TITLE:2008;
#SUBTITLE:;
#ARTIST:she;
#TITLETRANSLIT:;
#SUBTITLETRANSLIT:;
#ARTISTTRANSLIT:;
#GENRE:;
#CREDIT:;
#BANNER:banner.png;
#BACKGROUND:jkt.png;
#LYRICSPATH:;
#CDTITLE:;
#MUSIC:[Round 6] - 2008.mp3;
#OFFSET:-0.071000;
#SAMPLESTART:15.221915;
#SAMPLELENGTH:15.147931;
#SELECTABLE:YES;
#DISPLAYBPM:127.000000;
#BPMS:0.000000=126.750000
,261.500000=124.999992
,262.000000=120.000000
,262.500000=115.000000
,263.000000=110.000000
,263.500000=105.000000
;
#STOPS:
;
#BGCHANGES:;
#KEYSOUNDS:;
#ATTACKS:;

//---------------dance-single - ----------------
#NOTES:
     dance-single:
     :
     Hard:
     8:
     0.555143,0.443626,0.265843,0.039095,0.132922,458.000000,34.000000,5.000000,0.000000,0.000000,0.000000,0.555143,0.443626,0.265843,0.039095,0.132922,458.000000,34.000000,5.000000,0.000000,0.000000,0.000000:
0000
0000
0000
0000
,
0000
0000
0000
0000
,
0000
0000
0000
0000
,
0000
0000
0000
0000
,
0001
0100
0010
0100
0001
1000
0100
0100
,
1000
0000
0010
0000
0100
0000
0001
0000
0010
0000
0100
0000
1000
0001
1000
0000
,
0010
1000
0100
0010
0001
1000
0010
0010
,
0100
0001
0010
0100
1000
0001
0100
0000
,
0010
1000
0100
1000
0001
0100
0010
1010
,
0000
0010
0100
0001
1000
0100
0010
0002
,
0000
0013
0100
1000
0010
0100
0001
1001
,
0000
0100
0010
0001
1000
0010
0100
0002
,
0000
0103
0010
0100
0001
0010
0100
1100
,
0000
0010
1000
0100
0010
0100
1000
0020
,
0000
0130
0001
0010
1000
0010
0100
0110
,
0000
0100
1000
0010
0100
0001
0010
0100
,
1100
0010
1100
0000
0011
0000
1100
0000
,
0010
1000
0100
1000
0001
0100
0010
0000
,
0101
0010
0101
0000
0011
0000
1100
0000
,
0001
0100
0010
1000
0100
0010
0001
0000
,
0011
0100
0011
0000
1100
0000
0011
0000
,
0100
1000
0010
0000
0100
0001
1000
0000
,
1001
0100
1001
0000
0101
0000
1010
0000
,
0010
0100
0001
0010
0100
1000
0001
0100
,
0010
1000
0100
1000
0001
0010
0100
0000
,
0100
1000
0001
0100
0010
0100
0001
0000
,
0010
0001
1000
0100
0010
0100
1000
0000
,
0010
1000
0001
0010
0100
1000
0010
0000
,
0010
1000
0001
0100
0010
0100
0001
0001
,
1000
0100
0010
0100
1000
0010
0100
0100
,
0001
1000
0100
0010
0100
1000
0010
0010
,
1000
0001
0100
0010
1000
0001
0010
0010
,
0100
1000
0010
1000
0100
1000
0010
0100
,
0001
0010
0100
0010
0001
0010
0100
1000
,
0001
0100
0010
0100
0001
0100
0010
0100
,
0001
1000
0100
1000
0002
0000
2003
0000
,
3010
0000
0100
0001
0000
0000
0100
0000
0010
0000
1000
0000
0100
0000
0010
0000
,
0100
0000
1000
0100
0000
0000
1000
0000
0001
0000
0100
0000
0010
0000
1000
0000
,
0001
0000
0010
0001
0000
0000
0100
0000
0010
0000
1000
0000
0100
0000
0010
0000
,
0100
0000
1000
0100
0000
0000
1000
0000
0001
0000
0100
0000
0010
0000
1000
0000
,
0001
0000
0010
0001
0000
0000
1000
0000
0010
0000
0100
0000
0001
0000
0010
0000
,
0100
0000
1000
0010
0000
0000
1000
0000
0100
0000
0010
0000
0001
0000
1000
0000
,
0010
0000
0100
0001
0000
0000
0010
0000
0001
0000
1000
0000
0100
0000
0010
0000
,
0100
1000
0001
0000
0100
0010
1000
0000
,
0010
0000
1000
0100
0000
0000
0010
0000
0100
0000
1000
0000
0010
0000
0100
0000
,
0001
0000
0010
0001
0000
0000
1000
0000
0010
0000
0100
0000
0001
0000
0010
0000
,
0001
0000
1000
0100
0000
0000
1000
0000
0010
0000
0100
0000
0001
0000
0100
0000
,
0010
0000
1000
0100
0000
0000
0010
0000
0100
0000
1000
0000
0010
0000
0100
0000
,
0001
0000
0010
0001
0000
0000
0100
0000
0010
0000
0100
0000
0001
0000
1000
0000
,
0100
0000
0010
0100
0000
0000
1000
0000
0010
0000
1000
0000
0001
0000
0010
0000
,
0100
0000
1000
0001
0000
0000
1000
0000
0010
0000
0100
0000
0001
0000
0010
0000
,
0001
0000
1000
0010
0000
0000
0100
0000
0001
0000
0100
0000
0010
0000
1000
0000
,
1010
0000
0101
0000
0001
1000
0100
1000
,
0010
0000
0110
0000
0100
0001
0010
0100
,
1100
0010
1100
0000
0110
0000
0011
0000
,
0001
1000
0010
1000
0001
0100
0010
1000
,
1001
0000
0110
0000
0010
0001
1000
0010
,
0100
0000
0101
0000
0010
1000
0100
0000
,
0011
0100
0011
0000
1100
0000
1001
0000
,
0001
0100
0010
1000
0001
0100
0000
0010
,
1000
0000
0100
0000
1000
0000
0000
0001
0000
0100
0010
0000
0100
0000
0001
0000
,
0010
0000
0100
0000
1000
0000
0000
0001
0000
0010
0001
0000
0100
0000
0010
0000
,
1000
0000
0100
0000
0010
0000
0000
0100
0000
1000
0010
0000
0100
0000
0001
0000
,
0010
0000
0001
0000
1000
0000
0000
0001
0000
0100
0010
0000
0100
0000
0001
0000
,
0010
0000
0100
0000
1000
0000
0000
0001
0000
0010
0001
0000
0100
0000
0010
0000
,
1000
0000
0100
0000
0010
0000
0000
0100
0000
1000
0010
0000
0100
0001
0000
0010
,
0000
0100
1000
0000
0001
0100
0000
0010
0000
0100
0001
0000
1000
0000
0000
0000
;

//---------------dance-single - ----------------
#NOTES:
     dance-single:
     :
     Medium:
     7:
     0.412168,0.365339,0.390946,0.007819,0.000000,318.000000,50.000000,1.000000,0.000000,0.000000,0.000000,0.412168,0.365339,0.390946,0.007819,0.000000,318.000000,50.000000,1.000000,0.000000,0.000000,0.000000:
0000
0000
0000
0000
,
0000
0000
0000
0000
,
0000
0000
0000
0000
,
0000
0000
0000
0000
,
0010
0000
0101
0000
0001
1000
0100
0000
,
0010
0000
0011
0000
0100
1000
0010
0000
,
0100
0000
1001
0000
0001
1000
0100
0000
,
0010
0000
0011
0000
0100
1000
0010
0000
,
0100
0000
0101
0000
0010
1000
0100
0000
,
1000
0000
0010
0000
0100
0001
0010
0001
,
1000
0000
1100
0000
0100
1000
0010
0000
,
0100
0000
0001
0000
0010
0001
0100
0010
,
1000
0000
0101
0000
0001
0010
0100
0000
,
1000
0000
0010
0000
0100
0001
0010
0001
,
1000
0000
1100
0000
0100
0010
0001
0000
,
1000
0000
0010
0000
0100
0001
1000
0100
,
1100
0001
1100
0000
0011
0000
1100
0000
,
0001
0100
0010
1000
,
0011
1000
0011
0000
1100
0000
0011
0000
,
0100
1000
0010
0100
,
0101
1000
0101
0000
0010
0000
1010
0000
,
0001
0011
0100
1000
,
1010
0100
1010
0000
0100
0000
0101
0000
,
0010
0000
1000
0000
0001
0010
0100
1000
,
0010
0000
0100
0000
0001
1000
0100
0000
,
0010
0000
0100
0000
1000
0001
0100
0000
,
0010
0000
1000
0000
0100
1000
0010
0000
,
0100
0000
0001
0000
0010
0001
1000
0000
,
0010
0000
0100
0000
0001
0100
0010
0000
,
0100
0001
0010
0100
,
1000
0000
0100
0000
0010
0001
1000
0000
,
0010
0100
0001
0010
,
0100
0000
1000
0000
0010
1000
0001
0000
,
0010
0000
0100
0000
1000
0001
1000
0000
,
0100
0000
0010
0000
0001
0100
0010
0000
,
1000
0100
0020
0030
,
0011
0000
1100
0000
1000
0001
0100
0000
,
1010
0000
0101
0000
0001
0010
0100
0000
,
1001
0000
0110
0000
0010
1000
0100
0000
,
0011
0000
1100
0000
0001
0100
0010
0000
,
1000
0000
1100
0000
0010
0100
1000
0000
,
0010
0000
0110
0000
0100
0001
0010
0000
,
0100
0000
1100
0000
0010
0001
1000
0000
,
0010
0100
0001
1000
,
0100
0000
0011
0000
0100
1000
0010
0000
,
0100
0000
0101
0000
0010
1000
0010
1000
,
0100
0000
0011
0000
0100
1000
0010
0000
,
0100
0000
0101
0000
0001
1000
0100
1000
,
0010
0000
0101
0000
0001
0010
0100
0000
,
1000
0000
1001
0000
0001
0100
0010
1000
,
0001
0000
0011
0000
0010
0100
1000
0000
,
0010
0000
0100
0000
0001
1000
0001
1000
,
0010
0000
0101
0000
0001
1000
0100
0000
,
0010
0000
0011
0000
0100
1000
0010
0000
,
0101
0010
0101
0000
0010
1000
0100
0000
,
0010
0000
0100
0000
1000
0001
0100
0000
,
0010
0000
0110
0000
0100
0001
1000
0000
,
0100
0000
0011
0000
0100
1000
0010
0000
,
1010
0001
1010
0000
0100
0000
0101
0000
,
0010
0001
1000
0000
0010
0100
0000
0001
,
1000
0000
0010
0000
0100
0001
0010
0000
,
0100
0000
1000
0000
0010
1000
0001
0000
,
0010
0000
0100
0000
1000
0001
0100
0000
,
0010
0000
0100
0000
0001
0010
0100
0000
,
1000
0000
0100
0000
0010
0001
1000
0000
,
0010
0000
0100
0000
0001
1000
0100
0000
,
0010
0000
0100
0000
1000
0001
0100
0000
;

//---------------dance-single - ----------------
#NOTES:
     dance-single:
     :
     Easy:
     5:
     0.296002,0.260956,0.000000,0.101646,0.000000,252.000000,0.000000,13.000000,0.000000,0.000000,0.000000,0.296002,0.260956,0.000000,0.101646,0.000000,252.000000,0.000000,13.000000,0.000000,0.000000,0.000000:
// measure 0
0000
0000
0000
0000
,  // measure 1
0000
0000
0000
0000
,  // measure 2
0000
0000
0000
0000
,  // measure 3
0000
0000
0000
0000
,  // measure 4
0010
0100
0001
1000
,  // measure 5
0100
0010
0001
0000
,  // measure 6
0100
0010
1000
0001
,  // measure 7
0010
0100
1000
0000
,  // measure 8
0010
0100
0010
0100
,  // measure 9
0001
1000
0001
1000
,  // measure 10
0001
0010
0100
1000
,  // measure 11
0010
0100
0001
1000
,  // measure 12
0100
0010
0100
0010
,  // measure 13
0001
1000
0001
1000
,  // measure 14
0010
0100
0001
0010
,  // measure 15
0100
1000
0010
0100
,  // measure 16
0001
0100
0001
0000
0010
0000
0100
0000
,  // measure 17
1000
0010
0100
0001
,  // measure 18
1000
0100
1000
0000
0010
0000
0100
0000
,  // measure 19
0001
0010
0100
1000
,  // measure 20
0001
0010
0001
0000
0100
0000
0010
0000
,  // measure 21
0100
0001
0010
0100
,  // measure 22
1000
0010
1000
0000
0001
0000
0010
0000
,  // measure 23
0100
1000
0010
0000
,  // measure 24
0200
0000
0301
0000
0000
0100
0001
0000
,  // measure 25
0020
0000
0031
0000
0000
0010
0001
0000
,  // measure 26
2000
0000
3010
0000
0000
1000
0010
0000
,  // measure 27
2000
0000
3100
0000
0000
1000
0100
0000
,  // measure 28
0010
0001
0100
0100
,  // measure 29
0010
1000
0001
0000
,  // measure 30
0010
0001
1000
1000
,  // measure 31
0010
0100
0001
0000
,  // measure 32
0010
0001
0100
0100
,  // measure 33
0010
1000
0001
0001
,  // measure 34
0010
0001
1000
0010
,  // measure 35
0100
0001
0010
0000
,  // measure 36
0100
1000
0010
0100
,  // measure 37
0001
0010
0100
1000
,  // measure 38
0001
0010
0001
0000
1000
0000
0010
0000
,  // measure 39
0100
0001
0010
0100
,  // measure 40
1000
1000
0010
0100
,  // measure 41
0001
0010
0001
0100
,  // measure 42
0010
1000
0010
0000
0100
0000
0001
0000
,  // measure 43
0010
0000
0100
0000
,  // measure 44
1000
0010
0100
0001
,  // measure 45
0010
0001
1000
0010
,  // measure 46
0100
0001
0100
0000
0010
0000
1000
0000
,  // measure 47
0001
0010
0100
1000
,  // measure 48
0010
0100
0001
1000
,  // measure 49
0100
0010
0001
1000
,  // measure 50
0010
1000
0010
0000
0100
0000
0001
0000
,  // measure 51
0010
0100
1000
0000
,  // measure 52
0001
0100
0010
1000
,  // measure 53
0001
0010
0100
1000
,  // measure 54
0001
0100
1000
0000
0100
0000
0001
0000
,  // measure 55
1000
0100
0010
0001
,  // measure 56
1000
0010
0100
0001
,  // measure 57
0010
0001
1000
0100
,  // measure 58
1000
0010
0001
0000
0010
0000
0100
0000
,  // measure 59
0002
0000
0003
2000
0000
0000
3000
0000
,  // measure 60
0020
0000
0130
0000
0000
0010
0100
0000
,  // measure 61
0002
0000
1003
0000
0000
0001
1000
0000
,  // measure 62
0002
0000
0013
0000
0000
0001
0010
0000
,  // measure 63
0200
0000
1300
0000
0000
0100
1000
0000
,  // measure 64
0020
0000
1030
0000
0000
0010
1000
0000
,  // measure 65
0002
0000
0103
0000
0000
0001
0100
0000
,  // measure 66
0020
0000
1030
0000
0001
1000
0100
0000
;

//---------------dance-single - ----------------
#NOTES:
     dance-single:
     :
     Beginner:
     1:
     0.098295,0.104383,0.000000,0.000000,0.000000,88.000000,0.000000,0.000000,0.000000,0.000000,0.000000,0.098295,0.104383,0.000000,0.000000,0.000000,88.000000,0.000000,0.000000,0.000000,0.000000,0.000000:
// measure 0
0000
0000
0000
0000
,  // measure 1
0000
0000
0000
0000
,  // measure 2
0000
0000
0000
0000
,  // measure 3
0000
0000
0000
0000
,  // measure 4
1000
0000
0000
0000
,  // measure 5
0001
0000
0000
0000
,  // measure 6
0010
0000
0000
0000
,  // measure 7
0100
0000
0000
0000
,  // measure 8
1000
0000
0000
0000
,  // measure 9
1000
0000
0000
0000
,  // measure 10
0001
0000
0001
0000
,  // measure 11
0001
0000
0000
0000
,  // measure 12
0100
0000
0000
0000
,  // measure 13
0100
0000
0000
0000
,  // measure 14
0010
0000
0010
0000
,  // measure 15
0010
0000
0000
0000
,  // measure 16
1000
1000
0000
1000
,  // measure 17
0000
1000
0000
0000
,  // measure 18
0001
0001
0000
0001
,  // measure 19
0000
0001
0000
0000
,  // measure 20
0010
0010
0000
0010
,  // measure 21
0000
0010
0000
0000
,  // measure 22
0100
0100
0000
0100
,  // measure 23
0000
0100
0000
0000
,  // measure 24
1000
0000
0001
0000
,  // measure 25
1000
0000
0001
0000
,  // measure 26
0100
0000
0010
0000
,  // measure 27
0100
0000
0010
0000
,  // measure 28
1000
0000
0000
0000
,  // measure 29
0001
0000
0000
0000
,  // measure 30
0010
0000
0000
0000
,  // measure 31
0100
0000
0000
0000
,  // measure 32
1000
0000
0000
0000
,  // measure 33
0010
0000
0000
0000
,  // measure 34
0100
0000
0000
0000
,  // measure 35
0001
0000
0000
0000
,  // measure 36
1000
0000
0000
0000
,  // measure 37
1000
0000
0000
0000
,  // measure 38
0001
0000
0001
0000
,  // measure 39
0001
0000
0000
0000
,  // measure 40
0100
0000
0000
0000
,  // measure 41
0100
0000
0000
0000
,  // measure 42
0010
0000
0010
0000
,  // measure 43
0010
0000
0000
0000
,  // measure 44
1000
0000
0000
0000
,  // measure 45
1000
0000
0000
0000
,  // measure 46
0001
0000
0000
0000
,  // measure 47
0001
0000
0000
0000
,  // measure 48
0010
0000
0000
0000
,  // measure 49
0010
0000
0000
0000
,  // measure 50
0100
0000
0000
0000
,  // measure 51
0100
0000
0000
0000
,  // measure 52
1000
0000
0000
0000
,  // measure 53
1000
0000
0000
0000
,  // measure 54
0001
0000
0001
0000
,  // measure 55
0001
0000
0000
0000
,  // measure 56
0100
0000
0000
0000
,  // measure 57
0100
0000
0000
0000
,  // measure 58
0010
0000
0010
0000
,  // measure 59
0010
0000
0000
0000
,  // measure 60
1000
0000
0001
0000
,  // measure 61
1000
0000
0001
0000
,  // measure 62
0100
0000
0010
0000
,  // measure 63
0100
0000
0010
0000
,  // measure 64
1000
0000
0001
0000
,  // measure 65
1000
0000
0001
0000
,  // measure 66
0000
0100
0000
0010
;
