#TITLE:ZED;
#SUBTITLE:;
#ARTIST:USAO;
#TITLETRANSLIT:;
#SUBTITLETRANSLIT:;
#ARTISTTRANSLIT:;
#GENRE:;
#CREDIT:;
#BANNER:banner.png;
#BACKGROUND:bg.png;
#LYRICSPATH:;
#CDTITLE:;
#MUSIC:ZED.ogg;
#OFFSET:0.563000;
#SAMPLESTART:101.732788;
#SAMPLELENGTH:10.105263;
#SELECTABLE:YES;
#BPMS:0.000000=190.000000
;
#STOPS:
;
#BGCHANGES:0.000=[Round 5] - ZED.avi=1.000=1=0=1===CrossFade==,
99999=-nosongbg-=1.000=0=0=0 // don't automatically add -songbackground-
;
#KEYSOUNDS:;
#ATTACKS:;

//---------------dance-single - ----------------
#NOTES:
     dance-single:
     :
     Beginner:
     3:
     0.198946,0.230258,0.110777,0.063301,0.000000,154.000000,14.000000,8.000000,0.000000,0.000000,0.000000,0.198946,0.230258,0.110777,0.063301,0.000000,154.000000,14.000000,8.000000,0.000000,0.000000,0.000000:
0000
0000
0000
0000
,
0000
0000
0000
0000
,
0000
0000
0000
0000
,
0000
0000
0000
0000
,
0000
0000
0000
0000
,
0000
0000
0000
0000
,
0000
0000
0000
0000
,
0000
0000
0000
0000
,
0000
0000
0000
0000
,
1000
0000
0000
0000
,
0001
0000
0000
0000
,
0100
0000
0000
0000
,
0010
0000
0000
0000
,
1000
0000
0000
0000
,
0001
0000
0000
0000
,
0010
0000
0000
0000
,
0100
0000
0000
0000
,
2002
0000
0000
0000
,
3003
0000
0000
0000
,
0220
0000
0000
0000
,
0330
0000
0000
0000
,
0100
0000
0000
0000
,
0010
0000
0000
0000
,
1000
0000
1000
0000
,
0002
0000
0003
0000
,
1000
0000
0001
0000
,
1000
0000
0001
0000
,
0100
0000
0100
0000
,
0200
0000
0300
0000
,
0010
0000
0110
0000
,
1000
0000
0001
0000
,
0010
0000
0110
0000
,
0100
0000
1000
0000
,
0010
0000
0110
0000
,
0100
0000
0001
0000
,
1000
0000
0110
0000
,
0001
0000
1000
0000
,
0010
0000
1001
0000
,
0100
0000
0010
0000
,
0100
0000
1001
0000
,
0010
0000
0100
0000
,
0001
0000
1001
0000
,
0100
0000
0010
0000
,
0001
0000
1000
0000
,
0010
0000
0100
0000
,
0001
0000
0001
0000
,
0001
0000
0010
0000
,
0100
0000
0100
0000
,
0100
0000
0000
0000
,
1000
0000
1000
0000
,
1000
0000
0001
0000
,
0100
0000
0100
0000
,
0100
0000
0000
0000
,
0010
0000
0010
0000
,
0100
0000
0100
0000
,
0001
0000
0001
0000
,
1000
0000
1000
0000
,
0100
0000
0010
0000
,
0100
0000
0010
0000
,
0001
0000
1000
0000
,
0001
0000
1000
0000
,
0110
0000
0010
0000
,
0100
0000
0010
0000
,
1000
0000
0001
0000
,
1000
0000
0001
0000
,
0010
0000
0100
0000
,
1000
0000
0010
0000
,
0100
0000
0001
0000
,
1000
0000
0000
0000
,
0001
0000
1000
0000
,
0010
0000
0100
0000
,
0001
0000
0001
0000
,
0002
0000
0003
0000
,
1000
0000
1001
0000
,
0100
0100
0100
0000
,
0010
0000
0110
0000
,
0001
0001
0001
0000
,
1000
0000
0110
0000
,
0100
0100
0100
0000
,
0010
0000
1001
0000
,
1000
0000
0001
0000
,
0100
0000
0010
0000
,
0100
0000
0010
0000
,
1000
0000
0001
0000
,
1000
0000
0000
0000
,
0001
0000
0010
0000
,
0001
0000
0010
0000
,
0100
0000
1000
0000
,
0100
0000
0000
0000
,
1000
0000
1000
0000
,
0001
0000
0001
0000
,
0100
0000
0100
0000
,
0010
0000
0010
0000
,
1000
0000
0010
0000
,
0100
0000
0001
0000
,
0010
0000
0100
0000
,
2000
0000
0000
0000
,
3000
0000
0000
0000
;

//---------------dance-single - ----------------
#NOTES:
     dance-single:
     :
     Easy:
     4:
     0.315375,0.307011,0.142428,0.245292,0.000000,230.000000,18.000000,31.000000,0.000000,0.000000,0.000000,0.315375,0.307011,0.142428,0.245292,0.000000,230.000000,18.000000,31.000000,0.000000,0.000000,0.000000:
0000
0000
0000
0000
,
0000
0000
0000
0000
,
0000
0000
0000
0000
,
0000
0000
0000
0000
,
0000
0000
0000
0000
,
0000
0000
0000
0000
,
0000
0000
0000
0000
,
0000
0000
0000
0000
,
0000
0000
0000
0000
,
0010
0000
0110
0000
,
1000
0001
1000
0000
,
0100
0000
0110
0000
,
0010
0100
0010
0000
,
0001
0000
1001
0000
,
0001
0100
0001
0000
,
0010
0000
0110
0000
,
0100
1000
0100
0000
,
2000
0000
3000
0000
,
0002
0000
0003
0000
,
0200
0000
0300
0000
,
0020
0000
0030
0000
,
1000
0000
0010
0000
,
0100
0000
0001
0000
,
0010
0000
0100
0000
,
1000
0000
0001
0000
,
0200
0300
0020
0030
,
2000
3000
0002
0003
,
1000
0001
1000
0001
,
0020
0000
0130
0000
,
0100
0000
0110
0000
,
0100
1000
0001
0100
,
0010
0000
0110
0000
,
0001
1000
0100
0000
,
0010
0000
0110
0000
,
0100
1000
0010
0100
,
0002
0000
1003
0000
,
0020
0000
0130
0000
,
0001
0000
0011
0000
,
0010
0001
1000
0010
,
0100
0000
0110
0000
,
1000
0100
0010
0000
,
0100
0000
1001
0000
,
0010
0100
0001
0000
,
0020
0000
0130
0000
,
2000
0000
3001
0000
,
0100
0000
0110
0000
,
0010
0100
0001
1000
,
0100
0000
0110
0000
,
0010
0100
1000
0000
,
0010
0000
0101
0000
,
0001
1000
0010
1000
,
0200
0000
0310
0000
,
0002
0000
1003
0000
,
0010
0000
0010
0000
,
0100
0000
0100
0000
,
0001
0000
0001
0000
,
1000
0000
1000
0000
,
0001
0000
0010
0000
,
0100
0000
1000
0000
,
0010
0000
0100
0000
,
0001
0000
1000
0000
,
2002
0000
3003
0000
,
0220
0000
0330
0000
,
0022
0000
0033
0000
,
2200
0000
3300
0000
,
0001
1000
0001
1000
,
0010
0100
0010
0100
,
0001
0010
0100
1000
,
0010
0100
0001
1000
,
0200
0300
0020
0030
,
0002
0003
2000
3000
,
0010
0100
0001
1000
,
2002
0000
3003
0000
,
1000
0010
1000
0000
,
0001
0010
0001
0000
,
0100
0010
0100
0000
,
0001
1000
0001
0000
,
0010
0100
1000
0000
,
0001
0100
0010
0000
,
1000
0001
0010
0100
,
1000
0001
0100
0000
,
0010
0100
0010
0100
,
0001
1000
0001
0000
,
0010
0001
0010
0001
,
1000
0100
1000
0000
,
0010
1000
0100
1000
,
0001
0100
0010
0100
,
0001
0010
0100
1000
,
0010
0100
0001
0000
,
0010
0001
0010
0001
,
0100
0010
0100
0000
,
0010
1000
0010
1000
,
0001
1000
0001
0000
,
0010
0100
1000
0001
,
0100
0010
1000
0000
,
0001
0010
0100
1000
,
0020
0000
0200
0000
,
0330
0000
0000
0000
;

//---------------dance-single - ----------------
#NOTES:
     dance-single:
     :
     Medium:
     7:
     0.503018,0.537269,0.371894,0.316506,0.102864,358.000000,47.000000,40.000000,0.000000,0.000000,0.000000,0.503018,0.537269,0.371894,0.316506,0.102864,358.000000,47.000000,40.000000,0.000000,0.000000,0.000000:
0000
0000
0000
0000
,
0000
0000
0000
0000
,
0000
0000
0000
0000
,
0000
0000
0000
0000
,
0000
0000
0000
0000
,
0000
0000
0000
0000
,
0000
0000
0000
0000
,
0000
0000
0000
0000
,
0000
0000
0000
0000
,
0010
0000
0101
0001
,
0010
0100
1001
0000
,
0010
0000
1010
0100
,
0001
0010
1100
0000
,
0001
0000
0110
0100
,
1000
0010
0101
0000
,
0001
0000
1001
0001
,
0010
0100
1100
0000
,
2001
0000
0000
0010
0000
0000
0000
0000
,
3002
0000
0000
0010
0000
0000
0000
0000
,
2003
0000
0000
0100
0000
0000
0000
0000
,
3002
0000
0000
0100
0000
0000
1000
0000
,
2003
3010
0100
0001
,
0010
0100
1000
0001
,
0100
0010
1000
0001
,
0010
0100
1000
0001
,
0100
0100
0010
0010
,
1000
1000
0001
0001
,
1000
0010
1000
0000
0001
0100
0001
0000
,
2000
0000
3001
0000
,
0021
0000
0000
0000
0000
0000
0130
0000
0000
1000
0000
0100
,
1000
0000
0000
0001
0000
0000
1000
0000
0001
0000
0000
0000
0100
0000
0000
0000
,
0010
0000
0000
0000
0000
0000
0000
0000
0000
0010
0000
0000
0000
0000
0000
0000
0000
0000
0010
0000
0000
0000
0000
0000
0100
0000
0000
0000
0000
0000
0000
0000
0000
0000
0000
0000
0001
0000
0000
0000
0000
0000
0000
0000
0001
0000
0000
0000
,
1000
0000
1000
0100
0000
0000
0010
0000
0010
0001
0000
0000
,
0201
0000
0000
0000
0000
0000
0310
0000
0000
1000
0000
0100
,
1000
0000
0000
0001
0000
0000
0100
0000
0010
0000
0000
0000
1000
0000
0000
0000
,
0020
0000
0130
0002
0000
0103
0020
0000
,
1030
0000
0000
1000
0000
0000
1000
0000
0001
0000
0100
0000
0001
0000
0000
0000
,
2010
0000
0000
0000
0000
0000
3001
0000
0000
0010
0000
0010
,
0001
0000
0000
0001
0000
0000
0001
0000
0100
0000
0000
0000
0010
0000
0000
0000
,
1000
0000
0000
0000
0000
0000
0000
0000
0000
1000
0000
0000
0000
0000
0000
0000
0000
0000
1000
0000
0000
0000
0000
0000
0010
0000
0000
0000
0000
0000
0000
0000
0000
0000
0000
0000
0100
0000
0000
0000
0000
0000
0000
0000
0100
0000
0000
0000
,
0001
0000
0001
0010
0000
0000
0100
0000
0100
1000
0000
0000
,
1002
0000
0000
0000
0103
0000
0010
1000
,
0001
0000
0000
0001
0000
0000
0001
0000
0010
0000
0000
0000
0200
0000
0000
0000
,
2300
0000
3010
0200
0000
0301
0020
0000
,
0031
0000
0000
0001
0000
0000
0001
0000
1000
0000
0010
0000
1000
0000
0000
0000
,
1200
0000
0000
0000
0000
0000
0310
0000
0000
0001
0000
0001
,
1000
0000
0000
1000
0000
0000
1000
0000
0010
0000
0000
0000
0100
0000
0000
0000
,
0001
0000
0000
0000
0000
0000
0000
0000
0000
0001
0000
0000
0000
0000
0000
0000
0000
0000
0001
0000
0000
0000
0000
0000
0010
0000
0000
0000
0000
0000
0000
0000
0000
0000
0000
0000
0001
0000
0000
0000
0000
0000
0000
0000
0001
0000
0000
0000
,
0100
0000
0100
0010
0000
0000
1000
0000
1000
0001
0000
0000
,
0210
0000
0000
0000
0000
0000
1300
0000
0000
0001
0000
0001
,
0100
0000
0000
0100
0000
0000
0100
0000
0010
0000
0000
0000
1000
0000
0000
0000
,
0002
0000
0013
0200
0000
1300
0020
0000
,
0130
0000
0000
0100
0000
0000
0100
0000
0001
0000
1000
0000
0001
0000
1000
0000
,
0100
0000
0000
2200
0000
0000
3300
0000
,
0001
0000
0000
0022
0000
0000
0033
0000
,
0100
0000
0000
0220
0000
0000
0330
0000
,
0001
0000
0000
2002
0000
0000
3003
0000
,
0010
0000
0000
0220
0000
0000
0330
0000
,
0001
0000
0000
0202
0000
0000
0303
0000
,
0010
0000
0000
2020
0000
0000
3030
0000
,
0002
1000
1000
1003
,
0010
0000
0100
0000
0000
0010
0100
0000
,
0001
0000
0010
0000
0000
0001
0010
0000
,
0100
0000
1000
0000
0000
0100
1000
0000
,
0010
0000
0100
0000
0000
0001
1000
0000
,
0001
0010
0100
1000
,
0010
0000
0100
0000
0001
0000
1000
0100
,
0010
0100
1000
0010
,
0100
0000
0001
0000
0010
0000
0100
1000
,
0100
0000
0000
1100
0000
0000
1000
0000
,
0000
1010
0000
0000
0010
0000
0000
0100
,
0001
0100
0001
0000
1000
0100
1000
0000
,
0002
0000
1003
0000
,
0010
0000
0101
0000
0001
1000
0100
0000
,
0010
0000
1001
0000
0001
0100
0010
0000
,
1000
0000
0101
0000
0001
0010
0100
0000
,
1000
0000
0011
0000
0100
1000
0010
1000
,
0001
0000
0101
0000
0100
0010
1000
0000
,
0001
0000
0110
0000
1000
0100
1000
0000
,
0010
0000
0101
0000
0010
0100
0001
0000
,
1000
0000
0100
0000
0010
0001
1000
0000
,
1010
0000
0000
0110
0000
0000
0001
0000
,
0011
0000
0000
0110
0000
0000
1000
0000
,
1100
0000
0000
0110
0000
0000
0001
0000
,
0101
0000
0000
0110
0000
0000
1000
0000
,
1001
0000
0000
0110
0000
0000
0001
0000
,
0011
0000
0000
1100
0000
0000
0010
0000
,
0110
0000
0000
1001
0000
0000
1000
0000
,
0101
0000
0000
1010
0000
0000
0100
0000
,
0001
0000
0010
0000
0100
0000
1000
0001
,
0100
0000
0010
0000
0100
0000
0001
0010
,
0100
0000
1000
0000
0010
0000
1000
0001
,
0010
0000
0100
0000
1000
0000
0001
0100
,
0010
0000
1000
0000
0001
0000
0010
0100
,
1000
0000
0010
0000
0100
0000
0001
0010
,
0100
0000
1000
0100
1000
0000
0001
0100
,
0002
0000
2000
0000
,
3003
0000
0000
0000
;

//---------------dance-single - ----------------
#NOTES:
     dance-single:
     :
     Hard:
     9:
     0.720051,0.805903,0.720051,0.166166,0.272986,525.000000,91.000000,21.000000,0.000000,0.000000,0.000000,0.720051,0.805903,0.720051,0.166166,0.272986,525.000000,91.000000,21.000000,0.000000,0.000000,0.000000:
// measure 0
0000
0000
0000
0000
,  // measure 1
0000
0000
0000
0000
,  // measure 2
0000
0000
0000
0000
,  // measure 3
0000
0000
0000
0000
,  // measure 4
0000
0000
0000
0000
,  // measure 5
0000
0000
0000
0000
,  // measure 6
0000
0000
0000
0000
,  // measure 7
0000
0000
0000
0000
,  // measure 8
0000
0000
0000
0000
,  // measure 9
0101
0000
1010
1000
,  // measure 10
0001
0000
0000
0010
0000
0000
0100
0000
1100
0000
0000
0000
0000
0000
0000
0000
,  // measure 11
1010
0000
0000
0100
0001
0000
1000
0000
,  // measure 12
0100
0000
0000
1000
0000
0000
0010
0000
0101
0000
0000
0000
0000
0000
0000
0000
,  // measure 13
0110
0000
1001
0100
,  // measure 14
0010
0000
0000
0001
0000
0000
1000
0000
1010
0000
0000
0000
0000
0000
0000
0000
,  // measure 15
0010
0000
0000
0010
0100
0000
0001
0000
,  // measure 16
1000
0000
0000
0100
0000
0000
0010
0000
1001
0000
0000
0000
0000
0000
0000
0000
,  // measure 17
0011
0000
0000
0011
0000
0000
0100
0000
,  // measure 18
1100
0000
0000
1100
0000
1000
0010
0100
,  // measure 19
0101
0000
0000
0101
0000
0000
0010
0000
,  // measure 20
1010
0000
0000
1010
0000
0000
1001
0000
,  // measure 21
0011
0000
0000
0011
0000
0000
0100
0000
,  // measure 22
1100
0000
0000
1100
0000
1000
0010
0100
,  // measure 23
1001
0000
0000
0110
0000
0000
1001
0000
,  // measure 24
0101
0000
0000
1010
0000
0000
0101
0000
,  // measure 25
1010
0000
0100
0001
0010
0000
0100
1000
,  // measure 26
0010
1000
0100
1000
0001
0010
0100
0010
,  // measure 27
0001
1000
0001
1000
0010
0100
0010
0100
,  // measure 28
0001
1000
2002
3003
,  // measure 29
0220
0000
0000
0000
0000
0000
0330
0000
0000
0010
0000
0000
1000
0000
0000
0100
0000
0000
0010
0000
0001
0000
0010
0000
,  // measure 30
0001
0000
0000
0100
0000
0000
0010
1000
0010
0000
0100
0000
0001
0000
0000
0000
,  // measure 31
0011
0000
0000
0000
0000
0000
0000
0000
0000
0110
0000
0000
0000
0000
0000
0000
0000
0000
1100
0000
0000
0000
0000
0000
0020
0000
0000
0000
0000
0000
0000
0000
0000
0000
0000
0000
0130
0000
0000
0000
0001
0000
0000
0000
0100
0000
0000
0000
,  // measure 32
0001
0000
0010
0000
0100
0000
1000
0000
0000
0001
0000
0000
0100
0000
0010
0000
0100
0000
0010
0000
0000
0000
0000
0000
,  // measure 33
0202
0000
0000
0000
0000
0000
0303
0000
0000
0010
0000
0000
1000
0000
0000
0001
0000
0000
0010
0000
0001
0000
0010
0000
,  // measure 34
0001
0000
0000
0100
0000
0000
0010
1000
0010
0000
0100
0000
0001
0000
0000
0000
,  // measure 35
0101
0000
0010
1000
0000
0001
0010
0000
,  // measure 36
0100
1000
0000
0001
0100
0010
0100
0001
,  // measure 37
2002
0000
0000
0000
0000
0000
3003
0000
0000
0010
0000
0000
0100
0000
0000
0001
0000
0000
0010
0000
0001
0000
0010
0000
,  // measure 38
0001
0000
0000
0100
0000
0000
0010
1000
0010
0000
0100
0000
0001
0000
0000
0000
,  // measure 39
0101
0000
0000
0000
0000
0000
0000
0000
0000
0110
0000
0000
0000
0000
0000
0000
0000
0000
1010
0000
0000
0000
0000
0000
0002
0000
0000
0000
0000
0000
0000
0000
0000
0000
0000
0000
0013
0000
0000
0000
0100
0000
0000
0000
0010
0000
0000
0000
,  // measure 40
0100
0000
1000
0000
0001
0000
0100
0000
0000
0010
0000
0000
1000
0000
0100
0000
1000
0000
0100
0000
0000
0000
0000
0000
,  // measure 41
0012
0000
0000
0000
1003
0000
0010
0100
,  // measure 42
0110
0000
0000
1001
0000
0000
0110
0000
0010
0000
0001
0000
0100
0000
0000
0000
,  // measure 43
0110
0000
1000
0001
0000
0010
0100
0000
,  // measure 44
1000
0000
0000
0100
0000
0000
0010
0000
0001
0000
0010
0000
0001
0000
1000
0000
,  // measure 45
0220
0000
0000
0000
0000
0000
0330
0000
0000
0100
0000
0000
0001
0000
0000
0010
0000
0000
0100
0000
1000
0000
0100
0000
,  // measure 46
1000
0000
0000
0001
0000
0000
0100
0010
0100
0000
0001
0000
0010
0000
0000
0000
,  // measure 47
0110
0000
0000
0000
0000
0000
0000
0000
0000
1100
0000
0000
0000
0000
0000
0000
0000
0000
0011
0000
0000
0000
0000
0000
2000
0000
0000
0000
0000
0000
0000
0000
0000
0000
0000
0000
3010
0000
0000
0000
0100
0000
0000
0000
0010
0000
0000
0000
,  // measure 48
1000
0000
0010
0000
0100
0000
0001
0000
0000
1000
0000
0000
0100
0000
0010
0000
0001
0000
1000
0000
0000
0000
0000
0000
,  // measure 49
2010
0000
0000
0000
0000
0000
0000
0000
0000
3001
0000
0000
0100
0000
0000
0010
0000
0000
1000
0000
0001
0000
1000
0000
,  // measure 50
0001
0000
0000
0010
0000
0000
0100
1000
0100
0000
1000
0000
0001
0000
0000
0000
,  // measure 51
0101
0000
0010
1000
0000
0001
0010
0000
,  // measure 52
0100
0000
0000
1000
0000
0000
0001
0100
0001
0000
1000
0000
0100
0000
0000
0000
,  // measure 53
1100
0000
0000
0011
0000
0000
0100
0000
,  // measure 54
1100
0000
0000
1010
0000
0010
0100
0001
,  // measure 55
0011
0000
0000
0110
0000
0000
1000
0000
,  // measure 56
1001
0000
0000
0101
0000
0000
0110
0000
,  // measure 57
1010
0000
0000
0101
0000
0000
1000
0000
,  // measure 58
1100
0000
0000
0011
0000
0001
0100
0010
,  // measure 59
0110
0000
0000
1001
0000
0000
0011
0000
,  // measure 60
0100
0000
1000
0000
0001
0100
0001
0100
,  // measure 61
0010
1000
0100
1000
0001
0010
0100
0000
,  // measure 62
1000
0001
0100
0010
0100
0001
0010
0000
,  // measure 63
0100
1000
0001
1000
0100
0010
0001
0000
,  // measure 64
1000
0010
0100
0001
1000
0100
0010
0000
,  // measure 65
0011
0000
0001
0100
0000
0010
1000
0000
,  // measure 66
1010
0000
0100
0001
0000
1000
0100
0010
,  // measure 67
0011
0000
0100
1000
0000
0010
0100
0000
,  // measure 68
0101
0000
0010
1000
0000
0001
0010
0100
,  // measure 69
1100
0000
1000
1010
0000
0010
0110
0000
,  // measure 70
0100
0101
0000
0001
1001
0000
1000
0100
,  // measure 71
0010
0001
0100
0010
0100
0001
0010
0100
,  // measure 72
2002
0000
3003
0000
,  // measure 73
0010
0000
1000
0000
0001
0000
1000
0000
0100
0000
0010
0000
0001
0100
0001
0000
,  // measure 74
1000
0000
0100
0000
1000
0010
1000
0000
0010
0000
0100
0000
0001
0000
0000
0000
,  // measure 75
0100
0000
0000
0000
0000
0000
0010
0000
0000
1000
0000
0000
0000
0000
0000
1000
0000
0000
0001
0000
0000
0000
0000
0000
0020
0000
0000
0000
0000
0000
0000
0000
0000
0000
0000
0000
0031
0000
0000
0000
0100
0000
0000
0000
0001
0000
0000
0000
,  // measure 76
1000
0100
1000
0001
0000
0000
0010
0100
0010
0100
0000
0000
,  // measure 77
1000
0000
0000
0001
0000
0000
0100
0000
0000
0001
0000
0000
1000
0000
0000
0010
0000
0000
0100
0000
0001
0000
0100
0000
,  // measure 78
0002
0000
0000
0000
0013
0001
0010
0001
1000
0000
0010
0100
0010
0000
1000
0000
,  // measure 79
0100
0010
0100
1000
0010
1000
0001
0010
,  // measure 80
0001
0100
0010
1000
0001
0010
0100
1000
,  // measure 81
1100
0000
0010
0100
0001
1000
0100
0000
,  // measure 82
0011
0000
0100
1000
0010
0100
0001
0100
,  // measure 83
0110
0000
0010
1000
0001
1000
0100
0000
,  // measure 84
0011
0000
0100
1000
0010
1000
0001
0000
,  // measure 85
0101
0000
0100
0010
0100
0001
1000
0000
,  // measure 86
1100
0000
1000
0010
0100
0001
0010
0100
,  // measure 87
0110
0000
1000
0001
0100
0010
1000
0000
,  // measure 88
1010
0000
0100
0001
0100
0010
1000
0001
,  // measure 89
0011
0000
0001
0010
0100
1000
0010
0100
,  // measure 90
0101
0000
0010
0100
0001
1000
0100
0010
,  // measure 91
0110
0000
0100
1000
0010
1000
0001
0100
,  // measure 92
0101
0000
0001
0010
1000
0010
0100
1000
,  // measure 93
1100
0000
1000
0010
0100
0010
0100
0001
,  // measure 94
0101
0000
0010
1000
0001
1000
0100
0010
,  // measure 95
0001
0010
0001
0000
1000
0100
1000
0000
0001
0100
0001
0000
1000
0010
1000
0010
,  // measure 96
2000
0000
0002
0000
,  // measure 97
3003
0000
0000
0000
;

//---------------dance-single - ----------------
#NOTES:
     dance-single:
     :
     Challenge:
     10:
     0.916736,1.000000,0.727963,0.482671,0.609274,658.000000,92.000000,61.000000,0.000000,0.000000,0.000000,0.916736,1.000000,0.727963,0.482671,0.609274,658.000000,92.000000,61.000000,0.000000,0.000000,0.000000:
// measure 0
0000
0000
0000
0000
,  // measure 1
0000
0000
0000
0000
,  // measure 2
0000
0000
0000
0000
,  // measure 3
0000
0000
0000
0000
,  // measure 4
0000
0000
0000
0000
,  // measure 5
1010
0000
0000
0101
0000
0000
2002
0000
,  // measure 6
0000
0000
3003
0000
,  // measure 7
0011
0000
0000
1100
0000
0000
2002
0000
,  // measure 8
0000
0000
3003
0000
,  // measure 9
0210
0000
0000
0301
0101
0000
0100
0000
,  // measure 10
0010
0000
0000
1000
0000
0000
0001
0000
0220
0000
0000
0000
0330
0000
0000
0000
,  // measure 11
2100
0000
0000
3010
1010
0000
0010
0000
,  // measure 12
0110
0000
0000
0110
0000
0000
0100
0001
1000
0000
0000
0000
0001
0000
0000
0000
,  // measure 13
0021
0000
0000
0130
0110
0000
0100
0000
,  // measure 14
1000
0000
0000
0010
0000
0000
0100
0000
2002
0000
0000
0000
3003
0000
0000
0000
,  // measure 15
0201
0000
0000
0310
1010
0000
0100
0000
,  // measure 16
1001
0000
0000
1001
0000
0000
0001
1000
0020
0000
0000
0000
0030
0000
0000
0000
,  // measure 17
2020
0000
3030
0202
0000
0000
0303
0000
,  // measure 18
0022
0000
0000
0000
0033
0000
2100
0000
0000
0000
3001
0100
0010
0100
0001
1000
,  // measure 19
0200
0000
0300
0220
0000
0000
0330
0000
,  // measure 20
0022
0000
0033
0202
0000
0303
0110
0000
,  // measure 21
2020
0000
3030
0202
0000
0000
0303
0000
,  // measure 22
0022
0000
0000
0000
0033
0000
1200
0000
0000
0000
1300
0010
0100
0010
1000
0001
,  // measure 23
0020
0000
0030
0220
0000
0000
0330
0000
,  // measure 24
2200
0000
3300
1002
0000
0000
0103
0000
,  // measure 25
0010
1000
0100
1000
0001
0010
0100
0010
,  // measure 26
0001
1000
0100
1000
0001
0100
0010
0100
,  // measure 27
0001
0010
0100
0010
0001
1000
0100
1000
0010
0100
0001
0100
0010
1000
0001
1000
,  // measure 28
0200
0000
0310
0000
0001
1000
0000
0000
,  // measure 29
0220
0000
0000
0000
0000
0000
0300
0000
0000
0130
0000
0000
0101
0000
0000
0001
0000
0000
0010
0000
0001
0000
0100
0000
,  // measure 30
0010
0000
0000
1010
0000
0000
0100
0001
1000
0000
0100
0000
0010
0000
0000
0000
,  // measure 31
0011
0000
0000
0000
0000
0000
0001
0000
0000
0100
0000
0000
0000
0000
0000
0001
0000
0000
1000
0000
0000
0000
0000
0000
2100
0000
0000
0000
0000
0000
0000
0000
0000
0000
0000
0000
3001
0000
0000
0000
0100
0000
0000
0000
0010
0000
0000
0000
,  // measure 32
1000
0000
0100
0000
1000
0000
0001
0000
0000
0101
0000
0000
0100
0000
0010
0000
1000
0000
0001
0000
0000
0000
0000
0000
,  // measure 33
0202
0000
0000
0000
0000
0000
0003
0000
0000
0301
0000
0000
1001
0000
0000
0010
0000
0000
0100
0000
0001
0000
1000
0000
,  // measure 34
0100
0000
0000
0011
0000
0000
0100
1000
0010
0000
0100
0000
0001
0000
0000
0000
,  // measure 35
1000
0100
0010
0000
0100
0000
1000
0010
0100
0000
0001
0000
0010
0001
0100
0000
,  // measure 36
0001
0000
0010
0100
1000
0000
0010
0000
0100
0001
0100
0001
1000
0000
0000
0000
,  // measure 37
2200
0000
0000
0000
0000
0000
0300
0000
0000
3100
0000
0000
0110
0000
0000
0010
0000
0000
0001
0000
0100
0000
0010
0000
,  // measure 38
1000
0000
0000
0101
0000
0000
0010
0001
1000
0000
0010
0000
0100
0000
0000
0000
,  // measure 39
0101
0000
0000
0000
0000
0000
1000
0000
0000
0010
0000
0000
0000
0000
0000
1000
0000
0000
0100
0000
0000
0000
0000
0000
0012
0000
0000
0000
0000
0000
0000
0000
0000
0000
0000
0000
0103
0000
0000
0000
0010
0000
0000
0000
1000
0000
0000
0000
,  // measure 40
0001
0000
0010
0000
0100
0000
1000
0000
0000
1010
0000
0000
0100
0000
0010
0000
1000
0000
0001
0000
0000
0000
0000
0000
,  // measure 41
2002
0000
0000
0000
3003
0000
0011
0001
,  // measure 42
0101
0000
0000
1010
0000
0000
0100
0001
1000
0000
0000
0000
0020
0000
0000
0000
,  // measure 43
0130
0001
0010
0000
0100
0000
0010
0001
0100
0000
0010
0000
1000
0100
0010
0000
,  // measure 44
0100
0000
1000
0010
0100
0000
0001
0000
1000
0100
1000
0100
0010
0000
0000
0000
,  // measure 45
0220
0000
0000
0000
0000
0000
0030
0000
0000
0310
0000
0000
1001
0000
0000
0010
0000
0000
0100
0000
0001
0000
1000
0000
,  // measure 46
0100
0000
0000
1001
0000
0000
0100
0001
0010
0000
0100
0000
1000
0000
0000
0000
,  // measure 47
0110
0000
0000
0000
0000
0000
0100
0000
0000
0001
0000
0000
0000
0000
0000
1000
0000
0000
0100
0000
0000
0000
0000
0000
1200
0000
0000
0000
0000
0000
0000
0000
0000
0000
0000
0000
1300
0000
0000
0000
0010
0000
0000
0000
0100
0000
0000
0000
,  // measure 48
0001
0000
0100
0000
0010
0000
1000
0000
0000
0101
0000
0000
0010
0000
1000
0000
0001
0000
0010
0000
0000
0000
0000
0000
,  // measure 49
2100
0000
0000
0000
0000
0000
0000
0000
0000
3001
0000
0000
0011
0000
0000
0100
0000
0000
1000
0000
0010
0000
0100
0000
,  // measure 50
0001
0000
0000
0011
0000
0000
0100
1000
0001
0000
0100
0000
0010
0000
0000
0000
,  // measure 51
1000
0001
0100
0000
0010
0000
0100
0001
1000
0000
0100
0000
0010
0001
1000
0000
,  // measure 52
0010
0000
1000
0001
0010
0000
0100
0000
1000
0001
1000
0001
0100
0010
1000
0001
,  // measure 53
0010
0000
0000
1100
0000
0000
0010
0000
,  // measure 54
1010
0000
0000
0000
0000
0000
0101
0000
0000
0000
0001
1000
0100
1000
0001
0010
,  // measure 55
0001
0000
0000
1001
0000
0000
0100
0000
,  // measure 56
1010
0000
0000
0101
0000
0000
0110
0000
,  // measure 57
1010
0000
0000
1001
0000
0000
0100
0000
,  // measure 58
0011
0000
0000
0000
0000
0000
1100
0000
0000
0000
1000
0010
0100
0010
1000
0001
,  // measure 59
0010
0000
1100
1000
0000
0001
0100
0010
,  // measure 60
1010
0000
0100
0001
0000
1000
1001
0000
,  // measure 61
0010
0100
0001
0100
0010
1000
0001
1000
,  // measure 62
0100
0000
0010
0000
0001
0000
1000
0000
0010
0000
0100
0001
0100
0001
1000
0000
,  // measure 63
0001
0100
0010
1000
0001
1000
0100
0010
,  // measure 64
0001
0010
0100
1000
0001
1000
1010
0000
,  // measure 65
0101
0001
0100
0010
1000
0001
1000
0100
,  // measure 66
0010
0000
0001
0000
0100
0000
0010
0000
1000
0000
0001
0010
0001
0010
0001
0000
,  // measure 67
0010
0100
0010
0001
1000
0100
1000
0001
,  // measure 68
0100
0010
1000
0001
0010
0100
1000
0001
,  // measure 69
0101
0000
0010
1010
0000
0001
0011
0000
,  // measure 70
0100
1100
0000
0001
0101
0000
0010
1010
,  // measure 71
0000
0000
1001
0000
0000
0011
0000
0000
0110
0000
0000
1100
0000
0000
1001
0000
,  // measure 72
0202
0300
2000
3003
,  // measure 73
0010
0000
0000
1000
0000
0000
0010
0000
0000
0001
0000
0000
0010
0000
0000
0100
0000
0000
0010
0000
1000
0000
0010
0000
,  // measure 74
0100
0000
0001
0000
0010
0000
0001
0100
0010
0000
1000
0100
0010
0000
0100
1000
,  // measure 75
0001
0000
0000
0000
0000
0000
0100
0000
0000
0010
0000
0000
0000
0000
0000
0100
0000
0000
0001
0000
0000
0000
0000
0000
1000
0000
0000
0000
0000
0000
0000
0000
0000
0000
0000
0000
0010
0000
0000
0000
0100
0000
0000
0000
0001
0000
0000
0000
,  // measure 76
0010
0000
0001
0000
0100
0000
0010
0000
0000
1001
0000
0000
0001
0000
0010
0000
0100
0000
1000
0000
0000
0000
0000
0000
,  // measure 77
0001
0000
0000
0100
0000
0000
1000
0000
0000
0100
0000
0000
0010
0000
0000
1000
0000
0000
0001
0000
0010
0000
0001
0000
,  // measure 78
0100
0000
0000
0000
0000
0000
0010
0000
0000
0000
0000
0000
1000
0000
0000
0000
0001
0000
0000
0000
1000
0000
0000
0000
0001
0000
0000
0000
0000
0000
0010
0000
0000
0001
0000
0000
0100
0000
0000
0000
0000
0000
0000
0000
0000
0000
0000
0000
,  // measure 79
1000
0100
0001
1000
0100
0001
1000
0010
,  // measure 80
0001
0000
1000
0000
0010
0000
0100
0000
0001
0010
0100
1000
0010
0100
0001
1000
,  // measure 81
0100
1000
0001
0100
0010
0100
0001
0010
,  // measure 82
0100
0000
1000
0000
0010
0000
0100
0000
0001
0000
0100
0010
1000
0001
1000
0100
,  // measure 83
0010
0000
0001
0000
1000
0000
0010
0000
0100
0000
0001
0100
0000
0000
0010
1000
,  // measure 84
0001
0000
0010
0000
0001
0000
0100
0000
0010
1000
0000
0001
0010
0000
0001
1000
,  // measure 85
0010
0100
0001
1000
0100
1000
0001
0010
,  // measure 86
1000
0000
0010
0000
0100
0000
1000
0000
0001
0000
0100
0010
0100
0001
1000
0010
,  // measure 87
0100
0000
0001
0000
0010
0000
0001
0000
0100
0000
0010
1000
0000
0000
0100
1000
,  // measure 88
0001
0000
0100
0000
0010
0000
1000
0000
0001
0010
0001
1000
0100
1000
0010
0100
,  // measure 89
0001
0010
0100
1000
0010
0100
0001
0100
,  // measure 90
1000
0000
0100
0000
0001
0000
0010
0000
0100
0000
1000
0010
1000
0001
0100
0010
,  // measure 91
1000
0001
0010
0001
0100
0010
1000
0100
,  // measure 92
1000
0000
0010
0000
0100
0000
0001
0000
0010
0001
0000
1000
0010
0000
0100
0001
,  // measure 93
0010
0100
1000
0010
0001
0010
1000
0100
,  // measure 94
0001
0000
0100
0000
0010
0000
0001
0000
1000
0000
0010
0100
0001
1000
0100
0010
,  // measure 95
0001
0010
0001
1000
0010
1000
0001
0100
0010
1000
0001
0010
0100
1000
0010
0100
,  // measure 96
0002
0000
2000
0000
,  // measure 97
3003
0000
0000
0000
;
