#VERSION:0.81;
#TITLE:Rainbow Road;
#SUBTITLE:;
#ARTIST:nanobii;
#TITLETRANSLIT:;
#SUBTITLETRANSLIT:;
#ARTISTTRANSLIT:;
#GENRE:;
#ORIGIN:;
#CREDIT:;
#BANNER:;
#BACKGROUND:;
#PREVIEWVID:;
#JACKET:;
#CDIMAGE:;
#DISCIMAGE:;
#LYRICSPATH:Rainbow Road - nanobii.lrc;
#CDTITLE:encorerebirth.png;
#MUSIC:Rainbow Road - nanobii.mp3;
#OFFSET:-0.053;
#SAMPLESTART:22.613;
#SAMPLELENGTH:22.528;
#SELECTABLE:YES;
#DISPLAYBPM:42.000:255.000;
#BPMS:0.000=170.000;
#STOPS:;
#DELAYS:;
#WARPS:;
#TIMESIGNATURES:0.000=4=4;
#TICKCOUNTS:0.000=4;
#COMBOS:0.000=1;
#SPEEDS:0.000=1.000=0.000=0;
#SCROLLS:0.000=0.300,
8.000=0.350,
16.000=0.400,
24.000=0.450,
32.000=0.500,
48.000=0.550,
50.000=0.600,
52.000=0.650,
54.000=0.700,
56.000=0.750,
58.000=0.800,
60.000=0.850,
62.000=0.350,
63.500=1.500,
64.000=1.000,
92.000=0.750,
95.000=1.500,
95.500=1.000,
120.500=0.950,
121.250=0.900,
122.000=0.850,
122.750=0.800,
123.500=0.750,
124.250=0.700,
125.000=0.650,
125.750=0.600,
126.500=0.550,
127.250=0.500,
127.500=0.250,
128.000=1.000,
156.000=0.750,
160.000=1.000,
170.500=1.500,
171.000=1.000,
171.500=1.500,
172.000=1.000,
176.000=0.500,
177.000=1.000,
182.000=0.950,
183.000=0.900,
184.000=0.850,
185.000=0.800,
186.000=0.750,
187.000=0.700,
188.000=0.650,
189.000=0.600,
190.000=0.550,
191.000=0.500,
192.000=0.450,
193.000=0.400,
194.000=0.350,
195.000=0.300,
196.000=0.250,
216.000=0.300,
219.000=0.350,
222.000=0.400,
225.000=0.450,
228.000=0.500,
230.000=0.525,
232.000=0.550,
234.000=0.575,
236.000=0.600,
238.000=0.625,
240.000=0.650,
242.000=0.675,
244.000=0.700,
246.000=0.725,
248.000=0.750,
250.000=0.775,
252.000=0.800,
254.000=0.825,
256.000=0.350,
259.500=1.500,
260.000=1.000,
312.000=0.900,
313.000=0.850,
314.000=0.800,
315.000=0.750,
316.000=0.700,
317.000=0.650,
318.000=0.600,
319.000=0.550,
320.000=0.500,
321.000=0.450,
322.000=0.400;
#FAKES:;
#LABELS:0.000=Song Start;
#BGCHANGES:;
#KEYSOUNDS:;
#ATTACKS:
;

//---------------dance-single - Spork!----------------
#NOTEDATA:;
#CHARTNAME:;
#STEPSTYPE:dance-single;
#DESCRIPTION:Spork!;
#CHARTSTYLE:;
#DIFFICULTY:Beginner;
#METER:2;
#RADARVALUES:0.127,0.273,0.145,0.085,0.000,77.000,17.000,10.000,0.000,0.000,0.000,0.000,0.000,0.127,0.273,0.145,0.085,0.000,77.000,17.000,10.000,0.000,0.000,0.000,0.000,0.000;
#CREDIT:Spork!;
#DISPLAYBPM:42.000:255.000;
#NOTES:
// measure 0
0000
0000
0000
0000
,  // measure 1
0000
0000
0000
0000
,  // measure 2
0000
0000
0000
0000
,  // measure 3
0000
0000
0000
0000
,  // measure 4
0000
0000
0000
0000
,  // measure 5
0000
0000
0000
0000
,  // measure 6
0000
0000
0000
0000
,  // measure 7
0000
0000
0000
0000
,  // measure 8
0100
0000
0000
0000
,  // measure 9
0000
0000
0000
0000
,  // measure 10
0010
0000
0000
0000
,  // measure 11
0000
0000
0000
0000
,  // measure 12
2000
0000
0000
0000
,  // measure 13
0000
0000
0000
0000
,  // measure 14
0002
0000
0000
0000
,  // measure 15
0000
0000
3003
0000
,  // measure 16
1001
0000
0000
0000
,  // measure 17
1001
0000
0000
0000
,  // measure 18
0100
0000
0001
0000
,  // measure 19
1000
0000
0000
0000
,  // measure 20
1001
0000
0000
0000
,  // measure 21
1001
0000
0000
0000
,  // measure 22
0100
0000
0000
0000
,  // measure 23
0200
0000
0000
0300
,  // measure 24
0110
0000
0000
0000
,  // measure 25
0110
0000
0000
0000
,  // measure 26
0001
0000
0010
0000
,  // measure 27
0100
0000
0000
0000
,  // measure 28
0110
0000
0000
0000
,  // measure 29
0110
0000
0000
0000
,  // measure 30
2000
0000
0000
0000
,  // measure 31
0000
0000
0000
3000
,  // measure 32
0001
0000
0001
0000
,  // measure 33
0010
0000
0010
0000
,  // measure 34
0001
0000
0001
0000
,  // measure 35
0100
0000
0001
0000
,  // measure 36
1000
0000
1000
0000
,  // measure 37
0100
0000
0100
0000
,  // measure 38
1000
0000
1000
0000
,  // measure 39
0020
0000
0000
0030
,  // measure 40
1000
1000
1000
0000
,  // measure 41
0001
0001
0001
0000
,  // measure 42
0000
0000
0000
0000
0000
0110
0000
0110
,  // measure 43
0000
0000
0000
0000
,  // measure 44
0000
0001
0001
0002
,  // measure 45
0000
1000
1000
2000
,  // measure 46
0000
0000
0000
0000
,  // measure 47
0000
0000
0000
0000
,  // measure 48
3003
0000
0000
0000
,  // measure 49
0001
0000
0000
0000
,  // measure 50
0000
0000
0000
0000
,  // measure 51
0100
0000
0000
0000
,  // measure 52
0000
0000
0000
0000
,  // measure 53
0010
0000
0000
0000
,  // measure 54
0000
0000
0000
0000
,  // measure 55
1000
0000
0000
0000
,  // measure 56
0000
0000
0000
0000
,  // measure 57
0001
0000
0000
0000
,  // measure 58
0001
0000
0000
0000
,  // measure 59
1000
0000
0000
0000
,  // measure 60
1000
0000
0000
0000
,  // measure 61
0100
0000
0000
0000
,  // measure 62
0100
0000
0000
0000
,  // measure 63
0020
0000
0000
0000
,  // measure 64
0030
0000
0000
0000
,  // measure 65
0110
0000
0000
0000
,  // measure 66
1001
0000
0000
0000
,  // measure 67
1000
0000
0001
0000
,  // measure 68
0100
0000
0000
0000
,  // measure 69
1001
0000
0000
0000
,  // measure 70
0110
0000
0000
0000
,  // measure 71
0100
0000
0001
0000
,  // measure 72
1000
0000
0000
0000
,  // measure 73
1001
0000
0000
0000
,  // measure 74
1001
0000
0000
0000
,  // measure 75
0010
0000
0001
0000
,  // measure 76
0100
0000
0000
0000
,  // measure 77
0220
0000
0000
0000
,  // measure 78
0000
0000
0000
0000
,  // measure 79
0000
0000
0000
0000
,  // measure 80
0330
0000
0000
0000
;

//---------------dance-single - Spork!----------------
#NOTEDATA:;
#CHARTNAME:;
#STEPSTYPE:dance-single;
#DESCRIPTION:Spork!;
#CHARTSTYLE:;
#DIFFICULTY:Easy;
#METER:4;
#RADARVALUES:0.270,0.414,0.273,0.349,0.000,149.000,32.000,41.000,0.000,0.000,0.000,0.000,0.000,0.270,0.414,0.273,0.349,0.000,149.000,32.000,41.000,0.000,0.000,0.000,0.000,0.000;
#CREDIT:Spork!;
#DISPLAYBPM:42.000:255.000;
#NOTES:
// measure 0
0000
0000
0000
0000
,  // measure 1
0000
0000
0000
0000
,  // measure 2
0000
0000
0000
0000
,  // measure 3
0000
0000
0000
0000
,  // measure 4
0000
0000
0000
0000
,  // measure 5
0000
0000
0000
0000
,  // measure 6
0000
0000
0000
0000
,  // measure 7
0000
0000
0000
0000
,  // measure 8
0001
0000
0100
0000
,  // measure 9
0001
0000
0001
0000
,  // measure 10
1000
0000
0010
0000
,  // measure 11
1000
0000
1000
0000
,  // measure 12
0100
0000
1000
0000
,  // measure 13
0100
0000
0100
0000
,  // measure 14
0010
0000
0001
0000
,  // measure 15
0020
0000
0030
0000
,  // measure 16
1001
0000
0100
0000
,  // measure 17
0011
0000
0100
0000
,  // measure 18
1010
0000
0100
0000
,  // measure 19
2002
0000
3003
0000
,  // measure 20
0110
0000
0001
0000
,  // measure 21
1100
0000
0001
0000
,  // measure 22
2020
0000
3030
0000
,  // measure 23
1000
0100
0010
0110
,  // measure 24
1001
0000
0010
0000
,  // measure 25
1100
0000
0010
0000
,  // measure 26
0101
0000
0010
0000
,  // measure 27
2002
0000
3003
0000
,  // measure 28
0110
0000
1000
0000
,  // measure 29
0011
0000
1000
0001
,  // measure 30
0202
0000
0000
0000
,  // measure 31
0000
0000
0000
0303
,  // measure 32
0001
0020
1000
0030
,  // measure 33
1000
0020
0001
0030
,  // measure 34
1000
0200
0001
0300
,  // measure 35
0200
0000
0310
0100
,  // measure 36
1000
0020
0001
0030
,  // measure 37
0001
0020
1000
0030
,  // measure 38
0001
0200
1000
0300
,  // measure 39
0210
0000
0310
1000
,  // measure 40
0001
0020
1000
0030
,  // measure 41
1000
0200
0001
0300
,  // measure 42
1000
0000
0001
0000
0000
0110
0000
1001
,  // measure 43
0000
0001
1000
0001
,  // measure 44
0000
0200
0302
0023
,  // measure 45
0030
0200
2300
3020
,  // measure 46
0230
0000
0000
0000
,  // measure 47
0000
0000
0000
0000
,  // measure 48
0000
0000
0000
0300
,  // measure 49
0001
0001
0000
0000
,  // measure 50
0000
0000
0000
0000
,  // measure 51
0010
0010
0000
0000
,  // measure 52
0000
0000
0000
0000
,  // measure 53
0100
0100
0000
0000
,  // measure 54
0000
0000
0000
0000
,  // measure 55
1000
1000
0000
0000
,  // measure 56
0000
0000
0000
0000
,  // measure 57
0001
0000
0010
0000
,  // measure 58
0001
0000
0001
0000
,  // measure 59
1000
0000
0010
0000
,  // measure 60
1000
0000
1000
0000
,  // measure 61
0100
0000
0000
0100
0000
0000
0100
0000
,  // measure 62
0100
0000
0000
0100
0000
0000
0100
0000
,  // measure 63
0200
0000
0000
0000
,  // measure 64
0300
0000
0000
0000
,  // measure 65
1100
0200
0001
0300
,  // measure 66
0101
0200
1000
0300
,  // measure 67
0011
0020
1000
0030
,  // measure 68
0020
0000
0130
0010
,  // measure 69
0101
0200
1000
0300
,  // measure 70
1100
0200
0001
0300
,  // measure 71
1010
0020
0001
0030
,  // measure 72
0120
0000
0130
0001
,  // measure 73
1001
0200
0001
0300
,  // measure 74
1001
0020
1000
0030
,  // measure 75
0110
2000
0001
3000
,  // measure 76
0200
0000
0300
0000
,  // measure 77
1010
0000
0000
0101
0000
1001
0000
0220
,  // measure 78
0000
0000
0000
0000
,  // measure 79
0000
0000
0000
0000
,  // measure 80
0000
0000
0000
0000
,  // measure 81
0330
0000
0000
0000
;

//---------------dance-single - Spork!----------------
#NOTEDATA:;
#CHARTNAME:;
#STEPSTYPE:dance-single;
#DESCRIPTION:Spork!;
#CHARTSTYLE:;
#DIFFICULTY:Hard;
#METER:8;
#RADARVALUES:0.488,0.897,0.315,0.801,0.085,270.000,37.000,94.000,0.000,0.000,0.000,0.000,0.000,0.488,0.897,0.315,0.801,0.085,270.000,37.000,94.000,0.000,0.000,0.000,0.000,0.000;
#CREDIT:Spork!;
#DISPLAYBPM:42.000:255.000;
#NOTES:
// measure 0
0000
0000
0000
0000
,  // measure 1
0000
0000
0000
0000
,  // measure 2
0000
0000
0000
0000
,  // measure 3
0000
0000
0000
0000
,  // measure 4
0000
0000
0000
0000
,  // measure 5
0000
0000
0000
0000
,  // measure 6
0000
0000
0000
0000
,  // measure 7
0000
0000
0000
0000
0000
0000
1000
0001
,  // measure 8
2000
3020
0230
0302
,  // measure 9
1000
0000
1000
0000
1003
0000
0001
1000
,  // measure 10
0002
0103
0020
0230
,  // measure 11
0301
0000
0020
0000
0230
0000
1300
0001
,  // measure 12
0100
0100
0100
0200
,  // measure 13
0000
0010
0010
0020
,  // measure 14
0000
0000
0000
0000
,  // measure 15
0330
0000
0000
0000
1000
0100
0001
0000
,  // measure 16
0210
2300
3020
0230
,  // measure 17
0301
0020
0032
0203
,  // measure 18
0310
0020
2030
3002
,  // measure 19
1003
0000
1000
0100
0010
0001
1000
0001
,  // measure 20
0200
0302
0023
0230
,  // measure 21
1300
0020
2030
3200
,  // measure 22
0310
0010
0001
0100
,  // measure 23
0001
0010
1000
0010
0001
0010
2002
3003
,  // measure 24
0120
0032
0203
0320
,  // measure 25
1030
0200
2300
3020
,  // measure 26
0130
0200
0302
2003
,  // measure 27
3001
0000
0001
0010
0100
1000
0001
1000
,  // measure 28
1020
0000
0000
0000
0230
0000
0000
0000
0302
0000
0000
0000
0023
0000
0000
0030
,  // measure 29
0110
0200
2300
3002
,  // measure 30
2003
0000
0010
0010
0000
0100
0000
0002
,  // measure 31
0000
0000
0000
3003
,  // measure 32
0001
0000
0000
0100
0000
0000
2000
0000
0000
0000
0000
0000
3100
0000
0000
0000
,  // measure 33
0001
0000
0000
0010
0000
0000
2000
0000
0000
0000
0000
0000
3010
0000
0000
0000
,  // measure 34
0001
0000
0000
0100
0000
0000
2000
0000
0000
0000
0000
0000
3100
0000
0000
0000
,  // measure 35
0001
0100
0001
0010
0100
1000
1000
0001
,  // measure 36
1000
0000
0000
0010
0000
0000
0002
0000
0000
0000
0000
0000
0013
0000
0000
0000
,  // measure 37
1000
0000
0000
0100
0000
0000
0002
0000
0000
0000
0000
0000
0103
0000
0000
0000
,  // measure 38
1000
0000
0000
0010
0000
0000
0002
0000
0000
0000
0000
0000
0013
0000
0000
0000
,  // measure 39
0210
0000
0000
0000
0000
0301
0001
1000
,  // measure 40
0001
0000
0000
0010
0000
0000
2000
0000
0000
0000
0000
0000
3010
0000
0000
0000
,  // measure 41
0001
0000
0000
0100
0000
0000
2000
0000
0000
0000
0000
0000
3100
0000
0000
0000
,  // measure 42
0001
0000
0000
0010
0000
0000
1000
0000
0000
0000
0220
0000
0000
0330
2002
0000
,  // measure 43
0000
3003
0000
0000
0010
0000
0000
0000
0100
0000
0001
0000
0001
0000
1000
0000
,  // measure 44
0001
0000
0000
0000
2200
0000
0000
3300
0202
0000
0000
0303
2200
0000
0000
3300
,  // measure 45
0001
0000
0000
0000
2020
0000
0000
3030
0022
0000
0000
0033
2020
0000
0000
3030
,  // measure 46
0200
0000
0000
0000
,  // measure 47
0000
0000
0000
0000
,  // measure 48
0000
0000
0000
0300
,  // measure 49
0001
0010
0001
0200
0000
0000
0000
0000
,  // measure 50
0310
0000
0010
0000
,  // measure 51
1000
0100
1000
0020
0000
0000
0000
0000
,  // measure 52
0130
0000
0100
0000
,  // measure 53
0001
1000
1000
2000
,  // measure 54
0000
0001
0001
0002
,  // measure 55
0000
0000
0000
0000
,  // measure 56
3000
0000
0003
0000
,  // measure 57
0011
0001
0100
0001
,  // measure 58
1000
0000
0000
0000
0010
0000
0000
0000
0100
0000
0000
0010
0100
0000
0000
0000
,  // measure 59
0010
1000
0100
1000
,  // measure 60
0001
0000
0010
0000
0100
0010
0100
1000
,  // measure 61
1100
0000
0000
0110
0000
0000
0011
0000
,  // measure 62
0101
0000
0000
0110
0000
0000
1010
0000
,  // measure 63
2002
0000
0000
3003
,  // measure 64
0001
0000
0100
0000
1000
0000
0000
0000
0100
0010
0000
0000
0100
0000
0001
0000
,  // measure 65
1000
0000
0000
0100
0000
0000
0002
0000
0000
0000
0000
0003
0101
0000
0000
0000
,  // measure 66
1000
0000
0000
0010
0000
0000
0002
0000
0000
0000
0000
0003
0011
0000
0000
0000
,  // measure 67
1000
0000
0000
0100
0000
0000
0002
0000
0000
0000
0000
0003
0101
0000
0000
0000
,  // measure 68
1000
0100
0010
0001
0100
0001
0001
1000
,  // measure 69
0001
0000
0000
0010
0000
0000
2000
0000
0000
0000
0000
3000
1010
0000
0000
0000
,  // measure 70
0001
0000
0000
0100
0000
0000
2000
0000
0000
0000
0000
3000
1100
0000
0000
0000
,  // measure 71
0001
0000
0000
0010
0000
0000
2000
0000
0000
0000
0000
3000
1010
0000
0000
0000
,  // measure 72
0210
0000
0000
0000
0300
1000
1000
0001
,  // measure 73
1000
0000
0000
0010
0000
0000
0002
0000
0000
0000
0000
0003
0011
0000
0000
0000
,  // measure 74
1000
0000
0000
0100
0000
0000
0002
0000
0000
0000
0000
0003
0101
0000
0000
0000
,  // measure 75
1000
0000
0000
0010
0000
0000
0002
0000
0000
0000
0000
0003
0011
0000
0000
0000
,  // measure 76
0120
0100
0000
1030
,  // measure 77
1010
0000
0000
0011
0000
0110
0000
2002
,  // measure 78
0000
0000
0000
0000
,  // measure 79
0000
0000
0000
0000
,  // measure 80
0000
0000
0000
0000
,  // measure 81
3003
0000
0000
0000
;

//---------------dance-single - Spork!----------------
#NOTEDATA:;
#CHARTNAME:;
#STEPSTYPE:dance-single;
#DESCRIPTION:Spork!;
#CHARTSTYLE:;
#DIFFICULTY:Medium;
#METER:7;
#RADARVALUES:0.387,0.483,0.273,0.494,0.077,228.000,32.000,58.000,0.000,0.000,0.000,0.000,0.000,0.387,0.483,0.273,0.494,0.077,228.000,32.000,58.000,0.000,0.000,0.000,0.000,0.000;
#CREDIT:Spork!;
#DISPLAYBPM:42.000:255.000;
#NOTES:
// measure 0
0000
0000
0000
0000
,  // measure 1
0000
0000
0000
0000
,  // measure 2
0000
0000
0000
0000
,  // measure 3
0000
0000
0000
0000
,  // measure 4
0000
0000
0000
0000
,  // measure 5
0000
0000
0000
0000
,  // measure 6
0000
0000
0000
0000
,  // measure 7
0000
0000
0000
0000
,  // measure 8
0001
0001
1000
1000
,  // measure 9
0001
0010
0100
1000
,  // measure 10
0010
0010
0100
0100
,  // measure 11
0001
0100
0010
1000
,  // measure 12
0001
0010
0010
0020
,  // measure 13
0000
0100
0100
0200
,  // measure 14
0000
0000
0000
0000
,  // measure 15
0330
0000
0000
0000
,  // measure 16
0021
0031
0100
0010
,  // measure 17
1002
0103
0010
1000
,  // measure 18
1200
1300
0010
0100
,  // measure 19
0120
0100
1000
1030
,  // measure 20
1020
1030
0100
0010
,  // measure 21
2001
3100
0010
0001
,  // measure 22
2001
0010
0000
3010
,  // measure 23
1002
0000
0013
0000
0100
0010
0100
0000
,  // measure 24
1200
1300
0010
0100
,  // measure 25
2001
3010
0100
0001
,  // measure 26
0021
0031
0100
0010
,  // measure 27
0210
0010
0001
0301
,  // measure 28
0201
0301
0010
0100
,  // measure 29
1002
0013
0100
1000
,  // measure 30
0220
0000
0000
0000
,  // measure 31
0000
0000
0000
0330
,  // measure 32
0001
0000
0000
0010
0000
0000
0002
0000
0000
0000
0000
0000
1003
0000
0000
0000
,  // measure 33
1000
0000
0000
0010
0000
0000
2000
0000
0000
0000
0000
0000
3100
0000
0000
0000
,  // measure 34
0100
0000
0000
0010
0000
0000
0002
0000
0000
0000
0000
0000
1003
0000
0000
0000
,  // measure 35
0001
0000
0100
0000
0010
0100
0100
0001
,  // measure 36
1000
0000
0000
0100
0000
0000
2000
0000
0000
0000
0000
0000
3001
0000
0000
0000
,  // measure 37
0001
0000
0000
0100
0000
0000
0002
0000
0000
0000
0000
0000
0013
0000
0000
0000
,  // measure 38
0010
0000
0000
0100
0000
0000
2000
0000
0000
0000
0000
0000
3001
0000
0000
0000
,  // measure 39
0202
0000
0000
0000
0303
0100
0100
0001
,  // measure 40
1000
0000
0000
0100
0000
0000
2000
0000
0000
0000
0000
0000
3001
0000
0000
0000
,  // measure 41
0001
0000
0000
0010
0000
0000
0002
0000
0000
0000
0000
0000
0103
0000
0000
0000
,  // measure 42
0100
0000
0000
0010
0000
0000
1000
0000
0000
0000
2002
0000
3003
0000
0220
0000
,  // measure 43
0330
0000
0000
0000
0000
0010
0010
1000
,  // measure 44
0001
0011
0101
0110
,  // measure 45
1000
1100
1010
1001
,  // measure 46
0020
0000
0000
0000
,  // measure 47
0000
0000
0000
0000
,  // measure 48
0000
0000
0000
0030
,  // measure 49
0200
0000
0000
0000
,  // measure 50
0310
0000
1000
0000
,  // measure 51
0200
0000
0000
0000
,  // measure 52
0310
0000
0001
0000
,  // measure 53
1000
0001
0001
0002
,  // measure 54
0000
1000
1000
2000
,  // measure 55
0000
0000
0000
0000
,  // measure 56
0003
0000
3000
0000
,  // measure 57
1010
0010
1000
0100
,  // measure 58
0010
0001
0100
0010
,  // measure 59
0101
0100
0001
0010
,  // measure 60
0100
1000
0010
0100
,  // measure 61
0002
0000
0000
0023
0000
0000
0230
0000
,  // measure 62
2300
0000
0000
3020
0000
0000
0230
0000
,  // measure 63
0302
0000
0000
0000
,  // measure 64
1003
0000
0001
0000
,  // measure 65
1000
0000
0000
0010
0000
0000
0200
0000
0000
0000
0000
0000
0310
0000
0000
0000
,  // measure 66
0010
0000
0000
0100
0000
0000
0002
0000
0000
0000
0000
0000
0013
0000
0000
0000
,  // measure 67
0010
0000
0000
0001
0000
0000
2000
0000
0000
0000
0000
0000
3010
0000
0000
0000
,  // measure 68
1000
0000
0100
0000
0010
0100
0100
1000
,  // measure 69
0001
0000
0000
0100
0000
0000
0020
0000
0000
0000
0000
0000
0130
0000
0000
0000
,  // measure 70
0100
0000
0000
0010
0000
0000
2000
0000
0000
0000
0000
0000
3100
0000
0000
0000
,  // measure 71
0100
0000
0000
1000
0000
0000
0002
0000
0000
0000
0000
0000
1003
0000
0000
0000
,  // measure 72
1200
0000
0000
0000
0300
1000
1000
0010
,  // measure 73
1000
0000
0000
0100
0000
0000
0002
0000
0000
0000
0000
0000
0103
0000
0000
0000
,  // measure 74
1000
0000
0000
0010
0000
0000
0002
0000
0000
0000
0000
0000
0013
0000
0000
0000
,  // measure 75
1000
0000
0000
0100
0000
0000
0002
0000
0000
0000
0000
0000
0103
0000
0000
0000
,  // measure 76
0220
0000
0000
0330
,  // measure 77
1100
0000
0000
0101
0000
1001
0000
0220
,  // measure 78
0000
0000
0000
0000
,  // measure 79
0000
0000
0000
0000
,  // measure 80
0000
0000
0000
0000
,  // measure 81
0330
0000
0000
0000
;

//---------------dance-single - Spork!----------------
#NOTEDATA:;
#CHARTNAME:;
#STEPSTYPE:dance-single;
#DESCRIPTION:Spork!;
#CHARTSTYLE:;
#DIFFICULTY:Challenge;
#METER:13;
#RADARVALUES:1.000,1.000,0.273,0.196,1.000,774.000,32.000,23.000,122.000,0.000,0.000,0.000,0.000,1.000,1.000,0.273,0.196,1.000,774.000,32.000,23.000,122.000,0.000,0.000,0.000,0.000;
#CREDIT:Spork!;
#DISPLAYBPM:42.000:255.000;
#NOTES:
// measure 0
0000
0000
0000
0000
,  // measure 1
0000
0000
0000
0000
,  // measure 2
0000
0000
0000
0000
,  // measure 3
0000
0000
0000
0000
,  // measure 4
0000
0000
0000
0000
,  // measure 5
0000
0000
0000
0000
,  // measure 6
0000
0000
0000
0000
,  // measure 7
0000
0000
0000
0000
0000
0000
010M
01M0
,  // measure 8
M001
0010
M001
0100
M001
0010
M001
0100
,  // measure 9
0001
0010
1000
0010
0001
0100
M010
0M10
,  // measure 10
100M
0100
1000
0010
100M
0100
100M
0010
,  // measure 11
1000
0100
00M1
0100
10M0
0001
M100
01M0
,  // measure 12
001M
1000
0100
1000
0010
0100
0001
0010
0001
0100
0010
1000
0100
0010
0001
0100
,  // measure 13
0001
0010
0100
1000
0010
0100
0010
1000
0001
0100
0010
1000
0010
0100
0001
0010
,  // measure 14
0001
0100
0010
0100
1000
0100
0010
0100
0001
0010
0100
1000
0001
1000
0010
0100
,  // measure 15
0010
0001
0010
0100
0010
1000
0100
0010
0002
0000
2003
0000
3020
0000
0130
0100
,  // measure 16
0001
0010
0001
0010
0100
1000
0100
1000
0010
0100
0010
0100
0001
1000
0001
1000
,  // measure 17
0100
0000
0010
0000
0100
1000
0100
1000
0010
0100
0010
0100
0001
0010
0001
0010
,  // measure 18
0100
0000
0010
0000
0001
1000
0001
1000
0010
0100
0010
0100
0001
0010
0001
0010
,  // measure 19
0100
1000
0010
0001
0010
1000
0001
0000
,  // measure 20
1000
0010
1000
0010
0100
0001
0100
0001
0010
0100
0010
0100
1000
0001
1000
0001
,  // measure 21
0100
0000
0010
0000
0100
0001
0100
0001
0010
0100
0010
0100
1000
0010
1000
0010
,  // measure 22
0100
0001
0010
1000
0010
0001
1000
0001
,  // measure 23
1000
0100
1000
0001
0100
0001
1000
0010
1000
0001
0010
0001
0200
0000
0000
0000
,  // measure 24
0310
1000
0010
1000
0100
0010
0100
0010
0001
1000
0001
1000
0010
0100
0010
0100
,  // measure 25
0001
0000
0010
0000
0100
0010
0100
0010
0001
0100
0001
0100
0010
1000
0010
1000
,  // measure 26
0100
0000
1000
0000
0001
0010
0001
0010
0100
1000
0100
1000
0010
0100
0010
0100
,  // measure 27
0001
0010
0100
0001
0100
1000
0001
0000
,  // measure 28
0011
0001
0010
0001
0100
0010
0100
0010
1000
0001
1000
0001
0010
0100
0010
0100
,  // measure 29
2100
0000
3001
0000
0100
0001
0100
0001
0010
0100
0010
0100
100M
0010
1000
0010
,  // measure 30
012M
0000
0030
0000
M100
0001
10M0
0100
1000
0010
M100
0001
0010
0001
1M00
0010
,  // measure 31
1000
0100
0010
0001
0100
0010
1000
0010
0100
0000
0001
0000
0010
0000
1001
0000
,  // measure 32
11M0
0000
1000
010M
0010
0100
100M
0100
0010
0100
1000
0100
0010
0000
0001
0000
,  // measure 33
01M1
0000
0001
M100
0010
0100
M001
0100
0010
0100
0001
0100
0010
0000
1000
0000
,  // measure 34
1M01
0000
1000
01M0
1000
0001
10M0
0100
1000
0001
1000
0100
0010
0000
0001
0000
,  // measure 35
1000
0010
0001
0010
1000
0M01
10M0
100M
,  // measure 36
1M10
0000
1000
001M
0100
0010
100M
0010
0100
0010
1000
0010
0100
0000
0001
0000
,  // measure 37
0M11
0000
0001
M010
0100
0010
M001
0010
0100
0010
0001
0010
0100
0000
1000
0000
,  // measure 38
10M1
0000
0001
0M10
0001
1000
0M01
0010
0001
1000
0001
0010
0100
0000
1000
0000
,  // measure 39
1200
0000
0001
0000
0300
010M
M010
M001
,  // measure 40
01M1
0000
0001
M100
0001
0100
001M
0100
0010
0100
0010
1000
0010
0000
1000
0000
,  // measure 41
11M0
0000
1000
010M
1000
0100
M010
0100
0010
0100
0010
0001
0010
0000
0001
0000
,  // measure 42
0M11
0000
0001
01M0
0001
0000
10M0
0000
0001
0000
0022
0000
0000
0033
2020
0000
,  // measure 43
0000
3030
0000
0000
0010
0000
0000
0000
1000
0000
01M0
1000
010M
0000
100M
0000
,  // measure 44
0M10
0000
0000
M000
0100
0010
010M
0010
1000
0100
1000
0100
0010
0001
0010
0001
,  // measure 45
1M00
0000
0000
000M
0100
0010
M100
0010
0001
0100
0001
0100
0010
1000
0010
1000
,  // measure 46
0M02
0000
0000
00M0
0000
0000
00M0
0000
0000
0000
0000
0000
0000
0000
0000
0000
,  // measure 47
0000
0000
0000
0000
,  // measure 48
0000
0000
0000
0003
,  // measure 49
100M
01M0
M001
0M20
0000
0000
0000
0030
,  // measure 50
0100
0010
0100
0001
0010
0100
1000
1000
,  // measure 51
M001
01M0
100M
0M20
0000
0000
0000
0030
,  // measure 52
0100
0100
0010
0010
0001
0001
1000
1000
,  // measure 53
M001
0M10
100M
02M0
0000
0000
0000
0300
,  // measure 54
0010
0100
0010
1000
0010
0100
0001
0001
,  // measure 55
100M
0M10
M001
02M0
0000
0000
0000
0300
,  // measure 56
0010
0000
0010
0000
0100
0000
0100
0000
1000
0100
0010
0001
1000
0100
0010
0001
,  // measure 57
1000
0010
1000
0010
1000
0010
1000
0010
0100
0010
0100
0010
0100
0010
0100
0010
,  // measure 58
0100
0001
0100
0001
0100
0001
0100
0001
1000
0001
1000
0001
1000
0001
1000
0000
,  // measure 59
0001
0010
0001
0010
0001
0010
0001
0010
0100
0010
0100
0010
0100
0010
0100
0010
,  // measure 60
0100
1000
0100
1000
0100
1000
0100
1000
0001
1000
0001
1000
0001
1000
0001
0000
,  // measure 61
1000
0100
1000
0000
0100
0000
1000
0000
0100
0000
1000
0000
0100
1000
0100
0000
0010
0000
0100
0000
0010
0000
0100
0000
0010
0100
0010
0000
0100
0000
0010
0000
,  // measure 62
0001
0010
0001
0000
0010
0000
0001
0000
0010
0000
0001
0000
0010
0001
0010
0000
0001
0000
0100
0000
0001
0000
0100
0000
0001
0100
0001
0000
0100
0000
0001
0000
,  // measure 63
0100
0010
0100
0000
0010
0000
0100
0000
0010
0000
0100
0000
0010
0000
0100
0000
0010
0000
0100
0000
0010
0000
0100
0000
0010
0000
0100
0000
0010
0000
0100
0000
,  // measure 64
0002
0000
2003
0000
3200
0000
0300
0000
0010
0100
0000
0000
0010
0000
0011
0000
,  // measure 65
01M1
0000
0001
M100
0010
0100
M001
0100
0010
0100
0001
0100
0010
0000
1000
0000
,  // measure 66
11M0
0000
1000
010M
0010
0100
100M
0100
0010
0100
1000
0100
0010
0000
0001
0000
,  // measure 67
10M1
0000
0001
0M10
0001
1000
0M01
0010
0001
1000
0001
0010
0100
0000
1000
0000
,  // measure 68
0001
0100
1000
0100
0001
10M0
0M01
M001
,  // measure 69
0M11
0000
0001
M010
0100
0010
M001
0010
0100
0010
0001
0010
0100
0000
1000
0000
,  // measure 70
1M10
0000
1000
001M
0100
0010
100M
0010
0100
0010
1000
0010
0100
0000
0001
0000
,  // measure 71
1M01
0000
1000
01M0
1000
0001
10M0
0100
1000
0001
1000
0100
0010
0000
0001
0000
,  // measure 72
0021
0000
1000
0000
0030
M010
010M
100M
,  // measure 73
1M10
0000
1000
001M
1000
0010
M001
0010
0001
0010
0100
0010
0100
0000
0001
0000
,  // measure 74
0M11
0000
0001
M010
0001
0010
100M
0010
1000
0010
0100
0010
0100
0000
1000
0000
,  // measure 75
11M0
0000
1000
0M10
1000
0001
1M00
0010
1000
0100
0010
0001
1000
0000
0001
0000
,  // measure 76
0201
1000
0000
0310
,  // measure 77
0101
0000
0000
1100
0000
0110
0000
2002
,  // measure 78
0000
0000
0000
0000
0000
0000
00M0
00M0
,  // measure 79
00M0
0000
0000
0000
0000
0M00
0M00
0M00
,  // measure 80
0000
0000
0000
0000
,  // measure 81
3003
0000
0000
0000
;
