#TITLE:こっちを向いてよ -midnight jazzin' mix-;
#SUBTITLE:;
#ARTIST:Remixed by TOMOSUKE;
#TITLETRANSLIT:Kocchi wo Muiteyo;
#SUBTITLETRANSLIT:;
#ARTISTTRANSLIT:;
#CREDIT:brunobg24;
#BANNER:[Round 5] - Kocchi wo Muiteyo -midnight jazzin' mix-.png;
#BACKGROUND:[Round 5] - Kocchi wo Muiteyo -midnight jazzin' mix--bg.png;
#LYRICSPATH:;
#CDTITLE:;
#MUSIC:[Round 5] - Kocchi wo Muiteyo -midnight jazzin' mix-.ogg;
#OFFSET:0.000;
#SAMPLESTART:75.007;
#SAMPLELENGTH:15.000;
#SELECTABLE:YES;
#BPMS:0.000=128.005;
#STOPS:;
#BGCHANGES:;

//---------------dance-single - ----------------
#NOTES:
     dance-single:
     :
     Hard:
     9:
     0.588,0.792,0.251,0.061,0.869: // measure 1
0000
0000
0000
0000
,  // measure 2
0000
0000
0000
0000
,  // measure 3
0000
0000
0000
0000
,  // measure 4
0000
0000
0000
0000
,  // measure 5
1000
0000
0001
0010
0000
0001
0000
1000
0000
0100
0000
1000
0010
0000
0100
0000
,  // measure 6
0001
0000
1000
0010
0000
1000
0000
0001
0000
0100
0000
0001
0010
0000
0100
0000
,  // measure 7
1000
0000
0010
0100
0000
0001
0000
0010
0000
0100
0000
0010
0001
0000
1000
0000
,  // measure 8
0001
0000
0010
0100
0000
1000
0000
0010
0000
0100
0000
0010
1000
0000
0001
0000
,  // measure 9
1000
0000
0001
0000
0010
0100
0000
0101
,  // measure 10
0000
0000
1000
0000
0001
0100
0010
0000
,  // measure 11
1000
0001
0100
0001
0100
0010
1000
0010
1000
0100
1000
0100
0010
0001
0010
0001
,  // measure 12
0000
0000
0000
1000
0001
0010
0001
0100
0010
1000
0010
1000
0100
0010
0100
0010
,  // measure 13
0001
0100
0001
0100
0020
0000
0000
0000
0000
0000
0030
0000
0000
1000
0010
1000
,  // measure 14
0001
0100
0000
0001
0000
0010
0000
0100
0000
0000
2000
0000
0000
0000
0000
0000
,  // measure 15
3001
0000
0100
0001
0000
1000
0000
0100
0010
0000
0001
0000
1000
0010
0000
0100
,  // measure 16
0000
0001
0010
0000
0100
1000
0100
1000
0001
0100
0001
0010
0001
1000
0010
0100
,  // measure 17
0000
0000
0000
0000
1001
0000
0000
0001
0000
0100
0001
0100
0001
0100
0001
0000
,  // measure 18
0000
1000
0010
1000
0010
0100
0001
0100
0001
0010
0001
0010
0100
1000
0100
1000
,  // measure 19
0010
1000
0010
1000
0001
0100
0001
0100
0010
1000
0010
1000
0100
0010
0100
0010
,  // measure 20
0000
0001
1000
0001
1000
0100
1000
0010
0100
0010
0100
0010
0100
0001
0010
0001
,  // measure 21
1000
0001
1000
0000
0001
0100
0001
0000
0010
0000
0000
0000
0100
0000
0000
1000
,  // measure 22
0000
0001
1000
0010
1000
0010
0100
0000
0001
0010
0001
0000
1000
0000
0000
0001
,  // measure 23
0000
1000
0010
1000
0010
0000
0100
0001
0000
0000
0000
0000
1000
0000
0000
0000
,  // measure 24
0001
0100
0000
0000
0110
0000
0000
2010
0000
0000
0000
0000
3100
0000
0000
0000
,  // measure 25
0010
0000
0001
0100
0001
0100
0000
0010
0000
1000
0000
0100
0000
0010
0001
0000
,  // measure 26
0000
0000
1000
0010
1000
0000
0000
0100
0000
1000
0000
0001
0000
0100
0010
0000
,  // measure 27
0000
0000
0100
0001
0100
0010
0000
1000
0000
0010
0000
0100
0000
0001
0000
0010
,  // measure 28
0000
0100
1000
0100
1000
0001
0000
1000
0000
0010
0000
1000
0000
0001
0000
0000
,  // measure 29
0000
0000
1000
0001
1000
0001
0000
0010
0000
0100
0000
0010
0000
0001
1000
0000
,  // measure 30
0000
0000
0010
1000
0010
0000
0000
0100
0000
0001
0000
1000
0000
0100
0010
0000
,  // measure 31
0000
0000
0100
1000
0100
1000
0000
0001
0000
0100
0000
0010
0000
0100
0000
0001
,  // measure 32
0000
0010
0000
0100
0000
1000
0000
0010
0000
0100
0000
0001
0000
1000
0000
0000
,  // measure 33
1001
0000
0000
0000
0110
0000
0000
0010
0000
1000
0100
0000
1000
0000
0001
0000
,  // measure 34
0100
0000
0000
0000
0101
0000
0000
1000
0000
0001
0100
0000
0010
0000
0100
0000
,  // measure 35
0001
0000
0000
0000
1001
0000
0000
0010
0000
0100
0010
0000
1000
0000
0100
0000
,  // measure 36
0010
0000
0000
0000
0011
0000
0000
0100
0000
0001
0010
0000
0100
0000
1000
0000
,  // measure 37
0001
0000
0000
0000
0101
0000
0000
0010
0000
1000
0010
0000
0100
0000
0001
0000
,  // measure 38
1000
0000
0000
0000
1001
0000
0000
0010
0000
0001
0100
0000
0010
0000
1000
0000
,  // measure 39
0100
0000
0000
0000
0011
0000
0000
0001
0000
1000
0010
0000
0100
0000
0010
0000
,  // measure 40
1000
0000
0100
0000
1000
0001
0000
0010
0000
0100
0000
1000
0000
0001
0000
0000
,  // measure 41
1000
0000
0001
0000
0100
0001
0000
0010
0000
0100
0000
0020
0000
0000
0000
0000
,  // measure 42
0031
0000
1000
0000
0001
0010
0000
0100
0000
1000
0000
0100
0000
0000
0010
0001
,  // measure 43
0020
0000
0000
0032
0000
0000
2003
0000
0000
0000
0000
0000
3000
0001
0100
0001
,  // measure 44
0000
1000
0001
1000
0000
0100
0000
0010
0000
0001
1000
0001
1000
0010
0100
0000
,  // measure 45
0001
0000
0010
0001
0000
1000
0000
0010
0000
0000
1000
0001
1000
0000
0001
0000
,  // measure 46
0200
0000
0000
0000
0301
0010
0100
1000
,  // measure 47
0010
0000
0000
1000
0000
0000
0010
0000
0100
0000
0000
0000
0001
0000
1000
0001
,  // measure 48
1000
0000
0001
0000
0100
0010
0000
1000
0000
0100
0000
0010
0000
0001
0000
0000
,  // measure 49
1000
0001
1000
0000
0001
0100
0001
0010
0001
1000
0000
0010
1000
0100
1000
0000
,  // measure 50
1001
0000
0000
0000
0000
0000
0000
0000
0000
0000
1000
0000
0000
1001
0000
0000
,  // measure 51
0101
0000
0000
0001
0000
0000
0000
0000
0000
0000
0001
0000
0000
0101
0000
0000
,  // measure 52
1010
0000
0000
1000
0000
0000
0000
0000
0000
0000
1000
0000
0000
1100
0000
0000
,  // measure 53
1001
0001
0100
0010
,  // measure 54
1000
0000
0000
0000
1001
0000
0000
0000
0001
0000
0100
0000
0010
1000
0000
1000
,  // measure 55
0001
0000
0000
0000
0101
0000
0000
0000
0100
0000
0010
0000
1000
0100
0000
0100
,  // measure 56
0010
0000
0000
0000
0011
0000
0000
0000
0001
0000
1000
0000
0001
0010
0000
0010
,  // measure 57
0100
1000
0100
0000
1000
0001
0010
0001
1000
0001
0000
0100
0001
0100
0010
0000
,  // measure 58
1000
0000
0000
1100
0000
0000
0100
0000
0000
0000
0010
0000
0001
0000
1000
0000
,  // measure 59
0001
0000
0100
0000
0001
0000
1000
0000
0010
0000
0000
0100
0000
0000
0010
0000
,  // measure 60
0000
1010
0000
0000
1001
0000
0000
0000
0001
0000
1000
0000
0001
0100
0010
0100
,  // measure 61
0010
0000
0000
0000
1010
0000
0000
0000
1100
0000
0000
0000
1001
0000
0000
1000
,  // measure 62
0000
0000
0001
0000
0100
0000
0010
0000
1000
0000
0000
1001
0000
0000
0101
0000
,  // measure 63
0000
0000
0001
0000
0000
0010
0000
0000
0100
0000
0000
1000
0000
0000
1010
0000
,  // measure 64
0000
0000
1000
0000
0100
0000
0010
0000
0001
0000
0000
0110
0000
0000
1001
0000
,  // measure 65
0000
0001
0100
0001
1000
0100
0010
0001
,  // measure 66
1000
0000
0000
0000
;

//---------------dance-single - ----------------
#NOTES:
     dance-single:
     :
     Medium:
     7:
     0.360,0.421,0.046,0.061,0.152:
0000
0000
0000
0000
,
0000
0000
0000
0000
,
0000
0000
0000
0000
,
0000
0000
0000
0000
,
1000
0000
0000
0000
0010
0000
0000
1000
0000
0001
0000
0000
0100
0000
0010
0000
,
1000
0000
0000
0000
0010
0000
0000
0100
0000
0010
0000
0000
1000
0000
0100
0000
,
0010
0000
0000
0000
0001
0000
0000
0100
0000
0010
0000
0000
1000
0000
0010
0000
,
0100
0000
0000
0000
0001
0000
0000
0010
0000
0001
0000
0000
1000
0000
0010
0000
,
1000
0000
0001
0000
0100
0000
0010
1000
,
0010
0000
1000
0000
0100
1000
0001
1000
,
0010
0000
1000
0000
0001
0000
0100
0001
,
0010
0000
0000
0001
0000
0000
0000
1000
0000
0000
0000
0001
0000
0000
1000
0000
,
0100
0000
0010
0000
0001
0100
0001
0000
,
1000
0000
0000
0001
0000
0010
0000
0100
0000
0000
1000
0000
0000
0000
0000
0000
,
0001
0000
0000
0001
1000
0000
0000
1000
0010
0000
0000
0010
0100
0000
0000
0100
,
0001
0000
0000
0001
1000
0000
0000
1000
0001
0000
0010
0000
0100
0000
1000
0000
,
0100
0000
0000
0000
0010
0000
0000
0200
0000
0000
0000
0000
0000
0000
0300
0000
,
0000
1000
0001
0100
0001
0000
0010
0000
,
0100
1000
0100
1000
0001
0100
0001
0100
,
0010
0100
0001
1000
0100
0010
0001
1000
,
0010
0010
1000
0001
,
0010
0000
0100
0000
1000
0001
0010
0000
,
0001
0000
1000
0000
0001
0100
0010
0000
,
1000
0000
0000
0000
1001
0000
0000
0101
0000
0000
0000
0000
0001
0000
0000
0000
,
2001
0000
0000
0000
,
3020
0000
0000
0000
,
0032
0000
0000
0000
,
0203
0000
0000
0000
,
2300
0000
0000
0000
,
3020
0000
0000
0000
,
0032
0000
0000
0000
,
0103
0000
0000
0000
,
1000
0000
0001
0000
0010
0100
1000
0001
,
0100
0000
0010
0000
1000
0100
0010
0001
,
0100
0000
0010
0000
1000
0001
0100
0010
,
0100
0000
0001
0000
1000
0010
0100
0001
,
0010
1000
0010
0000
0001
0100
0010
1000
,
0100
0010
0100
0000
0010
0001
1000
0001
,
1000
0010
1000
0000
0001
0010
0100
0010
,
0001
1000
0100
0000
1000
0010
0100
0010
,
1000
0000
0001
0000
1000
0001
0000
0100
0000
0010
0000
0100
0000
0000
0000
0000
,
0001
0000
1000
0000
0001
1000
0000
0100
0000
0010
0000
0100
0000
0000
0010
0000
,
0001
0000
0000
1000
0000
0000
0001
0000
0000
0000
0000
0000
1000
0000
0100
0000
,
0010
0001
1000
0001
1000
0010
0100
0001
,
0010
0000
0001
0000
1000
0001
0100
0000
,
0010
0000
1000
0000
0001
0100
0001
0010
,
0100
0000
0000
1000
0000
0000
0100
0000
0010
0000
0000
0000
0001
0000
1000
0000
,
0010
0100
0001
0010
0100
0010
0001
1000
,
0001
0100
0100
0010
0100
0100
0001
1000
,
0001
0000
0000
0000
0000
0000
0000
0000
0000
0000
1000
0000
0000
0001
0000
0000
,
1001
0000
0000
1000
0000
0000
0000
0000
0000
0000
0010
0000
0000
0100
0000
0000
,
0110
0000
0000
0010
0000
0000
0000
0000
0000
0000
1000
0000
0000
0010
0000
0000
,
1010
1000
0100
0010
,
0001
0000
0000
0000
1000
0000
0000
0000
0100
0000
0010
0000
0000
0001
0000
0000
,
0100
0000
0000
0000
0010
0000
0000
0000
0100
0000
0001
0000
0000
0010
0000
0000
,
0100
0000
0000
0000
1000
0000
0000
0000
0010
0000
1000
0000
0000
0010
0000
0000
,
0100
0010
0010
1000
0010
0010
0100
0001
,
0010
0000
0001
0000
1000
0010
1000
0000
,
0010
0000
0100
0000
0001
0100
0010
1000
,
0001
0000
1000
0000
0010
1000
0100
0000
,
1000
0000
0001
0000
0100
0010
1000
0100
,
0010
0000
0001
0000
0100
0010
1000
0000
,
0001
0000
0010
0000
0100
1000
0100
1000
,
0001
0000
1000
0000
0010
0100
0001
0000
,
0100
0000
0001
0000
0010
0001
0010
0100
,
1000
0000
0000
0000
;

//---------------dance-single - ----------------
#NOTES:
     dance-single:
     :
     Beginner:
     1:
     0.115,0.124,0.000,0.000,0.000:
0000
0000
0000
0000
,
0000
0000
0000
0000
,
0000
0000
0000
0000
,
0000
0000
0000
0000
,
1000
0000
1000
0000
,
0001
0000
0001
0000
,
1000
0000
1000
0000
,
0001
0000
0001
0000
,
0100
0000
0100
0000
,
0100
0000
0100
0000
,
0010
0000
0010
0000
,
0010
0000
0010
0000
,
1000
0000
1000
0000
,
1000
0000
1000
0000
,
0001
0000
0001
0000
,
0001
0000
0001
0000
,
1000
0000
0001
0000
,
1000
0000
0001
0000
,
0100
0000
0010
0000
,
0100
0000
0010
0000
,
1000
0000
1000
0000
,
0010
0000
0010
0000
,
1000
0000
1000
0000
,
0001
0000
0001
0000
,
1000
0000
0000
0000
,
0001
0000
0000
0000
,
1000
0000
0000
0000
,
0010
0000
0000
0000
,
0100
0000
0000
0000
,
0001
0000
0000
0000
,
1000
0000
0000
0000
,
0010
0000
0000
0000
,
1000
0000
1000
0000
,
0010
0000
0010
0000
,
1000
0000
1000
0000
,
0001
0000
0001
0000
,
0100
0000
0100
0000
,
0001
0000
0001
0000
,
0100
0000
0100
0000
,
0010
0000
0010
0000
,
1000
0000
0001
0000
,
1000
0000
0001
0000
,
0100
0000
0010
0000
,
0100
0000
0010
0000
,
1000
0000
0001
0000
,
1000
0000
0001
0000
,
0100
0000
0010
0000
,
0100
0000
0010
0000
,
1000
0000
0000
0000
,
0001
0000
0000
0000
,
0100
0000
0000
0000
,
0001
0000
0000
0000
,
0100
0000
0000
0000
,
0010
0000
0000
0000
,
1000
0000
0000
0000
,
0010
0000
0000
0000
,
1000
0000
0000
0000
,
0001
0000
0001
0000
,
1000
0000
1000
0000
,
0010
0000
0010
0000
,
0100
0000
0100
0000
,
0001
0000
0001
0000
,
0100
0000
0100
0000
,
0010
0000
0010
0000
,
1000
0000
1000
0000
,
0010
0000
0000
0000
;

//---------------dance-single - ----------------
#NOTES:
     dance-single:
     :
     Easy:
     4:
     0.217,0.223,0.000,0.015,0.000:
0000
0000
0000
0000
,
0000
0000
0000
0000
,
0000
0000
0000
0000
,
0000
0000
0000
0000
,
1000
0001
0100
0001
,
0010
0100
1000
0001
,
1000
0010
1000
0001
,
0010
0100
0010
0100
,
1000
1000
0001
0100
,
0010
0010
0100
0001
,
0010
0010
0100
1000
,
0001
0001
0100
0010
,
1000
1000
0010
0100
,
0001
0001
1000
0010
,
0100
0100
0001
0010
,
0100
0100
1000
0001
,
1000
1000
0100
0010
,
0001
0001
0100
0010
,
1000
1000
0001
1000
,
0010
0010
0100
0001
,
1000
1000
0001
0100
,
0010
0010
0100
0001
,
0010
0010
0100
1000
,
0001
0001
0100
0010
,
1000
0000
0000
0000
,
0001
0000
0000
0000
,
0100
0000
0000
0000
,
0010
0000
0000
0000
,
1000
0000
0000
0000
,
0010
0000
0000
0000
,
0100
0000
0000
0000
,
0001
0000
0000
0000
,
1000
0001
1000
0001
,
0010
0100
0010
0100
,
1000
0010
1000
0010
,
0100
0001
0100
0001
,
1000
0100
1000
0100
,
0010
0001
0010
0001
,
1000
0001
0010
0100
,
1000
0001
0100
0001
,
1000
0010
0100
0001
,
0010
0100
0010
0001
,
1000
0010
0100
0010
,
1000
0100
0010
0100
,
1000
0001
0100
0010
,
0100
0001
0010
0100
,
1000
0010
0100
0001
,
1000
0100
0010
0001
,
2000
0000
0000
0000
,
3001
0000
0000
0000
,
1000
0000
0000
0000
,
0010
0000
0000
0000
,
0100
0000
0000
0000
,
0001
0000
1000
0000
,
0010
0000
0100
0000
,
0001
0000
1000
0000
,
0002
0000
0000
0000
,
1003
0100
1000
0100
,
0010
0001
0010
0001
,
1000
0010
1000
0010
,
0100
0001
0100
0001
,
1000
0100
0010
0001
,
1000
0010
0100
0001
,
0010
0100
1000
0001
,
0100
0010
1000
0001
,
1000
0000
0000
0000
;
