#TITLE:Grass (Super Eurobeat Mix);
#SUBTITLE:;
#ARTIST:iR2-X;
#TITLETRANSLIT:;
#SUBTITLETRANSLIT:;
#ARTISTTRANSLIT:;
#GENRE:;
#CREDIT:Loodee;
#BANNER:grass-bn.png;
#BACKGROUND:grass-bg.png;
#LYRICSPATH:;
#CDTITLE:loodeecdtitle.png;
#MUSIC:Grass (Super Eurobeat Mix).ogg;
#OFFSET:-0.030;
#SAMPLESTART:37.523;
#SAMPLELENGTH:15.000;
#SELECTABLE:YES;
#DISPLAYBPM:160.000;
#BPMS:0.000=160.000,30.500=320.000,30.750=160.000,30.875=80.000,31.000=320.000,31.500=160.000,31.750=80.000,32.000=160.000,66.500=320.000,66.750=160.000,66.875=80.000,67.000=320.000,67.500=160.000,67.750=80.000,68.000=160.000,202.500=320.000,202.750=160.000,202.875=80.000,203.000=320.000,203.500=160.000,203.750=80.000,204.000=160.000,266.500=320.000,266.750=160.000,266.875=80.000,267.000=320.000,267.500=160.000,267.750=80.000,267.875=40.000,268.000=20.000;
#STOPS:;
#BGCHANGES:;
#KEYSOUNDS:;

//---------------dance-single - Loodee----------------
#NOTES:
     dance-single:
     Loodee:
     Challenge:
     12:
     1.000,1.000,0.089,0.547,1.000:
0000
0000
0000
0000
,
0000
0000
0000
0000
,
0000
0000
0000
0000
,
0000
0000
0000
0000
,
0001
0010
0100
1000
0001
0010
0100
0010
0001
1000
0010
0100
0001
1000
0010
1000
,
0100
0010
0001
0010
0001
0100
0010
1000
0001
0100
0010
1000
0001
1000
0100
0010
,
0001
0010
0100
0010
0100
1000
0010
0100
0010
1000
0001
0010
0100
0010
0001
1000
,
0001
0000
0100
0000
M00M
0000
0100
0000
1000
0000
0002
0000
0000
0003
1000
0000
0100
0000
0000
0000
2000
0000
0000
0000
0002
0000
0000
0000
0000
0000
3003
0000
,
1001
0000
0000
0000
1000
0000
0100
0000
M00M
0000
0100
0000
0001
0000
0000
0000
0100
0000
0000
0000
1000
0000
0000
0000
0200
0000
0000
0300
0001
0000
0010
0000
,
0002
0000
0000
0003
0010
0000
0100
0000
1000
0000
0000
0000
0010
0000
0000
0000
0002
0000
0000
0003
0010
0000
0100
0000
0020
0000
0000
0030
1000
0000
0100
0000
,
0020
0000
0000
0030
0001
0000
0010
0000
M00M
0000
0010
0000
1000
0000
0000
0000
0020
0000
0000
0030
0100
0000
0010
0000
1000
0000
0000
0000
0001
0000
0010
0000
,
0002
0000
0000
0003
0100
0000
0010
0000
0100
0000
0010
0000
2000
0000
0000
3000
0100
0000
0010
0000
0001
0000
0010
0000
0100
0000
0000
0000
0100
0000
0000
0000
,
1001
0000
0000
0000
0001
0000
0100
0000
M00M
0000
0100
0000
1000
0000
0000
0000
0001
0000
0000
0000
0010
0000
0000
0000
2000
0000
0000
3000
0010
0000
0100
0000
,
0020
0000
0000
0030
0001
0000
1000
0000
0001
0000
0000
0000
0100
0000
0000
0000
2000
0000
0000
3000
0100
0000
0010
0000
2000
0000
0000
3000
0001
0000
0010
0000
,
0200
0000
0000
0300
1000
0000
0010
0000
M00M
0000
0010
0000
0001
0000
0000
0000
0020
0000
0000
0030
0001
0000
1000
0000
0020
0000
0000
0030
1000
0000
0001
0000
,
1000
0001
0000
0001
1000
0000
0000
0000
0001
0010
0000
0010
0001
0000
0010
0100
,
1000
0000
0010
0000
1000
0000
0001
0000
0000
0000
0001
0000
0010
0000
0001
0000
2000
0000
0000
3000
0200
0000
0000
0000
0020
0000
0000
0000
0000
0000
0330
0000
,
1100
0000
0100
1000
0001
0000
0010
0000
0001
0000
0100
0000
1000
0000
0100
0000
,
0010
0000
0100
0001
1000
0000
0100
0000
0010
0000
1000
0000
0010
0000
0010
0001
,
0100
0000
0100
0010
1000
0000
0001
0000
0010
0000
1000
0000
0010
0000
0001
0000
,
0100
M00M
0100
0000
0000
0000
1000
0000
0100
0000
0000
0000
0010
0000
0000
0000
0001
0000
0000
0000
0100
0000
0000
0000
0001
0000
0000
0000
1000
0000
0100
0000
,
0010
0000
0001
0100
0010
0000
1000
0000
0010
0000
0001
0000
0010
0000
1000
0000
,
0100
0000
0010
0100
1000
0000
0010
0000
0100
0000
1000
0000
0100
0000
0100
0010
,
1000
0000
1000
0100
0010
0000
0001
0000
0010
0000
1000
0000
0010
0000
0001
0000
,
0100
M00M
0100
0000
0000
0000
1000
0000
0001
0000
0000
0000
1000
0000
0000
0000
0000
0000
0010
0000
0000
0000
0000
0000
0100
0000
0001
0000
0100
0000
0001
0000
,
1000
0100
0010
0001
1000
0100
0010
0001
1000
0010
0100
0001
1000
0010
0100
0001
,
0010
0100
1000
0100
0010
0001
1000
0001
1000
0100
0010
0001
0010
0100
1000
0001
,
0100
0010
1000
0001
0100
0010
1000
0001
0010
0100
1000
0100
0010
0100
1000
0001
,
1000
0010
0100
0010
1000
0010
0100
0001
0010
0001
0000
1000
0000
2000
0000
3010
,
0100
0000
0001
0010
0100
0010
0001
1000
0001
0000
1000
0010
1000
0000
0100
0000
,
0110
0000
0010
0001
1000
0000
0001
0000
1000
0000
0010
0000
0100
0000
0010
0100
,
0001
0000
0010
0001
0100
0001
0010
0100
1000
0000
1000
0010
0100
0000
0001
0000
,
0011
0000
0010
0100
1000
0000
0001
0000
1000
0000
0100
0000
1000
0010
0100
0001
,
2000
0000
0000
0000
0000
0000
0000
0000
0000
0000
0000
0000
0000
0000
0000
3000
,
1000
0001
0010
0100
0000
1000
0010
0100
,
0000
0100
0001
0100
0000
0001
0010
0100
,
0000
0010
0001
0010
0000
0001
1000
0001
,
0000
0100
0100
0000
0000
0010
0010
0000
,
1001
0001
0010
0100
0000
0010
0001
0100
,
0000
0100
0010
0100
0000
0010
1000
0100
,
0000
0010
0001
0010
0000
0100
0010
0100
,
0000
0000
1000
0000
1000
0000
0000
0000
0000
0000
0001
0000
0001
0010
0100
1000
,
0010
0000
0100
0000
0010
0000
1000
0100
0000
0000
1000
0000
0001
0000
0010
0000
,
0001
0000
0100
0000
0010
0000
1000
0010
0000
0000
0100
0000
0001
0000
0010
0100
,
1000
0000
0010
0000
0100
0000
0001
0010
0000
0000
0100
0000
1000
0000
0010
0000
,
2000
0000
0000
0000
3001
0000
0010
0100
0010
0000
0001
0000
0100
0010
1000
0001
,
0100
0000
0001
0000
0010
0000
0100
0010
0000
0000
0001
0000
1000
0000
0010
0000
,
0110
0000
0100
0000
0001
0000
1000
0100
0000
0000
1000
0010
0000
0000
0100
0001
,
1000
0100
0010
0001
0001
0010
0100
1000
,
0001
0010
M00M
0010
1000
0000
0000
0000
1000
0100
M00M
0100
0001
0000
1000
0010
,
1000
0000
0100
0000
0010
0000
0001
0000
0000
0000
0001
0000
0100
0000
0010
0000
2000
0000
0000
3000
0002
0000
0000
0000
0020
0000
0000
0000
0000
0000
0033
0000
,
0011
0000
0000
0000
0010
0000
0100
0000
M00M
0000
0100
0000
0001
0000
0000
0000
0100
0000
0000
0000
1000
0000
0000
0000
0200
0000
0000
0300
0010
0000
0100
0000
,
0020
0000
0000
0030
1000
0000
0100
0000
0010
0000
0000
0000
0100
0000
0000
0000
0002
0000
0000
0003
0100
0000
0010
0000
0200
0000
0000
0300
1000
0000
0001
0000
,
0200
0000
0000
0300
0010
0000
0100
0000
M00M
0000
0100
0000
1000
0000
0000
0000
0002
0000
0000
0003
0010
0000
0100
0000
1000
0000
0000
0000
0010
0000
1000
0000
,
0002
0000
0000
0003
0100
0000
0010
0000
0100
0000
0001
0000
2000
0000
0000
3000
0100
0000
0010
0000
0100
0000
1000
0000
0010
0000
0000
0000
0010
0000
0000
0000
,
1001
0000
0000
0000
0001
0000
0100
0000
M00M
0000
0100
0000
1000
0000
0000
0000
0010
0000
0000
0000
0100
0000
0000
0000
2000
0000
0000
3000
0100
0000
0010
0000
,
0200
0000
0000
0300
0001
0000
1000
0000
0001
0000
0000
0000
0010
0000
0000
0000
2000
0000
0000
3000
0010
0000
0100
0000
2000
0000
0000
3000
0001
0000
1000
0000
,
0002
0000
0000
0003
1000
0000
0010
0000
M00M
0000
0010
0000
0001
0000
0000
0000
0020
0000
0000
0030
0001
0000
1000
0000
0020
0000
0000
0030
1000
0000
0100
0000
,
1000
0000
0001
0000
0000
0000
0001
0000
0010
0000
0100
0000
2000
0000
0000
3000
0010
0000
1000
0000
0001
0000
0100
0000
0001
0000
0010
0000
0100
0000
1000
0000
,
0100
0000
0000
0000
0010
0000
0100
0000
0000
0000
1000
0000
0001
0000
0000
0000
1000
0000
0000
0000
0010
0000
0000
0000
0200
0000
0000
0300
0001
0000
0010
0000
,
0100
0000
0000
0000
0010
0000
0001
0000
1000
0000
0000
0000
0010
0000
0000
0000
0200
0000
0000
0300
0001
0000
1000
0000
0200
0000
0000
0300
0010
0000
0001
0000
,
0010
0000
0000
0000
0001
0000
0100
0000
0000
0000
0010
0000
0100
0000
0000
0000
0002
0000
0000
0003
0010
0000
0100
0000
2000
0000
0000
3000
0001
0000
1000
0000
,
0002
0000
0000
0003
0100
0000
0010
0000
0100
0000
0001
0000
1000
0000
0001
0000
1000
0000
0100
0000
0010
0000
0001
0000
0010
0000
0000
0000
0010
0000
0001
0000
,
0100
0000
0000
0000
0010
0000
1000
0000
0000
0000
0001
0000
0100
0000
0000
0000
0001
0000
0000
0000
0010
0000
0000
0000
0200
0000
0000
0300
1000
0000
0001
0000
,
0100
0000
0000
0000
0001
0000
0010
0000
0100
0000
0000
0000
0010
0000
0000
0000
0002
0000
0000
0003
1000
0000
0010
0000
0200
0000
0000
0300
0010
0000
1000
0000
,
0100
0000
0100
0010
0000
0000
0001
0000
1000
0100
0010
0001
1000
0010
0100
0001
,
1000
0000
0010
0000
0000
0000
0010
0000
0100
0000
0002
0000
0000
0003
0001
0000
1000
0000
0000
0000
0200
0000
0000
0000
M02M
0000
0000
0000
0000
0000
0000
0000
,
0330
0000
0000
0000
;

//---------------dance-single - Loodee----------------
#NOTES:
     dance-single:
     Loodee:
     Hard:
     10:
     0.879,0.899,0.050,0.437,0.696:
0000
0000
0000
0000
,
0000
0000
0000
0000
,
0000
0000
0000
0000
,
0000
0000
0000
0000
,
1100
0100
0000
0100
0000
1000
0000
0001
,
0101
0100
0000
0100
0000
0010
0000
1000
,
1100
0000
0100
0000
0000
0000
0100
0010
0001
0000
1000
0000
0000
0000
1000
0000
,
0001
0010
0000
0001
0010
0100
0000
1000
0001
0000
2000
0000
0000
0000
0000
0000
,
3001
0000
0000
0000
0100
0000
0010
0000
0000
0000
0010
0000
0100
0000
0000
0000
0001
0000
0000
0000
0010
0000
0000
0000
0200
0000
0000
0300
1000
0000
0001
0000
,
2000
0000
0000
3000
0100
0000
0010
0000
0001
0000
0000
0000
0100
0000
0000
0000
0020
0000
0000
0030
0100
0000
0001
0000
0200
0000
0000
0300
0010
0000
1000
0000
,
0001
0000
0000
0000
0100
0000
0001
0000
0000
0000
0001
0000
1000
0000
0000
0000
0200
0000
0000
0300
0010
0000
0100
0000
2000
0000
0000
3000
0001
0000
0010
0000
,
0200
0000
0000
0300
1000
0000
0010
0000
0100
0000
0010
0000
0200
0000
0000
0300
0001
0000
0010
0000
0100
0000
0010
0000
0001
0000
0000
0000
0001
0000
0000
0000
,
1000
0000
0000
0000
0100
0000
0010
0000
0000
0000
0010
0000
0001
0000
0000
0000
0100
0000
0000
0000
0010
0000
0000
0000
0200
0000
0000
0300
0001
0000
1000
0000
,
0002
0000
0000
0003
0010
0000
0001
0000
0010
0000
0000
0000
0100
0000
0000
0000
0020
0000
0000
0030
0001
0000
0100
0000
0020
0000
0000
0030
1000
0000
0010
0000
,
2000
0000
0000
3000
0100
0000
0010
0000
0000
0000
0010
0000
0100
0000
0000
0000
2000
0000
0000
3000
0001
0000
0100
0000
0002
0000
0000
0003
0010
0000
0100
0000
,
1000
0001
0000
0001
0100
0000
0000
0000
0001
0010
0000
0010
0100
0000
1000
0000
,
0100
0000
1000
0000
0001
0000
1000
0000
0000
0000
0010
0000
1000
0000
0001
0000
2000
0000
0000
3000
0002
0000
0000
0000
0000
0000
0000
0000
0000
0000
0000
0000
,
0013
0000
0010
0100
1000
0000
0010
0000
0100
0000
0001
0000
1000
0000
0001
0000
,
0010
0000
0100
0010
0001
0000
0100
0000
0010
0000
1000
0000
0001
0000
0010
0001
,
0100
0000
0010
1000
0001
0000
0010
0000
0100
0000
0010
0000
0001
0000
0100
0000
,
0010
1000
0000
1000
0010
0000
0100
0000
0001
0000
0010
0000
0001
0000
0001
0010
,
0100
0000
0100
1000
0001
0000
1000
0000
0010
0000
0100
0000
0010
0000
1000
0000
,
0100
0000
0010
0001
0010
0000
0001
0000
1000
0000
0010
0000
1000
0000
0010
0100
,
0001
0000
0010
0100
1000
0000
0001
0000
0100
0000
0001
0000
0010
0000
0100
0000
,
1000
0010
0000
0010
0100
0000
0001
0000
2000
0000
0000
0000
3001
0010
0100
1000
,
0001
0000
1000
0000
0000
0000
0010
0000
0100
0000
0001
0000
0100
0000
0000
0000
0001
0000
0000
0000
1000
0000
0000
0000
0200
0000
0000
0300
0010
0000
0001
0000
,
1000
0000
0010
0100
0001
1000
0010
0000
1000
0000
0001
0010
0100
1000
0100
0000
,
0010
0000
0000
0000
0001
0000
0100
0000
0010
0000
1000
0000
0001
0000
0000
0000
0010
0000
0000
0000
0100
0000
0000
0000
2000
0000
0000
3000
0001
0000
0000
0000
,
0002
0000
0000
0003
1000
0000
0100
0000
0010
0000
0001
0000
0010
0000
0000
0000
0001
0000
0100
0000
0010
0000
1000
0000
0000
0000
1000
0000
0100
0000
0010
0000
,
0100
0000
1000
0100
0010
0001
0010
0001
1000
0000
0010
0100
0001
0000
1000
0000
,
0001
0000
1000
0001
0010
0000
0100
0000
1000
0000
0001
0000
1000
0000
0010
0100
,
0001
0000
0010
0001
0100
0001
0100
0001
1000
0000
0100
0010
0100
0000
1000
0000
,
0010
0000
0100
0001
1000
0000
0010
0000
0100
0000
1000
0000
0200
0000
0300
0000
,
0120
0000
0000
0000
,
1030
0001
0010
0100
0000
0010
0001
1000
,
0000
1000
0001
1000
0000
0001
0100
0010
,
0000
0100
0001
0100
0000
0010
1000
0100
,
0000
0010
0010
0000
0000
0001
0001
0000
,
1001
1000
0010
0100
0000
0001
0010
0100
,
0000
0010
0001
0010
0000
0001
1000
0010
,
0000
0100
0010
0100
0000
0010
1000
0100
,
0000
0000
0010
0000
0010
0000
0000
0000
0000
0000
0100
0000
0100
1000
0001
1000
,
0001
0100
1000
0100
0010
0001
0010
1000
,
0001
0000
0010
0000
1000
0000
0010
0000
0100
0000
0010
0000
0001
0000
0100
0010
,
1000
0010
0001
0010
0100
0010
1000
0001
,
0010
0000
0000
0000
0000
0000
0001
1000
0010
0000
0000
0000
1000
0100
0010
0001
,
0010
0001
0100
0010
0100
1000
0100
0010
,
1000
0000
0100
0000
0001
0000
0100
0000
0010
0000
0001
0100
0000
0000
1000
0100
,
0010
1000
0001
1000
0100
0010
0100
1000
,
0001
0100
0000
0100
0001
0000
0000
0000
1000
0100
0000
0100
1000
0000
0001
1000
,
0001
0000
0010
0000
0001
0000
0010
0000
0000
0000
0100
0000
1000
0000
0001
0000
2000
0000
0000
3000
0200
0000
0000
0000
0000
0000
0000
0000
0000
0000
0000
0000
,
0310
0000
0000
0000
0001
0000
0100
0000
0000
0000
0100
0000
0010
0000
0000
0000
1000
0000
0000
0000
0100
0000
0000
0000
0020
0000
0000
0030
0001
0000
1000
0000
,
0002
0000
0000
0003
0010
0000
0100
0000
1000
0000
0000
0000
0010
0000
0000
0000
0200
0000
0000
0300
0010
0000
1000
0000
0020
0000
0000
0030
0100
0000
0001
0000
,
1000
0000
0000
0000
0010
0000
1000
0000
0000
0000
1000
0000
0001
0000
0000
0000
0020
0000
0000
0030
0100
0000
0010
0000
0002
0000
0000
0003
1000
0000
0100
0000
,
0020
0000
0000
0030
0001
0000
0100
0000
0010
0000
0100
0000
0020
0000
0000
0030
1000
0000
0100
0000
0010
0000
0100
0000
1000
0000
0000
0000
1000
0000
0000
0000
,
0010
0000
0000
0000
1000
0000
0001
0000
0000
0000
0001
0000
0100
0000
0000
0000
0001
0000
0000
0000
0010
0000
0000
0000
0002
0000
0000
0003
1000
0000
0100
0000
,
0020
0000
0000
0030
0100
0000
1000
0000
0001
0000
0000
0000
0100
0000
0000
0000
0020
0000
0000
0030
0100
0000
0001
0000
0200
0000
0000
0300
0010
0000
1000
0000
,
0001
0000
0000
0000
1000
0000
0100
0000
0000
0000
0100
0000
0010
0000
0000
0000
0002
0000
0000
0003
0100
0000
0010
0000
2000
0000
0000
3000
0001
0000
0010
0000
,
0200
0000
0000
0300
1000
0000
0001
0000
0100
0000
0001
0000
0200
0000
0000
0300
0001
0000
1000
0000
0100
0000
0010
0000
0100
0000
1000
0000
0100
0000
1000
0000
,
0001
0100
1000
0100
0010
0001
0010
1000
,
0100
0000
0010
0000
0001
0000
0010
0000
1000
0000
0010
0000
0100
0000
1000
0001
,
0100
0010
0001
0010
1000
0001
0010
1000
,
0010
0000
0000
0000
0000
0000
0001
0100
0010
0000
0000
0000
0010
1000
0001
1000
,
0001
0010
0100
0001
0100
0010
1000
0010
,
0001
0000
0100
0000
0010
0000
0100
0000
0001
0000
1000
0010
0000
0000
0001
0010
,
0100
0000
0001
0000
0010
0000
0100
0000
1000
0100
1000
0100
0010
0001
1000
0001
,
1000
0000
0100
0000
0000
0000
1000
0000
0001
0000
2000
0000
0000
3000
0001
0000
0100
0000
0000
0000
0020
0000
0000
0000
0000
0000
0000
0000
0000
0000
0000
0000
,
0030
0000
0000
0000
;

//---------------dance-single - Loodee----------------
#NOTES:
     dance-single:
     Loodee:
     Medium:
     8:
     0.714,0.666,0.020,0.109,0.298:
0000
0000
0000
0000
,
0000
0000
0000
0000
,
0000
0000
0000
0000
,
0000
0000
0000
0000
,
0001
1000
0000
1000
0000
1000
0000
1000
,
0100
0010
0000
0010
0001
0010
0000
0001
,
0100
0010
0000
0010
1000
0100
0000
0100
,
0010
0001
0000
0010
0002
0000
0000
0000
2003
0000
3000
0000
0000
0000
0000
0000
,
1000
0000
0100
0010
0001
0000
1000
0000
0010
0000
0100
0000
0010
0000
1000
0001
,
0010
0000
0100
0000
0010
0000
0001
0000
1000
0000
0010
0100
0010
0000
1000
0001
,
0100
0000
0001
0000
0010
0000
0001
0000
0100
0000
0010
1000
0001
0000
0010
0000
,
0100
1000
0010
0001
0010
1000
0100
0010
,
0001
0000
1000
0010
1000
0000
0100
0000
0010
0000
0001
0000
0100
0000
0001
1000
,
0001
0000
0010
0000
0100
0000
1000
0000
0010
0000
0100
0001
1000
0000
0001
0010
,
0100
0000
0010
0000
0001
0000
1000
0000
0010
0000
1000
0001
1000
0000
0100
0000
,
1000
0001
0000
1000
0001
0000
0000
0000
0100
0010
0000
0100
0010
0000
0000
0000
,
1000
0100
0000
0010
0000
0001
0000
0010
0200
0000
0300
0000
0000
0000
0000
0000
,
1000
0010
0001
0010
0100
0001
0010
0100
,
0010
1000
0010
0100
1000
0010
0100
0001
,
0010
0100
0001
0100
1000
0010
0100
0001
,
0040
0000
0030
0000
0000
0000
1000
0000
0000
0001
0000
0000
0100
0000
0000
1000
0000
0000
0010
0000
0000
0001
0000
0000
,
0010
0100
0001
0010
0100
1000
0100
0010
,
0001
0100
1000
0100
0010
1000
0010
0001
,
0010
0100
0001
1000
0001
0010
0100
0010
,
0001
1000
0000
0001
1000
0000
0100
0000
0020
0000
0000
0000
0031
1000
0001
1000
,
0001
0100
0010
1000
0001
0001
0001
0010
,
0100
1000
0010
0100
0001
0010
0001
1000
,
0001
0100
0010
1000
0100
0100
0100
0010
,
0001
0000
0100
0000
0010
0000
0100
0000
0001
1000
0000
0100
0000
0020
0000
0030
,
0001
0000
1000
0010
1000
0000
0100
0000
0010
0000
0100
0000
0010
0000
0001
0000
,
0100
0000
0010
1000
0001
0000
0010
0000
0100
0000
1000
0000
0010
0000
0100
0001
,
0100
0000
0001
1000
0001
0000
0010
0000
0001
0000
0100
0000
0010
0000
1000
0000
,
0001
0000
1000
0100
0010
0000
0001
0000
0100
0000
0010
0000
0200
0000
0000
0300
,
2002
0000
0000
3003
,
1000
0100
0010
0100
0000
0010
0001
0100
,
0000
0100
0001
0100
0000
0010
1000
0100
,
0000
1000
0001
1000
0000
0001
0010
0001
,
0000
1000
1000
0000
0000
0001
0001
0000
,
0010
0001
1000
0010
0000
0100
0010
0100
,
0000
0100
0001
0100
0000
0010
1000
0100
,
0000
1000
0001
1000
0000
0010
0100
0010
,
0000
1000
1000
0000
0000
0001
0001
0000
,
0010
0001
1000
0010
0100
0001
0010
0100
,
0010
0001
1000
0010
0100
0010
1000
0001
,
1000
0100
0010
0001
0100
0010
1000
0001
,
0100
0000
0000
0100
0010
1000
0001
1000
,
0001
0010
0001
0010
0100
1000
0010
0100
,
0001
1000
0010
1000
0010
0100
0001
0010
,
0100
1000
0100
0010
0001
0100
0010
1000
,
0010
0100
0000
0010
0100
0000
0000
0000
0001
1000
0000
0001
1000
0000
0100
0000
,
0010
0001
0000
0010
0000
0100
0000
1000
0002
0000
0003
0000
0000
0000
0000
0000
,
0001
0000
0010
0100
1000
0000
0001
0000
0100
0000
0010
0000
0100
0000
0001
1000
,
0100
0000
0010
0000
0100
0000
1000
0000
0001
0000
0100
0010
0100
0000
0001
1000
,
0010
0000
1000
0000
0100
0000
1000
0000
0010
0000
0100
0001
1000
0000
0100
0000
,
0010
0001
0100
1000
0100
0001
0010
0100
,
1000
0000
0100
0010
0100
0000
1000
0000
0010
0000
0100
0000
0010
0000
1000
0010
,
0100
0000
0001
0000
0100
0000
0001
0000
1000
0000
0001
1000
0001
0000
1000
0001
,
0010
0000
0001
0000
0010
0000
0100
0000
1000
0000
0001
1000
0010
0000
0100
0000
,
0001
0000
1000
0000
0010
0000
0001
0000
0010
0000
1000
0000
0100
1000
0100
1000
,
0100
0010
0001
0100
0010
1000
0010
0100
,
0001
0000
0010
0000
0100
0000
0010
0000
0001
0000
1000
0000
0100
0000
1000
0001
,
1000
0010
0100
0001
0010
0100
0010
0001
,
0100
0000
0000
0000
0000
0000
0010
1000
0010
0000
0000
0000
1000
0001
1000
0001
,
1000
0100
0010
0100
0010
0001
1000
0010
,
1000
0000
0001
0000
0010
0000
0100
0000
1000
0000
0010
0100
0000
0000
0010
1000
,
0001
0010
1000
0010
0001
1000
0010
0100
,
0001
0100
0000
0001
0100
0000
0000
0000
2002
0000
0000
0000
0000
0000
0000
0000
,
3003
0000
0000
0000
;

//---------------dance-single - Loodee----------------
#NOTES:
     dance-single:
     Loodee:
     Easy:
     5:
     0.454,0.463,0.169,0.109,0.000:
0000
0000
0000
0000
,
0000
0000
0000
0000
,
0000
0000
0000
0000
,
0000
0000
0000
0000
,
0001
0010
0100
1000
,
1001
0001
0100
0010
,
1010
1000
0100
0010
,
0011
0000
0000
0000
2002
3003
0000
0000
,
0001
0000
1000
0000
0100
0010
0001
0000
,
0100
0000
0100
0000
0001
1000
0001
0010
,
0100
1000
0010
0100
,
0001
0010
0001
0000
1000
0100
1000
0000
,
0010
0000
0100
0000
0001
0010
0100
0000
,
1000
0000
1000
0000
0001
0100
0001
0100
,
0010
0000
1000
0000
0100
1000
0001
0000
,
0011
0000
1010
0000
,
1001
0000
1001
0000
0220
0330
0000
0000
,
0001
0010
0100
0000
0010
0001
1000
0000
,
0001
1000
0001
0000
0100
0010
0100
0000
,
0010
1000
0010
0000
1000
0100
0010
0000
,
0001
0000
0001
0000
1000
0100
0010
0001
,
1000
0001
1000
0000
0010
1000
0010
0000
,
0100
0001
0100
0000
0001
0010
0001
0000
,
1000
0001
1000
0000
0100
0010
0100
0000
,
1000
1000
0020
0030
,
1000
0100
1000
0100
,
0010
0001
0010
0001
,
1000
0010
1000
0010
,
0100
0000
0001
0000
1000
0001
0010
0001
,
1000
0000
1000
0100
0010
0000
0001
0000
,
0100
0000
0010
1000
0010
0000
1000
0000
,
0100
0000
0100
0010
0100
0000
1000
0001
,
0100
0100
2002
3003
,
1001
0000
0000
0000
,
0001
1000
0000
0001
0000
1000
0000
1000
,
0000
0010
0000
0100
0000
0010
0000
0010
,
0000
1000
0000
1000
0000
0100
0000
0100
,
0000
0010
0000
0010
0000
0100
0000
0100
,
1000
0001
0000
0010
0000
0001
0000
1000
,
0000
0010
0000
1000
0000
0100
0000
0100
,
0000
1000
0000
0010
0000
0100
0000
0001
,
0000
0010
0000
0010
0000
0100
0000
0100
,
1000
0001
1000
0001
0000
0100
0000
0000
,
0100
0001
1000
0001
0000
0010
0000
0000
,
0010
0100
1000
0100
0000
0100
0000
0000
,
1000
0000
0000
0001
0010
0000
0001
0010
,
0100
1000
0100
1000
0000
0010
0000
0000
,
0100
0001
0100
0001
0000
1000
0000
0000
,
0001
0010
0100
0000
0010
0001
0010
0000
,
0011
0000
0101
0000
,
1001
0000
0110
0000
2002
3003
0000
0000
,
1000
0000
0010
0000
0100
0010
0100
0000
,
0001
0000
0010
0000
0100
1000
0100
0000
,
1000
0000
0001
0000
0100
0001
0100
0000
,
0010
1000
0010
0000
1000
0100
1000
0000
,
0100
0000
0010
0000
0001
1000
0001
0000
,
0100
0000
0010
0000
1000
0001
1000
0000
,
0100
0000
0010
0000
0001
0010
0001
0000
,
0100
0010
0100
0010
1000
0001
1000
0001
,
1000
0010
0100
0001
,
0010
0100
0010
0001
,
1000
0010
0100
0010
,
1000
0000
1000
0000
0100
0010
0001
0010
,
0001
1000
0001
0100
,
0100
0010
1000
0100
,
0100
0000
0010
0001
1000
0000
0010
0100
,
0001
0000
0000
0000
2002
3003
0000
0000
;
