#VERSION:0.81;
#TITLE:gigadelic (北兎鳶双 Remix);
#SUBTITLE:;
#ARTIST:北兎鳶双;
#TITLETRANSLIT:gigadelic (Kita Usagi tonbi-so Remix);
#SUBTITLETRANSLIT:;
#ARTISTTRANSLIT:Kita Usagi tonbi-so;
#GENRE:;
#ORIGIN:;
#CREDIT:;
#BANNER:banner.png;
#BACKGROUND:bg.png;
#PREVIEWVID:;
#JACKET:;
#CDIMAGE:;
#DISCIMAGE:;
#LYRICSPATH:;
#CDTITLE:cdtitle.png;
#MUSIC:[Round 4] - gigadelic (Kita Usagi tonbi-so Remix).ogg;
#OFFSET:0.000000;
#SAMPLESTART:88.522430;
#SAMPLELENGTH:13.617027;
#SELECTABLE:YES;
#BPMS:0.000=141.000,
104.000=70.500,
106.000=141.000,
142.000=70.500,
158.000=141.000;
#STOPS:;
#DELAYS:;
#WARPS:;
#TIMESIGNATURES:0.000=4=4;
#TICKCOUNTS:0.000=4;
#COMBOS:0.000=1;
#SPEEDS:0.000=1.000=0.000=0;
#SCROLLS:0.000=1.000;
#FAKES:;
#LABELS:0.000=Song Start;
#BGCHANGES:;
#KEYSOUNDS:;
#ATTACKS:
;

//---------------dance-single - ----------------
#NOTEDATA:;
#CHARTNAME:;
#STEPSTYPE:dance-single;
#DESCRIPTION:;
#CHARTSTYLE:;
#DIFFICULTY:Challenge;
#METER:12;
#RADARVALUES:0.954151,0.862252,0.653478,0.229142,1.000000,683.000000,77.000000,27.000000,6.000000,0.000000,2.000000,0.000000,0.000000,0.954151,0.862252,0.653478,0.229142,1.000000,683.000000,77.000000,27.000000,6.000000,0.000000,2.000000,0.000000,0.000000;
#CREDIT:MRace2010;
#NOTES:
// measure 0
0000
0000
0000
0000
,  // measure 1
0000
0000
0000
0000
,  // measure 2
0000
0000
0000
0000
,  // measure 3
1000
1000
0001
0001
,  // measure 4
1000
0000
0000
0000
0001
0000
0000
0000
0100
0000
0000
0001
1000
0000
0100
0000
,  // measure 5
0010
0000
0001
0100
0000
0100
0010
0000
1000
0000
0100
0010
0000
0010
0001
0000
,  // measure 6
1000
0000
0010
0100
0000
0100
0010
0000
1000
0000
0100
0010
0000
0010
0100
0000
,  // measure 7
1100
0000
1000
0001
0000
0001
0100
0000
0101
0000
0001
1000
0000
1000
0100
0000
,  // measure 8
1000
0000
0000
0010
0000
0000
0100
0000
0000
0000
0000
0000
0001
0000
0000
0010
0000
0000
0100
0000
0000
0000
0000
0000
1000
0000
0000
0000
0010
0000
0000
0000
0100
0000
0000
0000
0001
0000
0000
0000
0010
0000
0000
0000
0001
0000
0000
0000
,  // measure 9
1000
0100
1000
0010
0001
0010
1000
0100
0010
0001
0100
0010
,  // measure 10
1000
0000
0001
1000
0100
1000
0010
0100
0000
0001
0000
1000
0100
0000
1001
0000
,  // measure 11
0001
0000
1000
0001
0100
0001
1000
0100
0000
0010
0000
0001
0100
0000
0110
0000
,  // measure 12
0001
0000
0100
0010
1000
0100
0010
0001
0000
0100
0000
0001
0010
0000
0110
0000
,  // measure 13
1000
0000
0010
0100
0001
0100
0010
1000
0000
0100
0000
0010
0100
0000
1001
0000
,  // measure 14
1001
0000
0100
1000
0000
1100
0000
0101
0000
0011
0000
0100
1000
0000
1001
0000
,  // measure 15
0110
0000
0001
0100
0000
0101
0000
1100
0000
0011
0000
1000
0100
0000
1001
0000
,  // measure 16
0101
0000
0010
1000
0000
1100
0000
1100
0000
0101
0000
0001
0010
0000
1001
0000
,  // measure 17
1100
0000
0101
0000
1000
0001
0000
0101
0000
1100
0000
0010
0100
0000
1001
0000
,  // measure 18
0010
0001
0100
0001
0010
0000
0010
0100
1000
0010
1000
0100
1000
0000
1000
0001
,  // measure 19
0100
1000
0100
0001
0010
0000
0010
0001
1000
0010
0001
0010
1000
0000
1001
0000
,  // measure 20
1000
0100
0010
0100
1000
0000
1000
0100
0010
0001
0100
0010
1000
0000
1000
0001
,  // measure 21
0100
0001
0100
0001
0010
0001
0010
0001
0100
0010
0100
0010
1000
0100
1000
0100
,  // measure 22
1000
0010
0100
0001
0010
0000
0100
0010
0001
0010
0100
1000
0010
0000
0100
0010
,  // measure 23
1000
0100
0001
0100
1000
0000
1000
0001
1000
0010
0001
0010
1000
0000
1001
0000
,  // measure 24
0001
0100
0001
0100
0001
0010
0001
0100
0010
1000
0010
1000
0100
1000
0010
0100
,  // measure 25
0001
0000
0010
0000
0001
0100
0000
0110
0000
1010
0000
0100
1000
0000
1001
0000
,  // measure 26
M22M
0000
0000
0000
0000
0000
0000
0000
0000
0000
0000
0000
0000
0000
0000
0000
0000
0000
0330
0000
0000
0000
0000
0000
0MM1
0000
0000
1000
0000
0000
0001
0000
0000
1000
0000
0000
0001
0000
1000
0000
0001
0000
1000
0000
0001
0000
1000
0000
,  // measure 27
0004
4000
0000
0000
0000
0000
0000
0000
0000
0000
0000
0000
0000
0000
3003
0000
0001
0000
0000
0000
1000
0000
0100
0000
1100
0000
0000
0000
0001
0000
0100
0000
,  // measure 28
0101
0000
1000
0000
0100
0000
0020
0000
0000
0031
0000
0000
0110
0000
0100
0000
0010
0000
1001
0000
1000
0000
0001
0000
,  // measure 29
0011
0000
0000
0100
0001
0000
1000
0000
1001
0000
0100
1000
1100
0000
0010
0100
,  // measure 30
0110
0000
0001
0000
1000
0000
0200
0000
0000
0310
0000
0000
0001
0000
0100
0000
0001
0000
1000
0000
0000
0010
0000
0000
,  // measure 31
2000
0000
0000
0000
0MM2
0000
3003
0000
2001
0000
3100
0010
0110
0000
0001
0100
,  // measure 32
0101
0000
0000
0000
0010
0000
0000
0000
1000
0000
0000
0000
1100
0000
0000
0000
0000
0000
0010
0000
0000
0100
0000
0000
0110
0000
0000
0000
0001
0000
0000
0000
1000
0000
0000
0000
1100
0000
0000
0000
0001
0000
0000
0000
1000
0000
0000
0000
,  // measure 33
0101
0000
0011
0000
0110
0000
1001
0000
1100
0000
0001
0010
0011
0000
1000
0010
,  // measure 34
1010
0000
0100
0000
0001
0000
0011
0000
0000
0100
0000
0000
1010
0000
0100
0000
0001
0000
0011
0000
0000
0100
0000
0000
,  // measure 35
2002
0000
0000
0000
3003
0000
0000
0000
0220
0000
0000
0000
0330
0000
0000
0000
2000
0000
0000
0000
0000
0000
0000
0000
3000
0000
0000
0010
0100
0001
0010
0000
,  // measure 36
0002
0000
0000
0000
0003
0000
0100
0000
0000
0000
0010
0000
0000
1000
0000
0000
0200
0000
0000
0000
0000
0000
0001
0000
0300
0000
1000
0000
0000
0000
0010
0100
,  // measure 37
0010
0000
0000
1000
0000
0000
0100
0000
0000
0000
0010
0000
0001
0000
1000
0000
0020
0000
0000
0000
0000
0000
1000
0000
0030
0000
0000
0100
0001
0010
0001
0100
,  // measure 38
0020
0000
0000
0000
0000
0000
0001
0000
0000
0000
0000
0000
1030
0000
0000
0000
0000
0000
1100
0000
0000
0000
0000
0000
2002
0000
0000
0000
0000
0000
3000
0000
0000
0003
0000
0000
0010
0000
0001
0000
0100
0000
0010
0000
1000
0000
0200
0000
,  // measure 39
0020
0000
0000
0000
0000
0330
2002
0000
0000
3003
0000
0000
2000
0000
0000
0000
0000
0000
0010
0000
0000
0000
0000
0000
,  // measure 40
0010
0000
3010
0101
0012
0000
0010
0000
,  // measure 41
0010
0000
0013
1100
1020
0000
0001
0000
,  // measure 42
1000
0000
0000
0000
0031
0000
1001
0000
0110
0000
0000
1001
0000
0000
1100
0000
,  // measure 43
0000
0101
0000
0110
1001
1000
0010
0001
,  // measure 44
0010
1000
0100
0001
0100
1000
0010
0100
,  // measure 45
0001
0000
0010
0000
0100
0000
1000
0000
0010
0100
0001
0100
0010
1000
0100
1000
,  // measure 46
0010
0001
0010
1000
0100
0001
0100
1000
0010
0100
0001
0010
1000
0010
0001
0100
,  // measure 47
0010
1000
0000
1000
0000
0001
0000
0001
0010
0001
0100
0001
0010
0000
0010
0100
,  // measure 48
1000
0010
0100
0010
1000
0000
0100
1000
0010
1000
0100
1000
0010
0000
0100
0001
,  // measure 49
0100
0001
0010
0001
0100
0000
1001
0000
1000
0100
0001
0100
1000
0000
0001
1000
,  // measure 50
0001
0100
1000
0100
0001
0000
1000
0001
1000
0100
0010
0001
1000
0000
0001
0100
,  // measure 51
0010
1000
0100
0010
0001
0100
0001
0100
0010
1000
0001
0010
0001
0000
0001
1000
,  // measure 52
0001
0010
0001
1000
0010
0000
1000
0001
1000
0100
1000
0001
0100
0000
0001
1000
,  // measure 53
0001
0100
0001
1000
0100
0000
0101
0000
0100
0010
0100
0010
1000
0010
1000
0010
,  // measure 54
1000
0001
1000
0001
1000
0100
1000
0100
0010
0000
0001
0000
0100
0010
0000
1100
,  // measure 55
0000
0101
0000
0010
0100
0000
1001
0000
1000
0100
0010
0001
1000
0100
0010
0001
,  // measure 56
1000
0010
0100
0001
1000
0010
0100
0001
0010
0001
0100
0001
0010
0001
0100
0001
,  // measure 57
1000
0010
1000
0100
1000
0010
1000
0100
0010
0001
1000
0010
1000
0001
0010
0001
,  // measure 58
1000
0100
1000
0001
1000
0100
1000
0001
0100
0010
0100
0010
1000
0010
1000
0010
,  // measure 59
0100
0001
0100
0001
0010
0001
0010
0001
1000
0010
0100
0001
0010
0100
1000
0010
,  // measure 60
0100
0001
0010
0100
1000
0010
0100
0001
0010
1000
0010
0001
0100
0001
0010
1000
,  // measure 61
0010
0001
0100
0001
0010
1000
0010
0001
0100
1000
0100
0001
0010
1000
0010
0001
,  // measure 62
0100
1000
0100
0001
0010
1000
0010
0001
0100
1000
0100
0001
0010
0100
1000
0010
,  // measure 63
0100
0001
0010
2000
0002
0000
0000
0000
3003
0000
0000
0000
0000
0000
0000
0000
;

//---------------dance-single - ----------------
#NOTEDATA:;
#CHARTNAME:;
#STEPSTYPE:dance-single;
#DESCRIPTION:;
#CHARTSTYLE:;
#DIFFICULTY:Beginner;
#METER:3;
#RADARVALUES:0.225505,0.322071,0.305522,0.161248,0.000000,131.000000,36.000000,19.000000,0.000000,0.000000,0.000000,0.000000,0.000000,0.225505,0.322071,0.305522,0.161248,0.000000,131.000000,36.000000,19.000000,0.000000,0.000000,0.000000,0.000000,0.000000;
#CREDIT:MRace2010;
#NOTES:
// measure 0
0000
0000
0000
0000
,  // measure 1
0000
0000
0000
0000
,  // measure 2
0000
0000
0000
0000
,  // measure 3
0000
0000
0000
0000
,  // measure 4
0000
0000
0000
0000
,  // measure 5
0010
0000
0010
0000
,  // measure 6
0100
0000
0100
0000
,  // measure 7
0001
0000
1000
0000
,  // measure 8
0010
0010
0010
0000
,  // measure 9
1001
0000
0000
0000
,  // measure 10
1000
0000
0100
0000
,  // measure 11
1000
0000
1001
0000
,  // measure 12
0001
0000
0100
0000
,  // measure 13
0001
0000
1001
0000
,  // measure 14
0010
0000
0010
0000
,  // measure 15
0100
0000
0100
0000
,  // measure 16
0001
0000
0010
0000
,  // measure 17
1000
0000
1001
0000
,  // measure 18
2000
3000
0002
0003
,  // measure 19
0200
0300
0020
0030
,  // measure 20
2000
3000
0200
0300
,  // measure 21
0020
0030
0010
0010
,  // measure 22
0020
0030
0002
0003
,  // measure 23
0200
0300
0020
0030
,  // measure 24
2000
3000
0002
0003
,  // measure 25
1000
0001
1000
0001
,  // measure 26
1001
0000
0000
0000
,  // measure 27
0000
0000
1001
0000
,  // measure 28
0110
0000
1000
0000
,  // measure 29
0001
0000
1001
0000
,  // measure 30
0110
0000
0010
0000
,  // measure 31
0100
0000
0110
0000
,  // measure 32
1001
0000
0010
0000
,  // measure 33
0100
0000
0110
0000
,  // measure 34
1001
0000
1000
0000
,  // measure 35
0001
0000
0010
0000
,  // measure 36
0100
0000
0001
0001
,  // measure 37
0001
0000
0010
0000
,  // measure 38
0100
0000
1000
0000
,  // measure 39
1001
0000
0010
0010
,  // measure 40
0010
0000
0100
0100
,  // measure 41
0100
0000
0001
0000
,  // measure 42
1000
0000
1001
0000
,  // measure 43
0110
0000
0020
0000
,  // measure 44
0000
0030
0200
0000
,  // measure 45
0000
0300
0002
0003
,  // measure 46
2000
3000
0001
1000
,  // measure 47
2002
3003
0010
0000
,  // measure 48
1001
0000
0010
0000
,  // measure 49
0110
0000
0100
0000
,  // measure 50
1001
0000
0110
0000
,  // measure 51
0110
0000
1000
0000
,  // measure 52
1001
0000
0010
0000
,  // measure 53
1001
0000
0001
0000
,  // measure 54
1000
0000
0001
1000
,  // measure 55
1001
1001
0100
0100
,  // measure 56
0100
0000
0010
0010
,  // measure 57
0010
0000
1000
1000
,  // measure 58
1000
0000
0001
0001
,  // measure 59
0001
0000
1001
1001
,  // measure 60
1001
0000
0110
0110
,  // measure 61
0110
0000
1001
1001
,  // measure 62
1001
0000
1000
0001
,  // measure 63
1000
1001
0000
0000
;

//---------------dance-single - ----------------
#NOTEDATA:;
#CHARTNAME:;
#STEPSTYPE:dance-single;
#DESCRIPTION:;
#CHARTSTYLE:;
#DIFFICULTY:Easy;
#METER:6;
#RADARVALUES:0.412213,0.375750,0.577098,0.356443,0.000000,230.000000,68.000000,42.000000,0.000000,0.000000,0.000000,0.000000,0.000000,0.412213,0.375750,0.577098,0.356443,0.000000,230.000000,68.000000,42.000000,0.000000,0.000000,0.000000,0.000000,0.000000;
#CREDIT:MRace2010;
#NOTES:
// measure 0
0000
0000
0000
0000
,  // measure 1
0000
0000
0000
0000
,  // measure 2
0000
0000
0000
0000
,  // measure 3
1000
1000
0001
0001
,  // measure 4
1000
0001
0100
0001
,  // measure 5
1000
0100
1000
0010
,  // measure 6
0100
0001
0010
0001
,  // measure 7
1000
1000
0100
0100
,  // measure 8
0011
0000
0101
0110
,  // measure 9
2002
0000
0000
3003
,  // measure 10
1000
1100
0010
1100
,  // measure 11
0001
0101
0010
0101
,  // measure 12
0010
0011
1000
1100
,  // measure 13
0010
0101
0010
1100
,  // measure 14
0001
0001
1000
1000
,  // measure 15
0100
0010
0001
0100
,  // measure 16
0010
0010
0100
0100
,  // measure 17
0001
1100
0101
1100
,  // measure 18
0020
1030
0002
0013
,  // measure 19
0200
1300
0002
0103
,  // measure 20
0020
1030
0200
0301
,  // measure 21
1000
1000
1000
0010
,  // measure 22
0002
0103
0020
1030
,  // measure 23
0200
0310
0002
1003
,  // measure 24
0010
0010
0010
1000
,  // measure 25
0001
0101
1100
0110
,  // measure 26
2002
0000
0000
0000
,  // measure 27
0000
3003
1100
0101
,  // measure 28
0010
0010
1100
1100
,  // measure 29
0110
0101
1010
0011
,  // measure 30
0100
0100
0011
0110
,  // measure 31
2002
3003
1100
1010
,  // measure 32
0100
0100
0011
0011
,  // measure 33
0110
0101
0011
0101
,  // measure 34
0010
0010
1100
0101
,  // measure 35
2002
0000
3003
0000
0020
0000
0000
0030
,  // measure 36
2000
0000
0000
3000
0002
0000
0023
0000
,  // measure 37
0230
0000
0300
1000
2002
0000
0000
3003
,  // measure 38
2020
0000
0000
3030
0220
0000
0000
0330
,  // measure 39
2002
0000
0000
3003
0010
0000
0001
0000
,  // measure 40
0010
0001
1000
0010
,  // measure 41
1000
0010
0100
0001
,  // measure 42
0100
0001
1000
0100
,  // measure 43
1000
0100
0010
0010
,  // measure 44
0001
0001
0100
0100
,  // measure 45
0010
0000
0010
0000
1000
0001
1000
0001
,  // measure 46
1000
0001
1000
0001
1000
0100
0010
0001
,  // measure 47
0200
0300
0020
1030
,  // measure 48
0002
0013
0200
1300
,  // measure 49
0002
0103
0020
1030
,  // measure 50
0200
0301
1000
1000
,  // measure 51
1000
0010
0002
0103
,  // measure 52
0020
1030
0200
0310
,  // measure 53
0002
1003
0010
0010
,  // measure 54
0010
1000
0100
0011
,  // measure 55
1010
0011
1000
1100
,  // measure 56
1000
1100
0010
1100
,  // measure 57
0010
1100
0001
0101
,  // measure 58
0001
0101
0010
0101
,  // measure 59
0010
0101
0010
1100
,  // measure 60
0010
0101
0010
1100
,  // measure 61
0010
0101
1100
0101
,  // measure 62
0011
1010
1001
0110
,  // measure 63
1001
1001
0000
0000
;

//---------------dance-single - ----------------
#NOTEDATA:;
#CHARTNAME:;
#STEPSTYPE:dance-single;
#DESCRIPTION:;
#CHARTSTYLE:;
#DIFFICULTY:Medium;
#METER:8;
#RADARVALUES:0.544363,0.509946,0.381903,0.101841,0.212168,392.000000,45.000000,12.000000,0.000000,0.000000,2.000000,0.000000,0.000000,0.544363,0.509946,0.381903,0.101841,0.212168,392.000000,45.000000,12.000000,0.000000,0.000000,2.000000,0.000000,0.000000;
#CREDIT:MRace2010;
#NOTES:
// measure 0
0000
0000
0000
0000
,  // measure 1
0000
0000
0000
0000
,  // measure 2
0000
0000
0000
0000
,  // measure 3
1000
1000
0001
0001
,  // measure 4
1000
0000
0000
0000
0001
0000
0000
0000
0100
0000
0000
0001
1000
0000
0100
0000
,  // measure 5
0010
0000
0000
0001
0010
0000
0100
0000
1000
0000
0000
0000
1010
0000
0000
0000
,  // measure 6
0010
0000
0000
1000
0010
0000
0100
0000
0001
0000
0000
0000
0011
0000
0000
0000
,  // measure 7
0010
0000
0000
0001
0100
0000
0000
0000
0010
0000
0000
1000
0100
0000
0000
0000
,  // measure 8
0101
0000
0000
1100
0000
0000
1000
0001
1000
0001
0000
0000
,  // measure 9
0220
0000
0000
0330
,  // measure 10
0100
0001
0100
0001
0010
0001
0010
0001
,  // measure 11
1000
0010
1000
0010
0100
0001
0100
0001
,  // measure 12
1000
0100
0010
0001
1000
0100
0010
0001
,  // measure 13
1000
0010
0100
0001
1000
0010
0100
0001
,  // measure 14
1000
0100
1000
0010
0001
0010
1000
0100
,  // measure 15
0010
0001
0100
1000
0100
0001
0010
0100
,  // measure 16
1000
0010
0001
0010
1000
0100
0010
0001
,  // measure 17
0100
1001
0110
1001
,  // measure 18
1000
0100
0010
0000
0001
0100
0010
0000
,  // measure 19
1000
0100
0001
0100
1000
0010
0100
0000
,  // measure 20
0001
0010
0100
0000
1000
0010
0100
0000
,  // measure 21
0001
0010
1000
0010
0001
0100
0010
1000
,  // measure 22
0100
0010
0001
0000
0100
0010
1000
0000
,  // measure 23
0100
0010
0001
0100
1000
0100
0001
0000
,  // measure 24
1000
0100
1000
0100
0010
0100
0010
0100
,  // measure 25
0001
1001
0110
1001
,  // measure 26
0220
0000
0000
0000
0000
0000
0330
0000
4000
0004
0000
0000
0000
0000
0000
0000
,  // measure 27
0000
3003
1010
0011
,  // measure 28
1000
0100
1000
0100
0000
0000
0101
0000
0000
1001
0000
0000
,  // measure 29
0110
0110
1010
0011
,  // measure 30
0100
0001
0100
0001
0000
0000
1100
0000
0000
1001
0000
0000
,  // measure 31
0020
0130
1100
1100
,  // measure 32
0001
0100
0001
0101
0000
0000
1010
0000
0000
0011
0000
0000
,  // measure 33
1001
0110
1100
0101
,  // measure 34
1000
0100
1000
1100
0000
0000
0011
0000
0000
1010
0000
0000
,  // measure 35
2002
0000
3003
0000
1001
0000
0000
0000
0020
0000
0000
0000
0030
0000
1000
0100
,  // measure 36
0020
0000
0000
0000
0000
0000
0001
0000
0000
0000
1000
0000
0000
1000
0000
0000
0230
0000
0000
0000
0000
0000
1000
0000
0300
0000
1000
0000
0000
0000
0010
0000
,  // measure 37
0100
0000
0000
0001
0000
0000
0010
0000
0110
0000
0000
1000
0000
0000
0001
0000
,  // measure 38
0110
0000
0000
1000
0000
0000
0100
0000
0000
0010
0000
0000
1001
0000
0000
0000
0000
0000
1000
0100
1000
0001
0100
0001
,  // measure 39
2000
0000
0002
3003
1000
0000
1000
0000
,  // measure 40
1000
0000
1000
0100
0010
0000
0010
0000
,  // measure 41
0010
0000
0010
0001
0100
0000
0100
0000
,  // measure 42
0100
0000
0000
0000
0100
0000
0010
0000
1000
0000
0000
0100
0000
0000
1100
0000
,  // measure 43
0000
0101
0000
0001
0010
0100
1000
0001
,  // measure 44
0100
0010
1000
0100
0010
0001
0010
0100
,  // measure 45
1000
0000
0010
0000
1000
0000
0100
0000
0010
0001
0010
0000
0001
0100
0001
0000
,  // measure 46
1000
0010
1000
0000
0001
1000
0001
0000
0010
0100
0010
0100
0010
0100
0010
0100
,  // measure 47
1000
0000
0000
0000
1000
0010
0100
0000
,  // measure 48
0001
0010
0100
0000
1000
0010
0001
0010
,  // measure 49
1000
0100
0010
0000
0001
0100
0010
0000
,  // measure 50
1000
0100
0010
0000
0001
0100
0001
0010
,  // measure 51
1000
0010
0001
0100
0010
1000
0010
0000
,  // measure 52
0100
0001
0010
0000
0100
1000
0010
0100
,  // measure 53
0010
1000
0100
0010
0001
1000
0001
1000
,  // measure 54
0010
0100
0010
0100
0010
0000
0110
0000
,  // measure 55
1001
0000
1001
0000
1000
0100
1000
0100
,  // measure 56
1000
0000
0000
0001
0100
0000
0001
0000
1000
0000
0100
0000
1000
0000
0100
0000
,  // measure 57
0010
0000
0000
0100
0010
0000
0001
0000
0100
0000
0001
0000
0100
0000
0001
0000
,  // measure 58
1000
0000
0000
0100
0010
0000
0001
0000
0100
0000
0001
0000
0100
0000
0010
0000
,  // measure 59
1000
0000
0000
0100
1000
0000
0010
0000
0100
0000
0001
0000
0010
0000
0000
0001
,  // measure 60
0100
0000
0001
0000
0010
0000
0000
0001
0100
0000
0010
0000
1000
0000
0000
0100
,  // measure 61
0010
0000
0100
0000
1000
0000
0000
0010
0100
0000
0000
0001
0010
0000
0000
0001
,  // measure 62
0100
0000
0000
0010
1000
0000
0000
0100
1000
0000
0010
0000
0100
0000
0001
0000
,  // measure 63
0010
1001
0000
0000
;

//---------------dance-single - ----------------
#NOTEDATA:;
#CHARTNAME:;
#STEPSTYPE:dance-single;
#DESCRIPTION:;
#CHARTSTYLE:;
#DIFFICULTY:Hard;
#METER:11;
#RADARVALUES:0.855947,0.805179,0.602558,0.220655,1.000000,609.000000,71.000000,26.000000,6.000000,0.000000,2.000000,0.000000,0.000000,0.855947,0.805179,0.602558,0.220655,1.000000,609.000000,71.000000,26.000000,6.000000,0.000000,2.000000,0.000000,0.000000;
#CREDIT:MRace2010;
#NOTES:
// measure 0
0000
0000
0000
0000
,  // measure 1
0000
0000
0000
0000
,  // measure 2
0000
0000
0000
0000
,  // measure 3
1000
1000
0001
0001
,  // measure 4
1000
0000
0000
0000
0001
0000
0000
0000
0100
0000
0000
0001
1000
0000
0100
0000
,  // measure 5
0010
0000
0001
0100
0000
1000
0000
0100
0000
0001
0000
0010
0100
0000
1000
0000
,  // measure 6
0010
0000
1000
0100
0000
0001
0000
0100
0000
1000
0000
0010
0100
0000
0001
0000
,  // measure 7
0010
0000
0001
0100
0000
0010
0000
1000
0000
0100
0000
0010
0001
0000
0100
0000
,  // measure 8
0010
1000
0010
0100
0001
0010
0100
1000
0001
0000
0100
0002
,  // measure 9
2000
0000
0000
3003
,  // measure 10
1000
0000
0001
0010
0000
0001
0000
0100
0000
0010
0000
1000
0100
0000
1100
0000
,  // measure 11
0101
0000
1000
0100
0000
0010
0000
0001
0000
0100
0000
0001
1000
0000
1001
0000
,  // measure 12
1001
0000
0010
0100
0000
0010
0000
1000
0000
0100
0000
0001
0100
0000
1100
0000
,  // measure 13
1010
0000
0100
0001
0000
0010
0000
0100
0000
0010
0000
0001
0100
0000
1001
0000
,  // measure 14
1001
0000
1000
0010
0000
1000
0000
0001
0000
0000
0010
0001
1000
0000
1010
0000
,  // measure 15
0101
0000
0001
0100
0000
0001
0000
1000
0000
0000
0100
1000
0001
0000
0101
0000
,  // measure 16
0011
0000
0100
1000
0000
0001
0000
0100
0000
0000
0001
1000
0100
0000
0010
0000
,  // measure 17
0011
0000
0101
0000
0010
1000
0000
1100
0000
1001
0000
0010
0100
0000
0110
0000
,  // measure 18
0001
1000
0001
1000
0001
0000
0001
0100
0001
0100
0001
0100
0001
0000
0001
0010
,  // measure 19
0001
0010
0001
0010
0001
0000
1000
0010
1000
0010
1000
0010
1000
0000
1001
0000
,  // measure 20
0001
0100
0001
0100
0001
0000
1000
0100
1000
0100
1000
0100
1000
0000
0010
0100
,  // measure 21
0010
0100
0010
0100
0010
1000
0010
1000
0001
1000
0001
1000
0001
0010
0100
1000
,  // measure 22
0001
1000
0001
1000
0001
0000
0001
0010
0001
0010
0001
0010
0001
0000
0100
0010
,  // measure 23
0100
0010
0100
0010
0100
0000
0010
1000
0010
1000
0010
1000
0010
0000
1000
0100
,  // measure 24
1000
0100
1000
0100
1000
0001
1000
0001
0100
0001
0100
0001
0010
0100
0010
0100
,  // measure 25
0010
0000
0001
0000
1000
0001
0000
0100
0000
0010
0000
1000
0001
0000
0110
0000
,  // measure 26
2MM2
0000
0000
0000
0000
0000
3003
0000
M10M
0010
0100
0010
0400
0040
0000
0000
,  // measure 27
0000
0000
0000
0000
0000
0000
0330
0000
1001
0000
1000
0100
1000
0000
0001
0100
,  // measure 28
0001
0000
1000
0000
0100
0000
0110
0000
0000
0001
0000
0000
1000
0000
0010
0000
1000
0000
0001
0000
0010
0000
0001
0000
,  // measure 29
2020
0000
0000
3030
0022
0000
0000
0033
1001
0000
1000
0100
1000
0000
0001
0100
,  // measure 30
0001
0000
0010
0000
0100
0000
1001
0000
0000
0100
0000
0000
0010
0000
0100
0000
0001
0000
1000
0000
0000
1001
0000
0000
,  // measure 31
0020
0000
0000
0000
M20M
0000
0330
0000
1001
0000
1000
0100
1000
0000
0001
0100
,  // measure 32
0001
0000
0010
0100
0010
0000
0001
1000
0001
0000
1000
0010
1000
0000
0001
0100
,  // measure 33
0001
0000
0010
0001
0010
0000
0100
1000
0100
0000
0010
0001
0100
0000
0010
1000
,  // measure 34
0100
0000
0010
0001
1000
0000
0010
1000
0001
0000
0010
0100
1000
0000
0010
0000
,  // measure 35
0220
0000
0000
0000
0330
0000
0000
0000
2002
0000
0000
0000
3003
0000
0000
0000
2100
0000
0000
0000
0000
0000
0000
0000
0000
3000
0000
0100
0010
0001
0100
0000
,  // measure 36
0020
0000
0000
0000
0000
0000
1000
0000
0000
0000
1030
0000
0000
1000
0000
0000
0001
0000
0000
0000
0000
0000
0010
0000
0000
0000
0100
0000
0000
0000
1000
0000
,  // measure 37
0001
0000
0000
0100
0000
0000
0010
0000
0000
0000
1000
0000
0001
0000
1000
0000
2020
0000
0000
0000
0030
0000
0001
0000
0000
0000
3000
0100
0010
0001
0100
0001
,  // measure 38
1000
0000
0000
0002
0000
0000
0100
0000
0000
0103
0000
0000
1001
0000
0000
0000
0000
0000
1000
0100
0010
0001
0100
0020
,  // measure 39
2000
0000
0000
0000
3030
0000
2002
0000
0000
0003
0000
0000
3020
0000
0000
0000
0000
0000
1000
0000
0000
0000
0000
0000
,  // measure 40
1000
0000
1030
0100
0020
0000
0001
0000
,  // measure 41
0001
0000
0031
0100
0020
0000
1000
0000
,  // measure 42
0001
0000
0000
0000
1030
0000
0100
0000
1100
0000
0000
0101
0000
0000
1001
0000
,  // measure 43
0000
0110
0000
1001
1000
0100
0010
0001
,  // measure 44
1000
0010
0100
0001
1000
0100
0001
0100
,  // measure 45
1000
0000
0010
0000
0001
0000
0010
0000
1000
0100
1000
0100
0010
0001
0010
0001
,  // measure 46
0100
0010
0100
0010
1000
0100
1000
0100
1000
0010
0100
0001
1000
0100
0010
0001
,  // measure 47
1000
0010
0000
0010
0000
0100
0000
0100
0001
0100
0001
0100
0001
0000
1000
0100
,  // measure 48
1000
0100
1000
0100
1000
0000
0001
0010
0001
0010
0001
0010
0001
0000
1000
0010
,  // measure 49
1000
0010
1000
0010
1000
0000
1001
0000
1000
0010
1000
0010
1000
0000
0001
0100
,  // measure 50
0001
0100
0001
0100
0001
0000
0100
0001
0010
0001
0010
0001
0010
0100
0010
0100
,  // measure 51
1000
0100
1000
0100
1000
0010
0100
0001
0010
0001
0010
0001
0010
0000
0100
1000
,  // measure 52
0100
1000
0100
1000
0100
0000
0010
0100
0010
0100
0010
0100
0010
0000
0001
0100
,  // measure 53
0001
0100
0001
0100
0001
0000
1000
0000
0100
0010
0100
0010
0001
1000
0001
1000
,  // measure 54
0010
0100
0010
0100
0001
1000
0001
1000
0100
0000
1100
0000
0001
0010
0000
0101
,  // measure 55
0000
1010
0000
0100
0010
0000
1001
0000
1000
0000
0100
1000
0000
1001
0000
0101
,  // measure 56
0000
1001
0000
0100
0010
0000
1001
0000
0001
0000
0100
0001
0000
0101
0000
1001
,  // measure 57
0000
0011
0000
0100
0010
0000
1001
0000
0010
0000
1000
0010
0000
1010
0000
1001
,  // measure 58
0000
0011
0000
0100
0010
0000
1001
0000
0001
0000
0010
0001
0000
0011
0000
1001
,  // measure 59
0000
0101
0000
0010
0100
0000
1001
0000
1001
0000
1000
0100
0000
0100
1000
0000
,  // measure 60
1001
0000
0001
0100
0000
0100
0001
0000
1001
0000
1000
0010
0000
0010
1000
0000
,  // measure 61
1001
0000
0001
0010
0000
0010
0001
0000
1001
0000
0010
1000
1010
0000
0001
0010
,  // measure 62
0011
0000
1000
0100
1100
0000
0001
0100
0101
0000
0010
1000
0100
0010
0001
0100
,  // measure 63
0010
0110
1001
0000
0000
0000
0000
0000
;
