#TITLE:Pac Rainbow;
#SUBTITLE:;
#ARTIST:遠山 明孝;
#TITLETRANSLIT:;
#SUBTITLETRANSLIT:;
#ARTISTTRANSLIT:Akitaka Tohyama;
#CREDIT:;
#BANNER:[Round 4] - Pac Rainbow.png;
#BACKGROUND:[Round 4] - Pac Rainbow-bg.png;
#LYRICSPATH:;
#CDTITLE:;
#MUSIC:[Round 4] - Pac Rainbow.ogg;
#OFFSET:-0.009;
#SAMPLESTART:91.300;
#SAMPLELENGTH:12.000;
#SELECTABLE:YES;
#BPMS:0.000=147.200;
#STOPS:;
#BGCHANGES:;

//---------------dance-single - ----------------
#NOTES:
     dance-single:
     :
     Hard:
     9:
     0.571,0.588,0.390,0.056,0.076: // measure 1
0000
0000
0000
0000
,  // measure 2
0000
0000
0000
0000
,  // measure 3
0000
0000
0000
0000
,  // measure 4
0000
0000
0000
0000
,  // measure 5
0010
1000
0001
0100
,  // measure 6
0010
1000
0001
0100
,  // measure 7
1000
0001
0100
0010
,  // measure 8
1000
0001
0100
0100
,  // measure 9
0001
1000
0001
0100
0010
1000
0010
1000
,  // measure 10
0001
0100
0010
0000
0001
1000
1000
0010
,  // measure 11
0100
0001
1001
0000
0010
0100
1000
0000
,  // measure 12
0001
0100
0010
1000
0001
1000
1001
0000
,  // measure 13
0010
0100
0010
0000
1000
0001
1000
0000
,  // measure 14
0010
0100
1000
0100
0001
0100
1010
0000
,  // measure 15
0001
0100
0010
0000
0001
0001
1000
0000
,  // measure 16
0001
0100
1000
0000
0001
1000
1001
0000
,  // measure 17
0010
1000
0010
1000
0010
1000
0010
0100
,  // measure 18
0001
0100
0001
0100
0001
0100
0001
0000
,  // measure 19
1000
1000
0001
0000
0100
0010
1010
0000
,  // measure 20
0001
0001
0100
0000
0010
1000
1010
0000
,  // measure 21
0001
0100
0001
0000
0010
1000
1010
0000
,  // measure 22
0100
0001
0100
0000
0010
1000
1001
0000
,  // measure 23
0010
0001
0010
0000
1000
0100
1100
0000
,  // measure 24
0001
0100
0001
0000
1000
0001
0011
0000
,  // measure 25
1000
0000
0000
0000
0001
0000
0000
1010
0000
0000
0100
0000
0001
0000
2001
0000
,  // measure 26
0000
0000
0001
0001
0000
0000
0100
0100
,  // measure 27
0000
0000
0010
0010
0000
0000
0001
3001
,  // measure 28
0000
0000
1000
1000
0011
0000
0100
0000
,  // measure 29
0010
1000
0010
0000
0100
0100
0011
0000
,  // measure 30
1000
0010
0100
0000
0001
0001
1100
0000
,  // measure 31
0001
0001
0100
0000
0010
1000
1100
0000
,  // measure 32
0001
0100
0010
0000
1000
0001
1001
0000
,  // measure 33
0020
1000
0001
0100
,  // measure 34
1000
0000
0001
0030
1000
0100
0010
0001
,  // measure 35
0010
1000
0010
0200
0000
0001
0000
1000
,  // measure 36
0000
0010
0000
0001
0000
1300
0000
0001
,  // measure 37
0000
0010
0010
2000
0001
0000
0001
0000
,  // measure 38
0100
0000
0001
0000
0100
0000
0001
3100
,  // measure 39
0010
0100
1000
0002
0000
0100
0000
1000
,  // measure 40
0000
0010
0000
0100
0000
1000
1000
1003
,  // measure 41
0000
0100
0010
1000
0010
0100
0001
1000
,  // measure 42
1001
0000
0010
0100
1000
0001
1000
0001
,  // measure 43
0110
0000
1000
0010
0001
0100
0010
1000
,  // measure 44
0011
0000
0100
1000
0001
0100
0001
1000
,  // measure 45
1100
0000
0001
0100
1000
0100
0011
0001
,  // measure 46
1001
0000
0100
0010
0100
1000
0011
0010
,  // measure 47
1010
0000
0100
0001
1000
0010
0101
0100
,  // measure 48
0011
0000
1000
0010
0100
0001
1100
0010
,  // measure 49
1010
0000
0100
0010
0100
1000
0011
1000
,  // measure 50
1010
0000
0010
0100
0001
1000
0100
0011
,  // measure 51
0011
0000
0001
1000
0001
0100
0001
1100
,  // measure 52
1100
0000
0010
1000
0100
0001
0100
1001
,  // measure 53
1001
0000
0010
0100
1000
0100
0010
0110
,  // measure 54
0110
0000
1000
0100
0010
0001
0010
0011
,  // measure 55
0011
0000
1000
0100
0010
1000
0001
1100
,  // measure 56
1100
0000
0000
0000
0010
0000
0000
0110
0000
0110
0000
0000
0001
1000
0001
0000
,  // measure 57
0100
0001
0000
0000
0100
1000
0000
0000
0010
0100
0000
0000
1001
0000
0000
0000
,  // measure 58
0001
1000
0000
0000
0100
1000
0000
0000
0001
1000
0000
0000
0010
1000
0000
0000
,  // measure 59
1001
0000
0000
0000
0010
1000
0000
0000
0010
0100
0000
0000
0010
0001
0000
0000
,  // measure 60
1001
0000
0100
0000
0010
0000
0100
0000
0010
1000
0010
0000
0100
0000
0001
0000
,  // measure 61
0100
0000
0010
0000
1000
0000
0001
0010
0001
0000
1000
0000
0010
0000
0000
0000
,  // measure 62
0001
0000
0001
0000
0001
0000
1000
0100
1000
0000
0010
0000
0001
0000
0010
0000
,  // measure 63
1000
0000
1000
0000
1000
0000
0100
0010
0100
0000
0010
0000
0001
0000
1000
0000
,  // measure 64
0100
0000
0100
0000
0100
0000
0001
0010
0001
0000
1000
0000
0001
0000
1000
0000
,  // measure 65
0010
0010
0010
0001
1000
0100
0001
0010
,  // measure 66
0100
0001
1000
0001
0100
0010
1000
0001
,  // measure 67
0100
0010
1000
0001
0100
1000
0100
0010
,  // measure 68
0001
0010
1000
0001
0100
1000
0100
0001
,  // measure 69
0100
0010
1000
0001
0100
0010
1000
0001
,  // measure 70
0100
0010
1000
0001
1000
0010
1000
0001
,  // measure 71
0100
0010
0100
0001
0100
0010
0100
0001
,  // measure 72
0100
0010
1000
0100
0010
0001
1000
0001
,  // measure 73
2002
0000
0000
0000
,  // measure 74
0000
0000
0000
0000
0000
0000
0000
3003
;

//---------------dance-single - ----------------
#NOTES:
     dance-single:
     :
     Beginner:
     1:
     0.118,0.172,0.072,0.000,0.000:
0000
0000
0000
0000
,
0000
0000
0000
0000
,
0000
0000
0000
0000
,
0000
0000
0000
0000
,
1000
0000
0001
0000
,
0100
0000
1000
0000
,
0001
0000
1000
0000
,
0010
0000
0001
0000
,
1000
0000
1000
0000
,
0001
0000
0001
0000
,
0100
0000
0100
0000
,
0000
0000
0000
0000
,
0000
0001
0000
0001
,
0000
1000
0000
1000
,
0000
0010
0000
0010
,
0000
0000
0000
0000
,
1000
0000
0001
0000
,
1000
0000
0001
0000
,
0000
0000
0000
0000
,
0000
0000
0000
0000
,
0000
0100
0000
0010
,
0000
0100
0000
0010
,
0000
0000
0000
0000
,
0000
0000
0000
0000
,
1000
0000
0001
0000
,
1000
0000
1000
0000
,
1000
0000
1000
0000
,
1000
0000
0000
0000
,
0000
0100
0000
0010
,
0000
0001
0000
0001
,
0000
0001
0000
0001
,
0000
0000
0000
0000
,
1000
0000
0010
0000
,
1000
0000
0010
0000
,
0000
0001
0000
0100
,
0000
0001
0000
0100
,
0000
1000
0000
0010
,
0000
1000
0000
0010
,
0000
0001
0000
0100
,
0000
0001
0000
0100
,
0000
1000
0000
1000
,
0000
1000
0000
1000
,
0000
0100
0000
0100
,
0000
0100
0000
0100
,
0000
0010
0000
0010
,
0000
0010
0000
0010
,
0000
0001
0000
0001
,
0000
0001
0000
0000
,
1000
0000
0000
0000
,
1010
0000
0000
0000
,
0001
0000
0000
0000
,
0101
0000
0000
0000
,
1000
0000
0000
0000
,
0110
0000
0000
0000
,
0001
0000
0000
0000
,
1001
0000
0000
0000
,
1000
0000
0000
0000
,
0000
0000
0000
0000
,
0100
0000
0000
0000
,
0000
0000
0000
0000
,
0010
0000
0000
0000
,
0001
0000
0000
0000
,
1000
0000
0000
0000
,
0010
0000
0000
0000
,
0100
0000
0000
0000
,
0001
0000
0000
0000
,
0100
0000
0000
0000
,
1000
0000
0000
0000
,
1001
0000
0000
0000
,
1001
0000
0000
0000
,
1001
0000
0000
0000
,
1001
0000
0000
0000
,
1001
0000
0000
0000
;

//---------------dance-single - ----------------
#NOTES:
     dance-single:
     :
     Easy:
     3:
     0.297,0.294,0.024,0.024,0.000:
0000
0000
0000
0000
,
0000
0000
0000
0000
,
0000
0000
0000
0000
,
0000
0000
0000
0000
,
0010
0000
1000
0000
,
0001
0000
0100
0000
,
0010
0000
1000
0000
,
0002
0000
0000
0003
,
1000
1000
0010
0000
,
0001
0001
0100
0000
,
0010
0010
1000
0000
,
0100
0100
0001
0000
,
0001
1000
0001
0001
,
1000
0001
1000
1000
,
0010
0100
0010
0010
,
0100
0010
0100
0100
,
1000
0001
1001
0010
,
0010
0010
0010
0010
,
0100
0100
0100
0100
,
1000
0001
0000
0000
,
1001
0010
0100
0010
,
0010
0010
0010
0010
,
0100
0100
0100
0100
,
0001
1000
0001
0000
,
1000
1000
1000
1000
,
0001
0100
0001
0100
,
1000
1000
1000
1000
,
0001
0100
0001
0100
,
0001
1000
0001
1000
,
0001
1000
0001
0010
,
0100
1000
1000
1000
,
0001
1000
0001
0001
,
0100
0100
0100
0100
,
1000
0001
0100
0010
,
0010
1000
0001
0100
,
0010
1000
0001
0001
,
0100
0010
1000
0001
,
1000
0001
0001
0001
,
0100
0010
0100
0010
,
1000
0000
0000
1000
,
0010
0001
1000
0001
,
0010
1000
0001
1000
,
0010
1000
0001
1000
,
0010
0001
1000
0010
,
0001
1000
0100
1000
,
0001
1000
0100
1000
,
0001
1000
0100
0001
,
1000
0100
0001
1000
,
0100
0001
1000
0001
,
1000
0001
0100
0001
,
0100
1000
0010
1000
,
0010
0100
0010
0100
,
0001
0100
0010
0100
,
0001
0100
0010
0100
,
0001
1000
0001
1000
,
1000
1000
1000
1000
,
0001
0001
0100
0100
,
0010
0010
1000
1000
,
0010
0010
0100
0100
,
0001
0001
1000
1000
,
0010
0010
0100
0100
,
0001
0001
1000
1000
,
0100
0100
0001
0001
,
0100
0100
1000
1000
,
0010
0010
0100
0100
,
0001
0001
1000
0001
,
1000
1000
0010
0100
,
0001
1000
0001
0001
,
0100
0010
1000
1000
,
0001
0100
0001
1000
,
0010
1000
0001
0100
,
0010
0010
1000
1000
,
2002
0000
0000
0000
,
0000
0000
0000
0000
0000
0000
0000
3003
;

//---------------dance-single - Copied from----------------
#NOTES:
     dance-single:
     Copied from:
     Medium:
     7:
     0.415,0.471,0.271,0.048,0.000:
0000
0000
0000
0000
,
0000
0000
0000
0000
,
0000
0000
0000
0000
,
0000
0000
0000
0000
,
0100
0000
0100
0000
0001
1000
0001
0000
,
0010
0000
0010
0000
1000
0100
1000
0000
,
0001
0000
0001
0000
0100
0010
0100
0000
,
2000
0000
0000
0000
3002
0000
0000
0003
,
1000
0000
0001
0000
1000
0010
0100
0000
,
0001
0000
0001
0000
1000
0010
1000
0000
,
0100
0000
0100
0000
0001
1000
0001
0000
,
0100
0000
0100
0000
1000
0010
1000
0000
,
0001
0000
0101
0000
1000
0010
1000
0000
,
0001
0000
0001
0000
1000
0100
1000
0000
,
0010
0000
0010
0000
0001
0100
0001
0000
,
1000
1000
0001
0001
,
0100
0000
1000
0000
0001
1000
0001
0000
,
0100
0000
0100
0000
0010
1000
0010
0000
,
0100
0000
0100
0000
0001
1000
0001
0000
,
0010
0000
0001
0000
1000
0001
1000
0000
,
0100
0000
1010
0000
0001
0100
0001
0000
,
1000
0001
1000
0000
0010
0100
0010
0000
,
1000
0000
1000
0000
0001
0100
0001
0000
,
0010
1000
0100
0001
,
1000
0010
1000
0000
0001
0100
0100
0000
,
0001
1000
1000
0001
,
1000
0000
1000
0000
0001
0100
0001
0000
,
1000
0000
1000
0000
0010
0100
0001
0000
,
1000
0010
0100
0000
0001
1000
0001
0000
,
0100
0010
1000
0000
0001
0100
0001
0000
,
1000
0010
0100
0000
0001
0010
0100
0000
,
2000
0000
0000
3000
,
0001
1000
0001
1000
,
0001
0000
1000
0000
0001
0000
1000
0010
,
1000
0001
1000
0001
,
1000
0001
0100
1001
,
1001
0100
0010
0100
,
0010
0000
0100
0000
0010
0000
1000
0001
,
1000
0001
1000
0001
,
2000
0000
0000
0000
0000
0000
0000
3000
,
0001
1001
0010
1010
,
0100
0101
0010
1010
,
0001
0101
0010
1010
,
0100
0101
0010
1010
,
1000
0100
1000
0000
0001
0100
0001
0000
,
1000
0000
1000
0000
0001
0100
0001
0000
,
1000
0010
1000
0000
0001
0100
0001
0000
,
1000
1000
0001
0001
,
1000
0010
1000
0000
0100
0000
0110
0000
,
0001
0000
1000
0000
1000
0001
1000
0000
,
0110
0000
1000
0000
0001
0000
0100
0001
,
0100
0000
1010
0000
0001
0100
0001
0000
,
1010
0000
0100
0000
0001
1000
0010
0000
,
0110
0000
1000
0000
0001
0100
0000
0000
,
1010
0000
0001
0000
0100
0010
1000
0000
,
0001
0001
1000
1000
,
0001
0000
0100
0000
0010
1000
0010
0000
,
0100
0000
0100
0000
1000
0000
0100
1000
,
0001
0000
0100
0000
0010
0000
1000
0001
,
1000
0000
0100
0000
0010
0000
1000
0001
,
0100
0000
0010
0000
1000
0001
1000
0000
,
0010
0000
0100
0000
0001
1000
0001
0000
,
0100
0100
0100
0000
0001
0000
1001
0000
,
0010
0010
0010
0000
1000
0000
1001
0000
,
0010
0010
0010
0000
0110
0000
0110
0000
,
1000
1000
1000
0000
0110
0000
0110
0000
,
0001
0001
0001
0000
0110
0000
0110
0000
,
1000
0001
1000
0000
1001
0000
1001
0000
,
0001
1000
0001
0000
1001
0000
1001
0000
,
0010
0100
0010
1000
0001
0000
1001
0000
,
0010
1010
0100
0101
,
0001
0010
0100
1000
0100
0010
0001
0100
,
2002
0000
0000
0000
,
0000
0000
0000
0000
0000
0000
0000
3003
;
