#TITLE:Monster's Belly;
#SUBTITLE:;
#ARTIST:Technikore, JTS & Cotts;
#TITLETRANSLIT:;
#SUBTITLETRANSLIT:;
#ARTISTTRANSLIT:;
#CREDIT:brunobg24;
#BANNER:[Round 4] - Monster's Belly.png;
#BACKGROUND:[Round 4] - Monster's Belly-bg.png;
#JACKET:[Round 4] - Monster's Belly-jacket.png
#LYRICSPATH:;
#CDTITLE:;
#MUSIC:[Round 4] - Monster's Belly.ogg;
#OFFSET:0.000;
#SAMPLESTART:110.128;
#SAMPLELENGTH:11.254;
#SELECTABLE:YES;
#BPMS:0.000=170.000;
#STOPS:;
#BGCHANGES:;

//---------------dance-single - ----------------
#NOTES:
     dance-single:
     :
     Beginner:
     1:
     0.105,0.160,0.000,0.013,0.000: // measure 1
0000
0000
0000
0000
,  // measure 2
0000
0000
0000
0000
,  // measure 3
1000
0000
0000
0000
,  // measure 4
0001
0000
0000
0000
,  // measure 5
1000
0000
0000
0000
,  // measure 6
0001
0000
0000
0000
,  // measure 7
0100
0000
0000
0000
,  // measure 8
0010
0000
0000
0000
,  // measure 9
0100
0000
0000
0000
,  // measure 10
0010
0000
0000
0000
,  // measure 11
1000
0000
0000
0000
,  // measure 12
1000
0000
0000
0000
,  // measure 13
0001
0000
0000
0000
,  // measure 14
0001
0000
0000
0000
,  // measure 15
0100
0000
0000
0000
,  // measure 16
0100
0000
0000
0000
,  // measure 17
0010
0000
0000
0000
,  // measure 18
0010
0000
0000
0000
,  // measure 19
1000
0000
1000
0000
,  // measure 20
0001
0000
0001
0000
,  // measure 21
0100
0000
0100
0000
,  // measure 22
0001
0000
0001
0000
,  // measure 23
1000
0000
1000
0000
,  // measure 24
0100
0000
0100
0000
,  // measure 25
1000
0000
1000
0000
,  // measure 26
0001
0000
0000
0000
,  // measure 27
1000
0000
0000
0000
,  // measure 28
0001
0000
0000
0000
,  // measure 29
1000
0000
0000
0000
,  // measure 30
0001
0000
0000
0000
,  // measure 31
0100
0000
0000
0000
,  // measure 32
0010
0000
0000
0000
,  // measure 33
0100
0000
0000
0000
,  // measure 34
0001
0000
0000
0000
,  // measure 35
1000
0000
0000
0000
,  // measure 36
0010
0000
0000
0000
,  // measure 37
1000
0000
0000
0000
,  // measure 38
0100
0000
0000
0000
,  // measure 39
0010
0000
0000
0000
,  // measure 40
0001
0000
0000
0000
,  // measure 41
1000
0000
0000
0000
,  // measure 42
0000
0000
0000
0000
,  // measure 43
0001
0000
0000
0000
,  // measure 44
0001
0000
0000
0000
,  // measure 45
1000
0000
0000
0000
,  // measure 46
1000
0000
0000
0000
,  // measure 47
0010
0000
0000
0000
,  // measure 48
0010
0000
0000
0000
,  // measure 49
0100
0000
0000
0000
,  // measure 50
0100
0000
0000
0000
,  // measure 51
0001
0000
0000
0000
,  // measure 52
0000
0000
0000
0000
,  // measure 53
1000
0000
0000
0000
,  // measure 54
0000
0000
0000
0000
,  // measure 55
0010
0000
0000
0000
,  // measure 56
0000
0000
0000
0000
,  // measure 57
0100
0000
0000
0000
,  // measure 58
0000
0000
0000
0000
,  // measure 59
0001
0000
0001
0000
,  // measure 60
1000
0000
1000
0000
,  // measure 61
0010
0000
0010
0000
,  // measure 62
0100
0000
0100
0000
,  // measure 63
0001
0000
0001
0000
,  // measure 64
1000
0000
1000
0000
,  // measure 65
0001
0000
0001
0000
,  // measure 66
0100
0000
0100
0000
,  // measure 67
0001
0000
1000
0000
,  // measure 68
0001
0000
1000
0000
,  // measure 69
0010
0000
0100
0000
,  // measure 70
0010
0000
0100
0000
,  // measure 71
0001
0000
1000
0000
,  // measure 72
0001
0000
0100
0000
,  // measure 73
0001
0000
1000
0000
,  // measure 74
0010
0000
1000
0000
,  // measure 75
0002
0000
0000
0000
,  // measure 76
0000
0000
0000
0000
,  // measure 77
0000
0000
0000
0000
,  // measure 78
0000
0000
0000
0003
,  // measure 79
1000
0000
0000
0000
,  // measure 80
0001
0000
0000
0000
,  // measure 81
1000
0000
0000
0000
,  // measure 82
0010
0000
0000
0000
,  // measure 83
0100
0000
0000
0000
,  // measure 84
0001
0000
0000
0000
,  // measure 85
0010
0000
0000
0000
,  // measure 86
0100
0000
0000
0000
,  // measure 87
1000
0000
0000
0000
,  // measure 88
0001
0000
0000
0000
,  // measure 89
1000
0000
0000
0000
,  // measure 90
0010
0000
0000
0000
,  // measure 91
1000
0000
0000
0000
,  // measure 92
0100
0000
0000
0000
,  // measure 93
0010
0000
0000
0000
,  // measure 94
0001
0000
0000
0000
,  // measure 95
2000
0000
0000
0000
,  // measure 96
0000
0000
0000
0000
,  // measure 97
3000
0000
0000
0000
;

//---------------dance-single - ----------------
#NOTES:
     dance-single:
     :
     Hard:
     10:
     0.651,0.738,0.147,0.033,0.535:
0000
0000
0000
0000
,
0000
0000
0000
1001
,
1000
0000
0001
0000
1000
0000
0001
0100
,
0010
0000
0100
0000
0010
0000
0100
0001
,
1000
0000
0001
0000
1000
0000
0001
0010
,
0100
0000
0010
0000
0100
0010
0001
1000
,
0001
1000
0100
0000
0100
0010
0001
0000
,
1000
0010
0100
0000
0100
0001
0010
0000
,
0001
1000
0001
1000
0001
1000
0001
1000
0010
0100
0010
0100
0010
0100
0010
0100
,
0020
0000
0000
1030
,
0001
0000
1000
0010
0000
0000
0010
0000
0100
0000
0001
1000
0000
0000
1000
0000
,
0100
0000
0010
0001
0000
0000
0001
0000
0100
0000
0010
0100
0010
0000
0000
0000
,
1000
0000
0100
1000
0000
0000
1000
0000
0001
0000
0100
0010
0000
0000
0010
0000
,
0100
0000
0010
1000
0000
0000
1000
0000
0010
0000
0100
0001
0100
0001
1000
0010
,
1000
0000
0001
0100
0000
0000
0100
0000
0010
0000
1000
0100
0000
0000
0100
0000
,
1000
0000
0001
0010
0000
0000
0010
0000
0100
0000
0010
0001
0010
0000
0000
0000
,
0100
0000
1000
0010
0000
0000
0010
0000
0100
0000
0001
1000
0000
0000
1000
0000
,
0001
0000
0000
0000
0000
0000
1000
1000
,
1000
0000
1000
0010
0100
0000
0100
1000
,
0100
0000
0001
1000
0010
0000
0010
0100
,
0001
0000
1000
0100
0001
0000
0001
0100
,
1000
0000
0010
1000
0001
0000
0001
1000
,
0010
0000
1000
0000
0001
0000
0100
0000
0001
0000
0010
0000
0100
1000
0100
0000
,
0010
0000
0001
0000
1000
0000
0010
0000
0100
0000
0001
0000
1000
0001
1000
0000
,
0001
0100
0001
0100
0010
1000
0010
1000
0001
0010
0001
0010
0100
1000
0100
1000
,
0020
0000
0000
1030
,
0001
0000
0100
0000
0010
0000
0000
0010
0100
0000
1000
0000
0100
0000
0001
0000
,
1000
0000
0100
0000
0010
0000
0000
0010
0001
0000
0100
0000
0010
0000
0000
0000
,
1000
0000
0100
0000
0001
0000
0000
0001
0100
0000
1000
0000
0010
0000
0100
0000
,
0001
0000
1000
0000
0010
0000
0000
0010
0100
0000
0001
0000
0010
0000
0100
0000
,
1000
0000
0010
0000
0100
0000
0000
0100
0001
0000
0010
0000
0100
0000
1000
0000
,
0010
0000
0100
0000
0001
0000
0000
0001
1000
0000
0010
0000
1000
0000
0000
0000
,
0001
0000
0010
0000
1000
0000
0000
1000
0010
0000
0001
0000
0100
0000
0010
0000
,
1000
0000
0001
0000
1000
0001
1000
0001
1000
0000
0001
0010
0001
0100
0001
0100
,
0010
0000
1000
0000
0001
0000
0000
0001
0010
0000
0100
0000
1000
0000
0010
0000
,
0100
0000
0001
0000
1000
0000
0000
1000
0001
0000
0100
0000
0010
0000
0000
0000
,
1000
0000
0100
0000
0010
0000
0000
0010
0100
0000
1000
0000
0001
0000
0010
0000
,
0001
0000
0100
0000
0010
0000
0000
0010
0100
0000
0001
0000
1000
0000
0010
0000
,
0100
0000
0000
0001
0100
0010
0100
0001
0100
0000
0000
0010
1000
0010
0100
0000
,
0010
0000
0000
1000
0001
0100
0001
1000
0001
0000
0000
0100
0001
0100
0010
0000
,
1000
0100
1000
0100
0010
0001
0010
0001
1000
0010
1000
0010
0100
0001
0100
0001
,
0000
0000
0000
1001
,
1000
0000
1000
0000
1000
0000
1000
0001
,
0100
0000
0000
0000
0100
0000
0000
0000
0100
0000
0000
0000
0100
0000
0001
0010
,
0001
0000
0001
0000
0001
0000
0001
1000
,
0010
0000
0000
0000
0010
0000
0000
0000
0010
0000
0000
0000
0010
0000
1000
0100
,
1000
0010
1000
0010
0100
0001
0010
0100
,
1000
0000
0100
0000
1000
0000
0100
0000
0010
0000
0001
0000
0100
0000
0010
1000
,
0010
1000
0010
1000
0010
1000
0010
1000
0001
0100
0001
0100
0001
0100
0001
0100
,
0010
0000
0000
0000
,
1000
0000
0000
0001
0000
0000
1000
0000
0010
1000
0000
0001
0000
0100
0001
0100
,
0010
0000
0000
1000
0000
0000
0010
0000
0100
0000
0001
0000
0100
0010
0100
0010
,
0100
0000
0000
0001
0000
0000
1000
0000
0000
0010
1000
0010
1000
0000
0100
0000
,
0010
0000
0000
0001
0000
0000
1000
0000
0100
1000
0000
0001
0000
0100
0001
0100
,
0010
0000
0000
1000
0000
0000
0001
0000
0010
0100
0000
0010
0000
0001
1000
0001
,
1000
0000
0000
0100
0000
0000
0010
0000
0001
0000
0100
0000
0010
1000
0010
1000
,
0010
0000
0000
1000
0000
0000
0010
0000
0000
0100
0001
0100
0010
0000
1000
0000
,
0100
0000
0000
0010
0000
0000
0001
0000
1000
0010
0000
0100
0000
0001
0010
0001
,
0010
0100
1000
0001
,
1000
0000
0000
0000
0010
0000
0000
0000
0100
0000
0000
0000
0001
0000
1000
0001
,
1000
0010
0100
0001
,
1000
0000
0001
0100
0001
0000
1000
0010
1000
0000
0001
0010
0001
0000
1000
0100
,
1000
0100
0010
0001
,
1000
0000
0000
0000
0010
0000
0000
0000
0100
0000
0000
0000
0001
0000
1000
0001
,
1000
0001
0010
0100
,
1000
0000
0001
0010
0001
0000
1000
0010
1000
0000
0001
0100
0001
0000
1000
0100
,
1000
1100
0101
0011
,
1010
0000
0000
1100
0000
0000
1000
0100
0010
0001
0100
0010
,
1000
0011
0101
1100
,
1010
0000
0000
0011
0000
0000
0001
0010
0100
1000
0010
0100
,
0001
0101
1100
0101
,
1000
1100
0101
1100
,
0001
0011
0101
1010
,
1000
0100
0010
0000
,
0002
0000
0000
0000
,
0000
0000
0000
0000
,
0000
0000
0000
0000
,
0000
0000
0000
1003
,
0001
0000
0100
0000
0010
0000
0000
0000
1000
0000
0010
1000
0000
0000
0001
0000
,
0100
0000
0010
0000
0000
0000
0010
0000
1000
0000
0001
0100
0000
0001
1000
0000
,
0010
0000
0100
0000
0001
0000
0000
0000
1000
0010
0000
0010
0100
0000
0001
0000
,
0010
0000
0100
0000
0000
0000
1000
0000
0001
0000
0010
0100
0000
0010
0001
0000
,
1000
0000
0100
0000
1000
0000
0000
0000
0001
0000
0100
0010
0000
0000
1000
0000
,
0001
0000
0100
0000
0000
0000
0100
0000
0001
0000
1000
0010
0000
1000
0001
0000
,
0100
0000
0001
0000
0010
0000
0000
0000
0100
1000
0000
1000
0001
0000
0010
0000
,
0001
0000
1000
0000
0000
0000
0001
0000
0100
0000
0010
1000
0000
0100
1000
0000
,
0001
0000
0100
0000
0010
0000
0000
0000
1000
0000
0100
0010
0000
0000
0100
0000
,
1000
0000
0001
0000
0000
0000
0001
0000
0100
0000
0010
1000
0000
0001
1000
0000
,
0100
0000
0010
0000
0100
0000
0000
0000
1000
0000
0001
0010
0000
0000
0100
0000
,
0010
0000
0100
0000
0000
0000
0100
0000
1000
0000
0010
0100
0000
0010
0001
0000
,
0010
0000
1000
0000
0001
0000
0000
0000
0010
0000
0001
0100
0000
0000
1000
0000
,
0100
0000
0001
0000
0000
0000
1000
0000
0010
0000
0100
0001
0000
0100
0010
0000
,
1000
0100
1000
0100
0010
0001
0010
0001
1000
0010
1000
0010
0100
0001
0100
0001
,
0010
0000
0000
0000
,
2002
0000
0000
0000
,
0000
0000
0000
0000
,
3003
0000
0000
0000
;

//---------------dance-single - ----------------
#NOTES:
     dance-single:
     :
     Medium:
     8:
     0.490,0.545,0.234,0.027,0.150:
0000
0000
0000
0000
,
0000
0000
0000
0000
,
1000
0000
0001
0000
1000
0000
0001
0001
,
0100
0000
0010
0000
0100
0000
0010
0010
,
1000
0000
0010
0000
1000
0000
0010
0010
,
0100
0000
0001
0000
0100
0000
0001
0001
,
1000
0100
1000
0000
0001
0010
0001
0000
,
1000
0010
1000
0000
0001
0100
0001
0000
,
1000
0001
1000
0001
1000
0100
0010
0001
,
0100
0000
0000
1001
,
1000
0000
0000
1000
0000
0000
0001
0000
0010
0000
0000
0010
0000
0000
0010
0000
,
0100
0000
0000
0100
0000
0000
0010
0000
0001
0000
1000
0000
0001
0000
0000
0000
,
1000
0000
0000
1000
0000
0000
0001
0000
0100
0000
0000
0100
0000
0000
0010
0000
,
1000
0000
0000
1000
0000
0000
0100
0000
0010
0000
0001
0000
0100
0000
0000
0000
,
0001
0000
0000
0001
0000
0000
0100
0000
0010
0000
0000
0010
0000
0000
1000
0000
,
0100
0000
0000
0100
0000
0000
0010
0000
0001
0000
1000
0000
0010
0000
0000
0000
,
1000
0000
0000
1000
0000
0000
0100
0000
0010
0000
0000
0010
0000
0000
0001
0000
,
0200
0000
0000
0000
0000
0000
0010
0310
,
1000
0000
0001
0010
0001
0000
1000
0010
,
1000
0000
0001
0010
0001
0000
1000
0010
,
1000
0000
0001
0100
0001
0000
1000
0100
,
1000
0000
0001
0100
0001
0000
1000
0100
,
1000
0000
0001
0010
0001
0010
0100
1000
,
0001
0000
1000
0010
1000
0010
0100
0001
,
1000
0100
1000
0100
0010
0001
0010
0001
,
0100
0000
0000
1001
,
1000
0000
1100
0000
0001
0010
0100
0010
,
0001
0000
1001
0000
0100
0010
0100
0000
,
0010
0000
0110
0000
1000
0010
1000
0001
,
0100
0000
0110
0000
0001
0010
0100
1000
,
0010
0000
0110
0000
1000
0010
0100
0001
,
1000
0000
1100
0000
0001
0100
0010
0000
,
1000
0000
0101
0000
0010
1000
0010
0100
,
0001
0000
1000
0001
1000
0010
0100
0010
,
0100
0000
0000
0000
0101
0000
0000
0001
0000
0000
0010
0000
0100
0000
1000
0000
,
0010
0000
0000
0000
1010
0000
0000
1000
0000
0000
0100
0000
0010
0000
0000
0000
,
0100
0000
0000
0000
1100
0000
0000
1000
0000
0000
0010
0000
0100
0000
0001
0000
,
0010
0000
0000
0000
0110
0000
0000
0100
0000
0000
1000
0000
0001
0000
0100
0000
,
0010
0000
1000
0001
1000
0000
0001
1000
,
0001
0000
1000
0010
1000
0000
0001
0010
,
0001
0100
0001
0100
0010
1000
0010
1000
,
0000
0000
0000
1001
,
0001
0000
0100
0000
0010
0000
1000
0100
,
1000
0000
0010
0000
0100
0000
0001
0010
,
0001
0000
0010
0000
0100
0000
1000
0010
,
1000
0000
0100
0000
0010
0000
0001
0100
,
0001
0010
0001
0010
0100
1000
0100
1000
,
0001
0100
0001
0100
0010
1000
0010
1000
,
0001
0010
0100
1000
0001
0100
0010
1000
,
0001
0000
0000
0000
,
1000
0000
0000
0010
0000
0000
1000
0000
0100
0000
0000
1000
0000
0000
0001
0000
,
0100
0000
0000
0010
0000
0000
0010
0000
1000
0000
0001
0000
0100
0000
0001
0000
,
0010
0000
0000
0100
0000
0000
1000
0000
0000
0001
0000
0000
0100
0000
0010
0000
,
1000
0000
0000
0100
0000
0000
0010
0000
0001
0000
1000
0000
0001
0000
0100
0000
,
0001
0000
0000
0010
0000
0000
0100
0000
1000
0000
0000
0010
0000
0000
0100
0000
,
0001
0000
0000
1000
0000
0000
0001
0000
0100
0000
0001
0000
0010
0000
0100
0000
,
1000
0000
0000
0010
0000
0000
0100
0000
0000
0000
0010
0000
1000
0000
0010
0000
,
0100
0000
0000
0001
0000
0000
0010
0000
0100
0000
1000
0000
0001
0000
1000
0000
,
0001
0000
0001
0000
0001
0000
0001
1000
,
0010
0000
0010
0000
0010
0000
0010
0010
,
1000
0000
1000
0000
1000
0000
1000
0001
,
0100
0110
1001
0110
,
1000
0000
1000
0000
1000
0000
1000
0001
,
0100
0000
0100
0000
0100
0000
0100
0100
,
0001
0000
0001
0000
0001
0000
0001
1000
,
0010
0110
1001
0110
,
1000
0001
0011
1100
,
0001
0000
0000
1000
0000
0000
0001
0000
0001
1000
0000
1000
,
0010
0100
0110
1001
,
1000
0000
0000
0001
0000
0000
1000
0000
1000
0010
0000
0010
,
0100
0101
0011
1001
,
0001
0101
0110
1010
,
1000
1001
0110
1001
,
0001
0010
0100
0000
,
2000
0000
0000
0000
,
0000
0000
0000
0000
,
0000
0000
0000
0000
,
0000
0000
0000
3001
,
1000
0000
0000
0000
0001
0000
0000
0000
0100
0000
0000
0010
0000
0000
1000
0000
,
0000
0000
0001
0000
0000
0000
1000
0000
0010
0000
0000
0100
0000
0000
0001
0000
,
0010
0000
0000
0000
0100
0000
0000
0000
1000
0000
0000
0010
0000
0000
0100
0000
,
0000
0000
0010
0000
0000
0000
1000
0000
0010
0000
0000
0100
0000
0000
0001
0000
,
0010
0000
0000
0000
0001
0000
0000
0000
1000
0000
0000
0100
0000
0000
0001
0000
,
0000
0000
0100
0000
0000
0000
1000
0000
0010
0000
0000
0100
0000
0000
0001
0000
,
0010
0000
0000
0000
0100
0000
0000
0000
1000
0000
0000
0001
0000
0000
1000
0000
,
0000
0000
0010
0000
0000
0000
0100
0000
0001
0000
0000
0010
0000
0000
0001
0000
,
1000
0000
0000
0000
0100
0000
0000
0000
0010
0000
0000
0100
0000
0000
1000
0000
,
0000
0000
0001
0000
0000
0000
0100
0000
0010
0000
0000
0100
0000
0000
0001
0000
,
0010
0000
0000
0000
0100
0000
0000
0000
1000
0000
0000
0010
0000
0000
0100
0000
,
0000
0000
0001
0000
0000
0000
0010
0000
0100
0000
0000
0010
0000
0000
0001
0000
,
1000
0000
0000
0000
0010
0000
0000
0000
0100
0000
0000
0010
0000
0000
1000
0000
,
0000
0000
0001
0000
0000
0000
0100
0000
0010
0000
0000
0100
0000
0000
0001
0000
,
1000
0000
0000
0000
0010
0000
0000
0000
0100
0000
0000
0010
0000
0000
0000
0000
,
1001
0000
0000
0000
,
2002
0000
0000
0000
,
0000
0000
0000
0000
,
3003
0000
0000
0000
;

//---------------dance-single - ----------------
#NOTES:
     dance-single:
     :
     Easy:
     5:
     0.287,0.353,0.020,0.060,0.000:
0000
0000
0000
0000
,
0000
0000
0000
0000
,
1000
0001
1000
0001
,
1000
0010
1000
0010
,
0100
0010
0100
0010
,
0100
0001
0100
0001
,
1000
1000
0001
0001
,
0100
0100
0010
0010
,
1000
0100
0010
0001
,
0100
0000
0000
0001
,
1000
0000
0010
0000
,
1000
0000
0100
1000
,
0001
0000
0100
0000
,
0001
0000
0010
0100
,
1000
0000
0001
0000
,
0100
0000
0010
1000
,
0010
0000
1000
0000
,
0002
0000
0000
0000
0000
0000
1003
1000
,
0001
0000
1000
0000
,
0001
0000
1000
0000
,
0010
0000
0100
0000
,
0010
0000
0100
0000
,
0001
0010
0100
1000
,
0001
0100
0010
1000
,
0001
1000
0001
1000
,
0010
0000
0000
1000
,
0001
0010
0001
0100
,
0010
1000
0100
1000
,
0001
1000
0010
1000
,
0100
0010
0001
1000
,
0010
1000
0100
1000
,
0010
0100
0001
0010
,
0001
1000
0001
1000
,
0001
2000
3010
0100
,
0010
1000
0100
0010
,
0001
1000
0001
0100
,
0010
1000
0100
1000
,
0001
0010
0100
1000
,
0001
0000
1001
0000
,
1000
0000
1001
0000
,
0001
0001
1000
1000
,
0000
0000
0000
0001
,
1000
0000
0001
0000
,
1000
0000
0010
0000
,
0100
0000
0001
0000
,
0100
0000
0010
0000
,
1000
0000
0001
0000
,
0010
0000
0100
0000
,
1000
0001
1000
0001
,
0100
0000
0000
0000
,
0010
0000
0010
0000
,
1000
0000
1000
0000
,
0001
0000
0001
0000
,
0100
0000
0100
0000
,
0010
0000
0010
0000
,
1000
0000
1000
0000
,
0001
0000
0001
0000
,
0010
0000
0010
0000
,
0001
1000
0001
1000
,
0001
1000
0001
1000
,
0010
0100
0010
0100
,
0010
0100
0010
0100
,
0001
1000
0001
1000
,
0001
1000
0001
1000
,
0010
0100
0010
0100
,
0010
0100
0010
0100
,
0001
0001
1000
1000
,
0010
0010
0200
0302
,
1003
1000
0010
0010
,
0100
0100
0002
0023
,
0130
0100
1000
1000
,
0001
0001
1000
1000
,
0100
0100
0010
0001
,
1000
0010
0100
0000
,
0002
0000
0000
0000
,
0000
0000
0000
0000
,
0000
0000
0000
0000
,
0000
0000
0000
1003
,
1000
0010
1000
0010
,
0100
0001
0100
0001
,
1000
0100
1000
0100
,
0010
0001
0010
0001
,
0100
0001
0100
0010
,
1000
0010
0100
0001
,
1000
0100
0010
0100
,
1000
0001
0100
0010
,
0100
0001
0010
0100
,
1000
0010
0100
0001
,
1000
0100
1000
0001
,
0100
0001
0010
0001
,
0100
0010
1000
0100
,
1000
0001
1000
0010
,
0100
0001
0010
0100
,
1000
0000
0000
0000
,
2002
0000
0000
0000
,
0000
0000
0000
0000
,
3003
0000
0000
0000
;
