#TITLE:Love Me in the Heat of the Night;
#SUBTITLE:;
#ARTIST:Time Force;
#TITLETRANSLIT:;
#SUBTITLETRANSLIT:;
#ARTISTTRANSLIT:;
#GENRE:SUPER EUROBEAT;
#CREDIT:;
#BANNER:eurobeatlol-bn.png;
#BACKGROUND:eurobeatlol-bg.png;
#LYRICSPATH:;
#CDTITLE:loodeecdtitle.png;
#MUSIC:Love Me in the Heat of the Night.ogg;
#OFFSET:-0.001;
#SAMPLESTART:63.600;
#SAMPLELENGTH:12.400;
#SELECTABLE:YES;
#DISPLAYBPM:158.000;
#BPMS:0.000=158.020,198.000=237.030,198.375=79.010,198.500=237.030,198.875=79.010,199.000=237.030,199.375=79.010,199.500=158.020;
#STOPS:60.000=0.759
,258.000=0.379
,259.000=0.380
;
#BGCHANGES:;
#KEYSOUNDS:;

//---------------dance-single - Loodee----------------
#NOTES:
     dance-single:
     Loodee:
     Medium:
     7:
     0.610,0.604,0.173,0.842,0.070:
0000
0000
0000
0000
,
0000
0000
0000
0000
,
0000
0000
0000
0000
,
0000
0000
0000
0000
,
2000
0000
0000
3200
0000
0000
0320
0000
,
0230
0000
0000
2300
0000
0000
3002
0000
,
0203
0000
0000
0320
0000
0000
2030
0000
,
3001
0010
0100
0100
1000
1000
0001
1000
,
0200
0310
0000
0001
0000
1000
0000
0010
,
0000
0100
0000
0001
0000
0100
0000
0010
,
2000
3100
0000
0010
0000
0100
0000
2000
,
0000
0000
3100
0000
1000
0001
1000
0001
,
0200
0310
0000
1000
0000
0001
0000
0010
,
0002
0000
0013
0100
0000
2000
0000
0000
,
3002
0000
0000
0000
0103
0100
0000
0000
,
0000
0000
0000
0000
,
0001
0010
0100
2002
0000
3003
1001
0000
,
0101
0000
0000
0000
2000
3200
0310
0001
,
1000
0001
2000
0000
0000
0000
3100
0000
0000
0000
0010
0000
0001
0000
0100
0000
,
0010
0000
1000
0000
0000
1000
0000
0000
0001
0000
0000
0002
0000
0003
0010
0000
,
0100
0000
1000
0000
0200
0000
0000
0300
1000
0000
0001
1000
0001
0000
0000
0100
,
0000
0001
0020
0000
0230
0000
1300
0000
,
0001
0100
0002
0000
0000
0000
0013
0000
0000
0000
0100
0000
1000
0000
0010
0000
,
0100
0000
0010
0000
0000
0100
0000
0000
0010
0000
0000
2000
0000
3000
0100
0000
,
0100
2000
0000
3001
2002
0000
0000
3003
,
0012
0000
1003
0000
0010
0100
0001
1000
,
0010
1000
0001
0000
0010
0100
0010
0100
,
1000
0100
0010
0000
0001
0100
0010
1000
,
0010
0100
0001
0000
1000
0100
0010
0001
,
0010
0100
1000
0100
1000
0001
1000
0010
,
1000
0001
0100
0000
0001
0010
0100
1000
,
0100
0010
0001
1000
0001
1000
0001
1000
,
0010
0100
0010
0100
0001
0001
0010
0100
,
1000
1000
1000
0002
0000
0000
0103
0010
,
0100
0001
1000
0001
1000
0100
0010
0100
,
0010
0001
0100
0010
1000
0001
0100
0001
,
1000
0001
0010
0200
0000
0000
2300
0000
,
3020
0230
0000
0000
0302
0000
1003
0001
,
0010
0001
1000
0001
1000
0010
0100
0001
,
1000
0010
0100
0001
0020
0000
0000
0000
,
0230
0000
1300
0000
0100
0100
0200
0000
,
0300
1000
1000
0000
0001
0010
0100
0010
,
0001
0010
0100
0220
0000
0000
0330
0000
,
1000
0010
0100
0020
0000
0032
0000
0023
,
0000
0130
0010
1000
0001
0001
0020
0000
,
0130
0100
2000
0000
3001
0100
0010
1000
,
0010
0100
0001
0202
0000
0000
0303
0000
,
1000
0010
0100
0002
0000
0023
0000
0230
,
0000
0000
1300
0000
0100
0000
0000
0000
2002
0000
0000
0000
0000
0000
0000
3003
,
0202
0000
0000
0303
0001
1000
0001
1000
,
0100
0000
0000
2000
0000
0000
3010
0000
0000
0000
0100
0000
0001
0000
0100
0000
,
0010
0000
1000
0000
0000
0100
0000
0000
0010
0000
0000
0002
0000
0000
0103
0000
,
0100
0000
0010
0000
0200
0000
0000
0000
0301
0000
0000
0001
0000
0000
0100
0000
,
0000
0000
0010
0000
2000
0000
0000
0000
3002
0000
0000
0003
0002
0000
0000
0003
,
0010
0000
0000
0200
0000
0000
1300
0000
0000
0000
0010
0000
0100
0000
0010
0000
,
0100
0000
0001
0000
0000
0010
0000
0000
0100
0000
1000
0000
0100
0000
1000
0000
,
0100
0000
0020
0000
0000
0000
0130
0000
1001
0000
0000
0001
0000
0000
0100
0000
,
0000
0000
0020
0000
0000
0030
0000
0000
0110
0000
0000
0000
0001
0000
0000
0000
,
1000
0000
0100
0000
1000
0100
1000
0100
,
0020
0032
0023
0032
0003
0200
0300
0020
,
0030
2000
0000
3100
1000
0001
0001
0000
,
0100
0010
2000
3001
,
0020
0000
0031
0000
0100
0010
0100
0010
,
2000
3002
2003
3200
0300
0020
0030
0002
,
0003
2000
3010
0000
1001
0000
0110
0000
,
1001
0000
1000
0100
1000
0100
0010
0220
,
0000
0000
0330
0000
0001
0100
0010
0200
,
0000
0302
0000
0203
0000
0310
0100
0001
,
1000
1000
0200
0000
0310
0010
0002
0000
,
1003
0010
0100
0001
0100
0001
1000
2002
,
0000
0000
3003
0000
0001
0010
0100
2000
,
0000
3200
0000
2300
0000
3001
0010
0000
,
0022
0000
0000
0000
0000
0000
0000
0033
0220
0000
0000
0000
0000
0000
0000
0000
,
0330
0000
0000
0000
0001
0010
0100
2200
,
0000
3300
1100
0000
0101
0000
0000
0000
,
0002
0000
2003
0000
3000
0000
0000
0000
0010
0000
0000
0200
0000
0000
0301
0000
,
0000
0000
1000
0000
0100
0000
0010
0000
0001
0000
0010
0000
0000
0100
0000
0000
,
1000
0000
0000
0000
;

//---------------dance-single - Loodee----------------
#NOTES:
     dance-single:
     Loodee:
     Easy:
     4:
     0.369,0.385,0.231,0.371,0.008:
0000
0000
0000
0000
,
0000
0000
0000
0000
,
0000
0000
0000
0000
,
0000
0000
0000
0000
,
0002
0000
0000
0023
0000
0000
0000
0000
,
0032
0000
0000
2003
0000
0000
0000
0000
,
3020
0000
0000
0230
0000
0000
0000
0000
,
0302
0000
0000
0023
0000
0000
0000
0000
,
0130
1000
0000
0002
0000
0000
0000
0000
,
0203
0000
0000
0000
,
0320
0000
0000
0000
,
2030
0000
0000
0000
,
3002
0000
0000
0000
,
0023
0000
0000
0000
,
0230
0000
0000
0000
,
0300
0000
0000
0000
,
1000
0000
0000
1001
0000
0000
0110
0000
,
0110
0000
0002
1003
,
0100
0010
0100
1000
,
0010
1000
0001
0001
,
0010
0000
0000
0000
0020
0000
0000
0000
0130
0000
0000
0000
0100
0000
0000
1000
,
0000
0002
0203
0310
,
1000
0001
1000
0100
,
0010
0001
0100
0000
,
0010
0000
1001
0000
,
1001
0001
0100
0010
,
1000
0100
0010
0100
,
0010
0001
1000
0001
,
1000
0010
0100
0001
,
1000
0100
0010
0001
,
1000
0001
0100
0001
,
0100
0001
0020
0100
,
0100
0130
1000
1000
,
1000
0001
1000
0002
0000
0003
0100
0000
,
0001
0100
0001
0010
,
0001
0010
0100
1000
,
0100
1000
0010
1000
,
0010
0100
0002
1003
,
0001
1000
0100
0010
,
0001
0010
0200
0010
,
0310
0000
0001
0000
1000
0100
2000
0000
,
3000
0000
0101
0001
,
1001
1000
0110
0001
,
1000
0000
0000
0100
0000
0010
0000
0001
,
0000
0100
0010
0010
,
1000
1000
1001
0100
,
1001
0001
0011
0010
,
0100
0000
0000
1000
0000
0010
0000
0100
,
0000
0000
0001
0000
0202
0000
0000
0303
,
1010
0000
0000
0000
1000
0001
1000
0001
,
0000
0000
0001
1000
,
0010
1000
0001
0001
,
0010
0000
0000
0000
0020
0000
0000
0000
0031
0000
0000
0000
0001
0000
0000
1000
,
0000
0020
2030
0100
,
3100
0010
0001
0100
,
0010
1000
0010
0010
,
0010
0000
0011
0000
,
1100
0001
1000
1000
,
0001
0001
0100
0100
,
0002
0023
0032
2003
,
3020
0230
0301
0001
,
1000
1000
0002
0003
,
0200
0300
0000
0000
0020
0000
0030
0000
,
2000
3200
0310
0000
,
0000
0000
1001
0110
,
1001
1000
1100
0100
,
0110
0000
0001
0000
0001
0000
0000
0010
,
0000
0100
0000
1000
0000
0000
0010
0000
,
0100
0100
0001
0001
,
1001
0010
1100
1000
,
1001
0000
1000
0000
0001
0000
0000
0001
,
0000
0100
0000
0010
0000
0000
1000
0000
,
2020
0000
0000
3030
0022
0000
0000
0033
,
0000
0000
0000
0000
0100
0000
0000
1001
,
0000
0101
0101
0000
,
0002
1003
0100
1000
,
0100
0010
0001
0100
,
0010
1000
0010
1000
;

//---------------dance-single - Loodee----------------
#NOTES:
     dance-single:
     Loodee:
     Hard:
     10:
     0.891,0.878,0.388,0.867,0.487:
0000
0000
0000
0000
,
0000
0000
0000
0000
,
0000
0000
0000
0000
,
0000
0000
0000
0000
,
2000
0000
0000
3020
0000
0000
2030
0000
,
3200
0000
0000
0320
0000
0000
0032
0000
,
0203
0000
0000
0302
0000
0000
0023
0000
,
0230
0000
1300
0001
0010
0000
0010
0000
0100
0000
0100
0000
1000
0000
1000
0000
,
0002
0103
0010
0100
0001
0010
0100
1000
,
0100
1000
0001
1000
0001
0010
0100
0010
,
0002
0103
0010
1000
0010
0100
0001
1000
,
0100
0010
0100
1000
0001
0100
0010
0010
,
2000
3100
0010
0001
1000
0001
0010
0100
,
0010
0001
0100
0010
1000
0001
0100
0001
,
0020
0130
1000
0100
1000
1000
0001
0100
,
MMMM
0000
0000
0000
0000
0002
0000
0003
0000
000M
0000
0000
0000
0000
0000
0000
,
0011
0000
0000
0000
0000
0000
0000
0000
0110
0000
0000
0000
0000
0000
0000
0000
1100
0000
0000
0000
0000
0000
0000
0000
2002
0000
0000
0000
0000
0000
0000
0000
0000
0000
0000
0000
0000
0000
0000
0000
0000
0000
0000
0000
0000
0000
0000
3003
2020
0000
0000
0000
0000
0000
0000
0000
0000
0000
0000
0000
0000
0000
0000
3030
,
0022
0000
0000
0000
0000
0033
0000
0000
0002
0000
0203
0000
0310
0000
1000
0000
,
0100
0010
0001
0020
0000
0030
0100
0000
0000
0000
1000
0010
0100
0010
1000
0001
,
0010
0100
1000
0010
0000
0010
0100
0000
0001
0010
0100
0020
0000
0000
0031
1000
,
0010
0100
0001
0000
0020
0000
0000
0030
0002
0000
1003
0100
1000
0000
0010
0100
,
0000
0010
0100
0000
2000
0000
0000
3000
0200
0000
0000
0000
0301
0000
1000
0000
,
0100
0010
0001
0020
0000
0030
0001
0000
0000
0000
1000
0100
0010
0100
0010
0001
,
0100
0010
1000
0010
0000
0010
0100
0000
0001
0010
0100
0020
0000
0000
0031
0010
,
0100
1000
0020
0000
0000
0030
0100
0000
0101
0000
0001
1000
0001
0000
0010
0100
,
0000
0010
0002
0000
1000
0000
0000
0003
0100
0000
0010
0000
1000
0000
0010
0000
,
0100
0010
1000
0001
1000
0100
1000
0001
,
1000
0100
1000
0001
0010
0100
0010
0001
,
0100
0001
0010
0100
1000
0010
0100
1000
,
0100
0001
0010
0100
0010
0001
0100
0001
,
0010
0001
0100
0001
1000
0100
0010
0100
,
1000
0100
0010
0001
0100
0010
0001
0010
,
0100
0000
1000
0000
0100
0000
0010
0000
0100
0000
0001
1000
0100
0000
0010
0000
,
0011
0000
1001
0000
0101
0000
2020
0000
0000
0000
0000
3030
1000
0000
0100
0000
,
0010
0001
0100
0000
0001
0000
1000
0000
0100
0000
0010
0000
0100
0000
0010
0000
,
0001
1000
0001
1000
0010
0100
0001
1000
,
0100
0010
0100
0010
0001
0100
0010
1000
,
0100
1000
0010
0100
0002
0000
1003
0010
,
0100
0001
1000
0100
0010
0001
0100
0001
,
1000
0000
0001
0000
0100
0000
0001
0010
0100
0000
0001
0000
0100
0000
1000
0000
,
0010
0001
0010
1000
1010
0110
2002
0000
,
3003
0000
0001
0010
0001
0000
0000
0000
1000
0100
0010
0000
0001
0000
1000
0000
,
0010
0100
0010
0000
0100
0000
0001
0000
0101
0000
0010
0000
1001
0000
1000
0000
,
0200
0000
0320
0000
0032
0000
2003
0000
3010
1000
0010
0000
1000
0100
1000
0000
,
0001
0010
0100
0000
0010
0001
1000
0000
0200
0000
2300
0000
3002
0000
1003
0000
,
0020
0000
0032
0000
0023
0000
0130
0000
0001
0010
0100
0000
0010
0000
0001
0000
,
1000
0010
0100
0000
0001
0000
1000
0000
1100
0000
0001
0000
0101
0000
0200
0000
,
0320
0000
2030
0000
3002
0000
0023
0000
0130
1000
0100
0000
1000
0010
0100
0000
,
0001
0100
0010
0000
1000
0100
0010
0000
0012
0000
0000
0000
0000
0000
1003
0000
,
2020
0030
3001
0000
1100
1001
1100
0001
,
0010
0100
1000
0020
0000
0030
0100
0000
0001
0000
1000
0100
1000
0010
0100
0001
,
0010
0100
1000
0001
0000
0001
0010
0000
0100
0010
0001
0200
0000
0000
0310
1000
,
0100
1000
0001
0000
0020
0000
0000
0030
0100
0000
1000
0010
1000
0000
0001
0100
,
0000
0000
0000
0000
0001
0000
0000
0000
0100
0000
0000
0000
0000
0000
0000
0000
2000
0000
0000
0000
0000
0000
0000
0000
0000
0000
0000
0000
3000
0000
0000
0000
0400
0000
0000
0000
0000
0000
0000
0000
0000
0000
0000
0000
0000
0000
0000
0300
0400
0000
0000
0000
0000
0000
0000
0000
0000
0000
0000
0000
0000
0000
0000
0300
,
0001
0100
0010
2000
0000
3000
0100
0000
0000
0000
1000
0100
0010
0100
1000
0010
,
0100
0001
1000
0001
0000
0001
0100
0000
0001
0010
0100
1000
0001
0010
0100
1000
,
0001
0100
0020
0000
0000
0000
0130
0000
1010
0000
1000
0100
0010
0000
0001
0100
,
0000
0001
2000
0000
0010
0000
0000
3000
1100
0000
0000
0000
1010
0000
0000
0000
,
1001
0000
0000
0000
0110
0000
0000
0000
0101
0000
0001
0000
1000
0001
0000
1000
,
0020
0230
2300
3200
0301
2000
3001
0020
,
0130
0020
0000
0031
0011
0001
0101
0000
,
1010
0000
1000
0100
0000
0100
1000
0000
0002
0000
0000
0000
0013
0000
0000
0000
,
0200
0000
1300
0000
0010
0000
1000
0000
0001
0000
1000
0000
0010
0100
0000
0001
,
0200
0000
2300
0000
3200
0000
0302
0000
0013
0100
1000
0010
0100
0001
0010
0100
,
1000
0001
0000
0000
0101
0000
0000
0000
1MM1
0000
0000
0000
11MM
0000
0000
0000
,
0001
1000
0001
0000
0100
0000
0001
0000
0010
0100
1000
0000
0010
0000
1000
0000
,
1010
0100
1001
0001
0020
0230
2300
3002
,
0103
0001
0100
0000
0001
0010
0001
0000
1000
0100
0010
0000
0100
1000
0001
0000
,
0020
0230
0320
0031
0200
2300
3200
0310
,
1000
0100
0010
0000
0100
0000
1000
0000
0001
0100
0010
0000
1000
0000
0001
0000
,
0011
1000
1010
0020
0230
0302
2003
3200
,
0310
0001
0010
0000
0001
0100
0010
0000
1000
0010
0100
0000
0001
0010
0100
0000
,
2100
0000
0000
3001
0202
0300
0013
0000
,
MMMM
0000
0000
0000
0011
0101
1100
2020
,
0000
0000
0000
0000
0000
0000
0000
0000
0000
0000
0000
0000
0000
0000
0000
3030
0022
0000
0000
0000
0000
0000
0000
0000
0000
0000
0000
0000
0000
0000
0000
0033
2200
0000
0000
0000
0000
0000
0000
0000
0000
0000
0000
0000
0000
0000
0000
0000
3300
0000
0000
0000
0000
0000
0000
0000
0000
0000
0000
0000
0000
0000
0000
0000
,
2000
0000
3002
0000
0103
0000
0001
0000
0010
0001
1000
0002
0000
0000
0013
0000
,
0000
0000
0001
0100
0010
0100
0001
1000
0100
0010
0001
0100
0000
0100
0010
0000
,
1000
0100
0010
0200
0000
0000
1300
0001
0100
0010
1000
0000
0200
0000
0000
0300
,
00M0
0000
000M
00M0
000M
0000
00M0
000M
0000
M000
000M
0000
M00M
0000
0000
0000
;
