#VERSION:0.81;
#TITLE:Flawless;
#SUBTITLE:;
#ARTIST:Mesh;
#TITLETRANSLIT:;
#SUBTITLETRANSLIT:;
#ARTISTTRANSLIT:;
#GENRE:;
#ORIGIN:;
#CREDIT:;
#BANNER:Flawless - Meshbn.png;
#BACKGROUND:Flawless - Meshbg.png;
#PREVIEWVID:;
#JACKET:;
#CDIMAGE:;
#DISCIMAGE:;
#LYRICSPATH:Flawless - Mesh.lrc;
#CDTITLE:encorerebirth.png;
#MUSIC:Flawless - Mesh.ogg;
#OFFSET:0.000;
#SAMPLESTART:40.292;
#SAMPLELENGTH:16.034;
#SELECTABLE:YES;
#BPMS:0.000=119.000;
#STOPS:;
#DELAYS:;
#WARPS:;
#TIMESIGNATURES:0.000=4=4;
#TICKCOUNTS:0.000=4;
#COMBOS:0.000=1;
#SPEEDS:0.000=1.000=0.000=0;
#SCROLLS:0.000=1.000;
#FAKES:;
#LABELS:0.000=Song Start;
#BGCHANGES:;
#KEYSOUNDS:;
#ATTACKS:
;

//---------------dance-single - Spork!----------------
#NOTEDATA:;
#CHARTNAME:;
#STEPSTYPE:dance-single;
#DESCRIPTION:Spork!;
#CHARTSTYLE:;
#DIFFICULTY:Beginner;
#METER:1;
#RADARVALUES:0.083,0.095,0.054,0.072,0.000,51.000,6.000,8.000,0.000,0.000,0.000,0.000,0.000,0.083,0.095,0.054,0.072,0.000,51.000,6.000,8.000,0.000,0.000,0.000,0.000,0.000;
#CREDIT:Spork!;
#NOTES:
0000
0000
0000
0000
,
0000
0000
0000
0000
,
0000
0000
0000
0000
,
0000
0000
0000
0000
,
0002
0000
0000
0000
,
0000
0000
0000
0000
,
2003
0000
0000
0000
,
0000
0000
0000
0000
,
3001
0000
0000
0000
,
0010
0000
0000
0000
,
0001
0000
0000
0000
,
0001
0000
0000
0000
,
1000
0000
0000
0000
,
0010
0000
0000
0000
,
1000
0000
0000
0000
,
1000
0000
0000
0000
,
0001
0000
0001
0000
,
0001
0000
0001
0000
,
1000
0000
1000
0000
,
1000
0000
1000
0000
,
1001
0000
0000
0000
,
0100
0000
0000
0000
,
0010
0000
0000
0000
,
0010
0000
0000
0000
,
1001
0000
0000
0000
,
0010
0000
0000
0000
,
0100
0000
0000
0000
,
0100
0000
0000
0000
,
2000
0000
0000
0000
,
3001
0000
1000
0000
,
0002
0000
0000
0000
,
0103
0000
0010
0000
,
0200
0000
0000
0000
,
0000
0000
0000
0000
,
0320
0000
0000
0000
,
0000
0000
0000
0030
,
1001
0000
0000
0000
,
1000
0000
0000
0000
,
0100
0000
0000
0000
,
0010
0000
0000
0000
,
1001
0000
0000
0000
,
0001
0000
0000
0000
,
0010
0000
0000
0000
,
0100
0000
0000
0000
,
1000
0000
0000
0000
,
1000
0000
0000
0000
,
0001
0000
0000
0000
,
0001
0000
0000
0000
,
0110
0000
0000
0000
,
0010
0000
0000
0000
,
0100
0000
0000
0000
,
0100
0000
0000
0000
,
2002
0000
0000
0000
,
3003
0000
0000
0000
;

//---------------dance-single - Spork!----------------
#NOTEDATA:;
#CHARTNAME:;
#STEPSTYPE:dance-single;
#DESCRIPTION:Spork!;
#CHARTSTYLE:;
#DIFFICULTY:Easy;
#METER:3;
#RADARVALUES:0.204,0.213,0.098,0.179,0.000,129.000,11.000,20.000,0.000,0.000,0.000,0.000,0.000,0.204,0.213,0.098,0.179,0.000,129.000,11.000,20.000,0.000,0.000,0.000,0.000,0.000;
#CREDIT:Spork!;
#NOTES:
0000
0000
0000
0000
,
0000
0000
0000
0000
,
0000
0000
0000
0000
,
0000
0000
0000
0000
,
2000
0000
3200
0000
,
1000
0000
2300
0000
,
3002
0000
0203
0000
,
0001
0000
0302
0000
,
1003
0000
0100
0000
,
0010
0000
0011
0000
,
0001
0000
0100
0000
,
0010
0000
1010
0010
,
1000
0000
0001
0000
,
0010
0000
1001
0000
,
0001
0000
1000
0000
,
0100
0000
0110
0010
,
2001
0000
0010
0000
,
3200
0000
0010
0310
,
1002
0000
0010
0000
,
0203
0000
0010
0310
,
1000
0001
0020
0000
,
0031
0100
0010
1000
,
0100
0100
0010
0010
,
0001
1000
0001
1001
,
0001
1000
0020
0000
,
1030
0100
0010
0001
,
0100
0001
0010
0010
,
0100
1000
0010
0010
,
1002
0000
0000
0000
,
0103
0000
0001
0000
,
2000
0000
0000
0000
,
3010
0000
1000
0000
,
0200
0000
0000
0000
,
0000
0000
0000
0000
,
0320
0000
0000
0000
,
0000
0000
0000
0000
,
0031
0100
0001
0001
,
0010
0100
1000
0001
,
1000
0100
1000
1000
,
0010
0100
0001
1000
,
0100
0100
0010
0001
,
0100
0001
1000
0010
,
0100
0100
0010
1000
,
0001
0001
1000
1000
,
1002
0000
0000
0000
,
1000
0000
0100
0003
,
0010
0001
0100
0100
,
0010
1000
0100
0100
,
2001
0000
0000
0000
,
0001
0000
0010
3000
,
0100
1000
0010
0010
,
0100
0001
0010
0010
,
2002
0000
0000
0000
,
3003
0000
0000
0000
;

//---------------dance-single - Spork!----------------
#NOTEDATA:;
#CHARTNAME:;
#STEPSTYPE:dance-single;
#DESCRIPTION:Spork!;
#CHARTSTYLE:;
#DIFFICULTY:Medium;
#METER:5;
#RADARVALUES:0.273,0.308,0.107,0.215,0.000,178.000,12.000,24.000,0.000,0.000,0.000,0.000,0.000,0.273,0.308,0.107,0.215,0.000,178.000,12.000,24.000,0.000,0.000,0.000,0.000,0.000;
#CREDIT:Spork!;
#NOTES:
0000
0000
0000
0000
,
0000
0000
0000
0000
,
0000
0000
0000
0000
,
0000
0000
0000
0000
,
0002
0203
0010
0302
,
0100
2003
0010
3020
,
2030
3200
0010
2300
,
0100
3002
0010
0023
,
0031
0000
0001
0000
0100
0000
0000
0010
,
0000
0000
0000
1000
0000
0001
0000
0000
,
1000
0000
0000
1000
0100
0010
0000
0001
,
0000
0000
0001
1000
0000
1000
0001
0000
,
1000
0000
1000
0000
0010
0000
0000
0100
,
0000
0000
0000
0001
0000
0000
1000
0000
,
0001
0000
0001
0000
0010
0000
0100
1000
,
0000
0000
1000
0001
0000
0001
1000
0000
,
0001
0100
0120
0100
,
1000
1030
0001
0001
,
1000
0100
0120
0100
,
0001
0031
1000
1000
,
0001
0100
0001
0100
0001
0000
0000
0000
,
0010
0100
0110
1001
,
0000
1000
0010
0000
0010
0100
0010
0000
,
0220
0330
1000
0001
,
1000
0100
1000
0100
1000
0000
0000
0000
,
0010
1000
1001
0110
,
0000
0001
0010
0000
0010
0100
0010
0000
,
0000
0001
1000
0000
0010
0100
0010
0000
,
0200
0000
0010
0000
,
0302
0000
1000
0000
,
0023
0000
0001
0000
,
0230
0000
0010
0000
,
2300
0000
0000
0000
,
0000
0000
0000
0000
,
3002
0000
0000
0000
,
0000
0000
0000
0000
,
1003
0000
0100
1000
0010
0000
0100
0000
,
0001
0000
1000
0001
1000
0000
1000
0000
,
0001
0000
0010
0001
0100
0000
0010
0000
,
1000
0100
0110
1001
,
0001
0000
0100
0001
0010
0000
0100
0000
,
1000
0000
0001
1000
0001
0000
0001
0000
,
1000
0000
0010
1000
0100
0000
0010
0000
,
0001
0000
0100
0001
0010
0000
0100
0000
,
0120
0000
0000
0000
,
0031
0100
0001
0001
,
0000
1000
0100
0000
0100
0010
0100
0000
,
1000
0000
0010
0000
0100
0010
0100
0000
,
0120
0000
0000
0000
,
1030
0100
1000
1000
,
0000
0001
0100
0000
0100
0010
0100
0000
,
0000
0001
1000
0000
0100
0010
0100
0000
,
2002
0000
0000
0000
,
3003
0000
0000
0000
;

//---------------dance-single - Spork!----------------
#NOTEDATA:;
#CHARTNAME:;
#STEPSTYPE:dance-single;
#DESCRIPTION:Spork!;
#CHARTSTYLE:;
#DIFFICULTY:Challenge;
#METER:10;
#RADARVALUES:0.651,0.758,0.215,0.143,0.827,470.000,24.000,16.000,4.000,0.000,8.000,0.000,0.000,0.651,0.758,0.215,0.143,0.827,470.000,24.000,16.000,4.000,0.000,8.000,0.000,0.000;
#CREDIT:Spork!;
#NOTES:
0000
0000
0000
0000
,
0000
0000
0000
0000
,
0000
0000
0000
0000
,
0000
0000
0000
0000
,
1000
0010
0000
0100
0010
0000
1000
0000
0100
0010
0000
0100
0000
0000
0010
0001
,
0000
1000
0000
0001
0010
0000
0001
0000
0100
0010
0000
0100
0001
0010
0100
1000
,
0001
0100
0000
0010
0100
0000
0001
0000
0010
0100
0000
0010
0000
0000
0100
1000
,
0000
0001
0000
1000
0010
0000
1010
0000
0000
1001
0000
0000
0021
0000
0000
0000
,
0130
0010
0100
0010
0100
0000
0100
1000
0000
1000
0001
0000
0100
M000
0100
0000
,
0010
0100
0010
0100
0010
0000
0010
0001
0000
0001
1000
0000
0010
0000
0100
0001
,
0100
0010
0100
0010
0100
0000
0010
4000
0000
3004
0010
0003
0100
000M
0100
0000
,
0010
0100
0010
0100
0010
0000
0100
0004
0000
4003
0100
3000
0010
0000
0100
0010
,
0001
0100
0010
1000
0001
0000
0001
0010
0000
0010
0100
0000
0010
000M
0010
0000
,
1000
0100
0010
0001
1000
0000
1000
0010
0000
0010
0100
0000
0010
0000
0100
0001
,
1000
0010
1000
0001
0100
0000
0001
0040
0000
0430
0010
0300
0100
M000
0100
0000
,
0001
0010
0100
1000
0001
0000
1000
0400
0000
0340
0100
0030
1000
0000
0100
0000
,
1000
0010
1000
0010
1000
0010
1000
0010
0100
0001
0100
0001
0100
0001
0100
0001
,
1000
0100
0010
0001
0100
0010
1000
0001
0010
0100
1000
0010
0100
0001
1000
0001
,
0010
0100
0010
0100
0010
0100
0010
0100
1000
0001
1000
0001
1000
0001
1000
0001
,
0100
0001
0010
0100
1000
0010
0100
0010
1000
0100
0010
0001
0100
0010
1000
0001
,
0020
0000
0100
0000
0130
0000
0000
0011
0000
0000
1010
0000
0000
0110
0000
0000
,
0100
0001
1000
0100
1000
0001
0100
0001
0010
0000
0100
0000
0110
0000
0000
0000
,
0200
0000
0010
0000
0310
0000
0001
0000
1000
0001
1000
0000
0010
0000
0100
0000
,
0210
0000
0010
0000
0310
0000
1000
0000
0001
0000
0001
1000
0000
0000
1000
0000
,
0002
0000
1000
0000
0003
0100
0000
0000
1100
0000
0101
0000
0000
0110
0000
0000
,
0100
1000
0001
0100
0001
1000
0100
1000
0010
0000
0010
0100
0000
0000
0001
0000
,
2000
0000
0001
0000
3001
0000
0010
0000
0100
0000
0100
0010
0000
0001
0000
1000
,
0002
0000
1000
0000
1003
0000
0010
0000
0100
0000
0100
0010
0000
1000
0000
0000
,
0102
0000
0013
0001
0100
1001
0010
1000
,
2100
0000
3010
1000
0100
1001
0010
0001
,
1000
0001
1000
0000
0100
0000
1000
0000
0001
0000
0110
0000
0010
0000
1000
0000
,
0001
1000
0001
0000
0010
0000
0001
0000
1000
0000
0110
0000
0100
0000
0001
0000
,
1000
0010
1000
0000
0100
0000
0000
0100
0000
0000
0100
0000
0000
0100
0000
0000
,
0100
0010
0000
0000
0010
0000
0000
0010
0000
0000
0010
0000
0000
0010
0000
0000
,
0001
0010
0001
0000
0100
0000
0000
0100
0000
0000
0100
0000
0000
0100
0000
0000
,
0100
0010
0100
0000
0010
0000
0000
0010
1000
1000
0001
0001
1000
0100
0010
0001
,
1000
0010
0000
0100
0010
0000
0100
0000
0001
0010
0000
0100
0000
0000
0010
0001
,
0000
1000
0000
1000
0001
0000
0010
0000
0001
0100
0000
0010
0000
0000
0010
1000
,
0000
0100
0000
0100
1000
0000
0001
0000
0100
0010
0000
0100
0000
0000
0001
0010
,
0000
0100
0000
0100
0010
0000
0011
0000
0000
1001
0000
0000
2010
0000
0000
0000
,
3001
0010
0001
0010
0001
0000
0100
0000
0010
1000
0000
0001
1000
0000
0100
1000
,
0000
0100
0000
0010
0100
0000
1000
0000
0001
0100
0000
0001
1000
0000
0001
0010
,
0000
0100
0000
0100
0010
0000
0001
0000
0100
0010
0000
0010
0100
0000
0100
0001
,
1000
0100
0000
0000
0100
0000
1100
0000
0000
1001
0000
0000
0201
0000
0000
0000
,
0310
0100
0010
0000
0100
0000
0000
0001
0000
0000
0010
0000
0000
0100
0000
0000
,
1000
0100
0000
0000
0100
0000
0000
1000
0000
0000
0010
0000
0000
0100
0000
0000
,
0001
1000
0001
0000
0010
0000
0100
0000
0010
0100
0010
0000
0001
0000
0100
0000
,
0000
0000
0100
0000
0010
0000
1000
0000
0100
0000
0100
0010
0002
0000
0000
0000
,
2003
0000
0010
0000
3010
0000
1000
0100
0000
0100
1000
0100
0010
0001
1000
1000
,
0002
0000
0010
0000
0013
0000
0001
0000
0100
0000
0100
0010
0000
0000
0100
0000
,
0001
1000
0001
0000
1000
0000
0100
0000
0010
0000
0010
0100
0000
1000
0000
0000
,
0010
0100
0000
0000
0010
0000
1000
0000
0001
0001
1000
1000
0001
0010
0100
1000
,
2002
0000
0000
0000
,
3003
0000
0000
0000
;

//---------------dance-single - Spork!----------------
#NOTEDATA:;
#CHARTNAME:;
#STEPSTYPE:dance-single;
#DESCRIPTION:Spork!;
#CHARTSTYLE:;
#DIFFICULTY:Hard;
#METER:8;
#RADARVALUES:0.447,0.426,0.009,0.116,0.165,336.000,1.000,13.000,0.000,0.000,0.000,0.000,0.000,0.447,0.426,0.009,0.116,0.165,336.000,1.000,13.000,0.000,0.000,0.000,0.000,0.000;
#CREDIT:Spork!;
#NOTES:
0000
0000
0000
0000
,
0000
0000
0000
0000
,
0000
0000
0000
0000
,
0000
0000
0000
0000
,
0010
1000
0000
0010
1000
0000
0100
0000
0010
0000
0000
0010
0000
0000
0010
0000
,
0100
1000
0000
0100
1000
0000
0010
0000
0100
0000
0000
0000
0100
0000
0010
0000
,
0100
0001
0000
0100
0001
0000
0010
0000
0100
0000
0000
0100
0000
0000
0100
0000
,
0010
0001
0000
0010
0001
0000
1000
0000
0000
1000
0000
0000
1000
0000
0000
0000
,
0001
0010
0001
0100
0010
0000
0010
0100
,
0001
0000
1000
0100
0001
0100
1000
0000
,
1000
0010
1000
0100
0010
0001
0000
0001
,
1000
0000
0001
0100
1000
0100
0001
0000
,
1000
0100
1000
0010
0100
0000
0100
0010
,
1000
0000
0001
0010
1000
0010
0001
0100
,
0000
0100
0001
0010
0100
0000
0100
1000
,
0010
0000
1000
0010
0001
0010
1000
0000
,
0001
0010
0001
0010
1000
0010
1000
0010
,
0001
0100
1000
0100
0002
0000
0010
0000
,
1003
0010
1000
0010
0001
0010
0001
0010
,
1000
0100
0001
0100
2000
0000
0010
0000
,
3001
0010
0100
1000
0010
0000
0100
0000
,
0010
1000
0010
0100
0001
1000
0100
0000
,
1000
0010
0001
0010
1000
0100
0010
0010
,
0001
0100
1000
0100
0001
1000
0100
0000
,
1000
0010
0100
0001
0010
0000
0100
0000
,
0010
0001
0010
0100
1000
0001
0100
0000
,
0001
0010
1000
0010
0001
0100
0010
0010
,
1000
0100
0001
0100
1000
0010
0100
0100
,
0002
0000
0103
0001
0010
0001
0100
0010
,
2000
0000
3100
1000
0010
1000
0100
0010
,
0002
0000
1003
0010
0100
0010
1000
0001
,
2000
0000
3001
0010
0100
0010
0001
1000
,
0020
0100
0000
1000
0000
0100
0000
0130
,
0200
0010
0000
0001
0000
0010
0000
0310
,
0010
1000
0010
0000
0100
0000
0000
0100
0000
0000
0100
0000
0000
0100
0000
0000
,
0100
0001
0100
0000
0010
0000
0000
0010
0000
0000
0010
0000
0000
0010
0000
0000
,
1000
0100
0000
1000
0100
0000
0010
0000
0001
0000
0000
0100
0000
0000
0100
0000
,
0001
0010
0000
0001
0010
0000
0100
0000
0010
0100
0000
0010
0100
0000
0010
0000
,
0001
0100
0000
0001
0100
0000
0010
0000
1000
0000
0000
0100
0000
0000
0100
0000
,
1000
0010
0000
1000
0010
0000
0100
0000
0000
0100
0000
0000
0100
0000
0000
0000
,
0001
0000
0010
0000
0100
0000
1000
0000
0100
1000
0000
0100
1000
0000
0010
0000
,
1000
0000
0100
0000
0010
0000
0001
0000
0010
0001
0000
0010
0001
0000
0100
0000
,
0001
0000
0010
0000
0100
0000
1000
0000
0010
0100
0000
0010
0100
0000
0010
0000
,
1000
0000
0100
0000
0010
0000
0001
0000
0000
0001
0000
0000
0001
0000
0000
0000
,
2000
0000
0010
0000
,
3100
0010
0001
0100
0010
1000
0001
0000
,
1000
0100
0001
0100
1000
0010
0100
0100
,
0001
0010
1000
0010
0001
0100
0200
0000
,
0302
0000
1000
0000
,
0013
0100
1000
0010
0100
0001
1000
0000
,
0001
0100
1000
0100
0001
0010
0100
0100
,
1000
0010
0001
0010
1000
0100
0010
0010
,
2002
0000
0000
0000
,
3003
0000
0000
0000
;

//---------------dance-double - Spork!----------------
#NOTEDATA:;
#CHARTNAME:;
#STEPSTYPE:dance-double;
#DESCRIPTION:Spork!;
#CHARTSTYLE:;
#DIFFICULTY:Easy;
#METER:4;
#RADARVALUES:0.238,0.237,0.072,0.125,0.000,164.000,8.000,14.000,0.000,0.000,0.000,0.000,0.000,0.238,0.237,0.072,0.125,0.000,164.000,8.000,14.000,0.000,0.000,0.000,0.000,0.000;
#CREDIT:Spork!;
#NOTES:
// measure 0
00000000
00000000
00000000
00000000
,  // measure 1
00000000
00000000
00000000
00000000
,  // measure 2
00000000
00000000
00000000
00000000
,  // measure 3
00000000
00000000
00000000
00000000
,  // measure 4
00001000
00100000
01000000
01000000
,  // measure 5
00100000
00001000
00010000
00011000
,  // measure 6
00010000
00000010
00000100
00000100
,  // measure 7
00000010
00010000
00002000
00000000
,  // measure 8
00013000
00000100
00000010
00000001
,  // measure 9
00000100
00000010
00010000
00010000
,  // measure 10
00001000
01000000
00100000
10000000
,  // measure 11
01000000
00100000
00001000
00011000
,  // measure 12
00001000
00100000
01000000
10000000
,  // measure 13
00100000
01000000
00001000
00001000
,  // measure 14
00010000
00000010
00000100
00000001
,  // measure 15
00000010
00000100
00010000
00011000
,  // measure 16
00002000
00000000
01003000
00001000
,  // measure 17
00010000
00000100
00010000
00001000
,  // measure 18
00020000
00000000
00030010
00010000
,  // measure 19
00001000
00100000
00001000
00010000
,  // measure 20
00001000
01000000
20000000
00000000
,  // measure 21
31000000
00010000
00100000
00100000
,  // measure 22
00001000
00010000
00000010
00000010
,  // measure 23
00010000
00001000
00100000
00011000
,  // measure 24
00010000
00000010
00000002
00000000
,  // measure 25
00000013
00001000
00000100
00000100
,  // measure 26
00010000
00001000
01000000
01000000
,  // measure 27
00001000
00010000
00000100
00010000
,  // measure 28
00002000
00000000
00103000
00001000
,  // measure 29
00020000
00000000
00030010
00010000
,  // measure 30
00002000
00000000
01003000
00001000
,  // measure 31
00020000
00000000
00030010
00010000
,  // measure 32
00002000
00000000
00000000
00000000
,  // measure 33
00000000
00000000
00000000
00000000
,  // measure 34
00023000
00000000
00000000
00000000
,  // measure 35
00000000
00000000
00000000
00000000
,  // measure 36
00031000
00100000
01000000
01000000
,  // measure 37
10000000
00010000
00100000
00001000
,  // measure 38
00010000
00000010
00000100
00000100
,  // measure 39
00000001
00001000
00000010
00010000
,  // measure 40
00011000
00011000
00010000
00000100
,  // measure 41
00000010
00000001
00000100
00000010
,  // measure 42
00010000
00010000
00001000
01000000
,  // measure 43
00001000
00001000
00010000
00000100
,  // measure 44
00000210
00000000
00000000
00000000
,  // measure 45
00010300
00001000
00100000
00100000
,  // measure 46
00010000
01000000
00001000
00010000
,  // measure 47
00000010
00010000
00001000
00100000
,  // measure 48
01200000
00000000
00000000
00000000
,  // measure 49
00301000
00010000
00000100
00000100
,  // measure 50
00001000
00000010
00010000
00001000
,  // measure 51
00100000
00001000
00010000
00000010
,  // measure 52
00000200
00000000
00000000
00000000
,  // measure 53
00000300
00000000
00000000
00000000
;

//---------------dance-double - Spork!----------------
#NOTEDATA:;
#CHARTNAME:;
#STEPSTYPE:dance-double;
#DESCRIPTION:Spork!;
#CHARTSTYLE:;
#DIFFICULTY:Challenge;
#METER:9;
#RADARVALUES:0.535,0.497,0.089,0.098,0.510,396.000,10.000,11.000,35.000,2.000,0.000,0.000,0.000,0.535,0.497,0.089,0.098,0.510,396.000,10.000,11.000,35.000,2.000,0.000,0.000,0.000;
#CREDIT:Spork!;
#NOTES:
// measure 0
00000000
00000000
00000000
00000000
,  // measure 1
00000000
00000000
00000000
00000000
,  // measure 2
00000000
00000000
00000000
00000000
,  // measure 3
00000000
00000000
00000000
00000000
,  // measure 4
01000000
00001000
00000000
00010000
00000100
00000000
00000010
00000000
00001000
00000000
00000000
00100000
00000000
00000000
00000010
00000000
,  // measure 5
00000010
00010000
00000000
00001000
00100000
00000000
01000000
00000000
00010000
00000000
00000000
00000000
00001000
00010000
00001000
00010000
,  // measure 6
00000100
00010000
00000000
00001000
01000000
00000000
00100000
00000000
00010000
00000000
00000000
00000010
00000000
00000000
00100000
00000000
,  // measure 7
00100000
00001000
00000000
00010000
00000010
00000000
00000100
00000000
00000000
00000100
00000000
00000000
00000200
00000000
00000000
00000000
,  // measure 8
00000301
00000010
00001000
00100000
10000000
00100000
00010000
00000010
,  // measure 9
00000001
00000000
00000100
00000000
00001000
00000000
00010000
00000000
01000000
00000000
10000000
00000000
00010000
00000000
10000000
00010000
,  // measure 10
10000000
00100000
00010000
00000010
00000001
00000010
00001000
00100000
,  // measure 11
10000000
00000000
01000000
00000000
00010000
00000000
00001000
00000000
00000100
00000000
00000001
00000000
00000001
00001000
00000001
00001000
,  // measure 12
00000001
00000100
00001000
01000000
10000000
01000000
00010000
00000100
,  // measure 13
00000001
00000000
00000010
00000000
00001000
00000000
00010000
00000000
00100000
00000000
10000000
00000000
00010000
00000000
10000000
00010000
,  // measure 14
10000000
01000000
00010000
00000100
00000001
00000100
00001000
01000000
,  // measure 15
10000000
00100000
00010000
00001000
00000010
00000001
00000100
00000001
,  // measure 16
00020000
00000000
MMM01M11
00030000
,  // measure 17
00000001
00000100
00000010
00010000
00001000
00100000
01000000
10000000
,  // measure 18
00002000
00000000
1M110MMM
00003000
,  // measure 19
10000000
00100000
10000000
00100000
01000000
00010000
01000000
00010000
00100000
01000000
00100000
01000000
10000000
00010000
10000000
00010000
,  // measure 20
01000000
00000000
01000000
00000000
00100000
00000000
01000000
00000100
00000000
00000100
00010000
00000000
00010000
00000001
00000000
00000001
,  // measure 21
00000010
00000000
00000010
00000000
00000100
00000000
00000100
01000000
00000000
01000000
00001000
00000000
00001000
10000000
00000000
10000000
,  // measure 22
00100000
00000000
01000000
00000000
00001000
00000000
00010000
00000000
01000000
10000000
01000000
00000000
00010000
00000000
00000100
00000000
,  // measure 23
00021000
00000000
00030010
00000000
00000100
00000000
00001000
00000000
00010000
00000000
00010000
00000100
00000000
00001100
00000000
00001000
,  // measure 24
00000010
00000100
00000010
00000000
00000100
00000000
00000010
00100000
00000000
00100000
00001000
00000000
00001000
10000000
00000000
10000000
,  // measure 25
01000000
00000000
01000000
00000000
00100000
00000000
00100000
00000010
00000000
00000010
00010000
00000000
00010000
00000001
00000000
00000001
,  // measure 26
00000100
00000000
00000010
00000000
00010000
00000000
00001000
00000000
00000010
00000000
00000001
00000010
00000000
00001000
00000000
00100000
,  // measure 27
00001000
00000000
01000000
00000000
00100000
00000000
00010000
00000000
00001000
00000000
00001000
00100000
00000000
01000000
00000000
00000000
,  // measure 28
10020000
00000000
10030000
00100000
00001000
00000010
00010000
00000001
,  // measure 29
00002000
00000000
00003001
00000010
00010000
00100000
00001000
10000000
,  // measure 30
00010000
10000000
00010000
00000000
01000000
00000000
10000000
00000000
00010000
00000000
00001000
00000000
00000010
00000000
00000001
00000000
,  // measure 31
00001000
00000001
00001000
00000000
00000100
00000000
00000001
00000000
00001000
00000000
00010000
00000000
00100000
00000000
10000000
00000000
,  // measure 32
0001M000
00M00000
0100M000
00000000
000M0000
00000000
00000001
000000M0
00000000
00000000
0010M000
00000000
00000000
000M0000
00000010
00000000
,  // measure 33
00000M00
0M000000
10000000
00000000
0000M000
00000000
00000100
000M0000
00000000
00000000
0M100000
00000000
00000000
000000M0
00000001
00000000
,  // measure 34
00M10000
00000M00
00M01000
00000000
000M0010
00000000
00000000
0000M100
00000000
00000000
00100M00
00000000
00000000
000110M0
00000000
00000000
,  // measure 35
00001M00
0M000000
00010M00
00000000
0010M000
00000000
00000000
010M0000
00001000
01000000
00M01000
00010000
00000010
0M010000
00000010
00001000
,  // measure 36
00000100
00000010
00000000
00000100
00000010
00000000
00000001
00000000
00000100
00001000
00000000
00000100
00000001
00000000
00000100
00000010
,  // measure 37
00000000
00010000
00000000
00001000
00010000
00000000
01000000
00000000
00100000
00010000
00000000
00100000
10000000
00000000
00100000
01000000
,  // measure 38
00000000
00100000
00000000
00001000
00010000
00000000
00100000
00000000
01000000
00010000
00000000
01000000
10000000
00000000
01000000
00100000
,  // measure 39
00000000
10000000
00000000
01000000
00100000
00000000
00110000
00000000
00000000
00101000
00000000
00000000
00011000
00000000
00000000
00000000
,  // measure 40
00020000
00000000
00000000
00000000
00130000
00000000
10000000
00000000
01000000
00010000
00000000
01000000
10000000
00000000
01000000
00100000
,  // measure 41
00000000
00001000
00000000
00010000
00001000
00000000
00000100
00000000
00000010
00001000
00000000
00000010
00000001
00000000
00000010
00000100
,  // measure 42
00000000
00000010
00000000
00010000
00001000
00000000
00000010
00000000
00000100
00001000
00000000
00000100
00000001
00000000
00000100
00000010
,  // measure 43
00000100
00000010
00000000
00000010
00000001
00000000
00001000
00000000
00000000
00001000
00000000
00000000
00001000
00000000
00000000
00000000
,  // measure 44
00000001
00000000
00000000
00000000
00000010
00000000
00000000
00000100
00000000
00000000
00000100
00000000
00000000
00000100
00000000
00000000
,  // measure 45
00010000
00000000
00001000
00000000
00000010
00001000
00000000
00000000
00010000
00000000
00001000
00000000
00000100
00000000
00000000
00000000
,  // measure 46
00000100
00000000
00000010
00000000
00010000
00000000
00001000
00000000
00000010
00000001
00000010
00000000
00001000
00000000
00100000
00000000
,  // measure 47
00010000
00000000
01000000
00000000
00100000
00000000
00010000
00000000
00001000
00000000
00001000
00100000
00020000
00000000
00000000
00000000
,  // measure 48
20030000
00000000
00000000
00000000
30100000
00000000
00000000
01000000
00000000
00000000
01000000
00000000
00000000
01000000
00000000
00000000
,  // measure 49
00001000
00000000
00010000
00000000
00100000
00000000
00010000
00000000
00001000
00000000
00000010
00001000
00000000
00000000
00010000
00000000
,  // measure 50
00100000
00000000
01000000
00000000
00001000
00000000
00010000
00000000
01000000
00000000
10000000
01000000
00000000
00010000
00000000
00000000
,  // measure 51
00000100
00000000
00001000
00000000
00000010
00000000
00000100
00000000
00001000
00000000
00010000
00000100
00000000
00000010
00000000
00000000
,  // measure 52
00002002
00000000
00000000
00000000
,  // measure 53
00003003
00000000
00000000
00000000
;

//---------------dance-double - Spork!----------------
#NOTEDATA:;
#CHARTNAME:;
#STEPSTYPE:dance-double;
#DESCRIPTION:Spork!;
#CHARTSTYLE:;
#DIFFICULTY:Hard;
#METER:7;
#RADARVALUES:0.355,0.379,0.134,0.170,0.125,244.000,15.000,19.000,0.000,0.000,0.000,0.000,0.000,0.355,0.379,0.134,0.170,0.125,244.000,15.000,19.000,0.000,0.000,0.000,0.000,0.000;
#CREDIT:Spork!;
#NOTES:
// measure 0
00000000
00000000
00000000
00000000
,  // measure 1
00000000
00000000
00000000
00000000
,  // measure 2
00000000
00000000
00000000
00000000
,  // measure 3
00000000
00000000
00000000
00000000
,  // measure 4
00000010
00001000
00000100
00000010
00000200
00000000
00020300
00000000
,  // measure 5
00031000
00100000
00001000
01000000
00010000
00000000
10000000
01000000
,  // measure 6
00100000
00010000
01000000
00100000
02000000
00000000
03002000
00000000
,  // measure 7
00013000
00000000
00000010
00000000
00010000
00000000
00001000
00000000
00000000
00001000
00000000
00000000
00001000
00000000
00000000
00000000
,  // measure 8
00010000
00000000
00000100
00001000
00000010
00000000
00000010
00001000
,  // measure 9
00000100
00000000
00010000
00000100
00010000
00001000
01000000
00000000
,  // measure 10
00001000
00000000
00100000
00010000
01000000
00000000
01000000
00010000
,  // measure 11
00100000
00000000
00100000
01000000
10000000
01000000
00100000
00000000
,  // measure 12
00001000
00000000
01000000
00010000
00100000
00000000
00100000
00010000
,  // measure 13
01000000
00000000
00001000
01000000
00001000
00010000
00000100
00000000
,  // measure 14
00010000
00000000
00000010
00001000
00000100
00000000
00000100
00001000
,  // measure 15
00000010
00000000
00000010
00000100
00000001
00000100
00000010
00000000
,  // measure 16
00010000
00000100
00000210
00000010
,  // measure 17
00000310
00000001
00000010
00001000
00010000
00001000
00100000
00000000
,  // measure 18
00001000
01000000
02100000
00100000
,  // measure 19
03100000
10000000
00100000
00010000
00001000
00010000
00000010
00000000
,  // measure 20
00010000
00001000
00010000
00000000
00001000
00000000
00000000
01000000
00000000
00000000
00010000
00000000
00000000
01000000
00000000
00000000
,  // measure 21
00002000
00000000
00000000
00000000
00013000
00000000
00000000
00000010
00000000
00000000
00001000
00000000
00000000
00000010
00000000
00000000
,  // measure 22
00010000
00001000
00010000
00000000
00001000
00000000
00000000
00100000
00000000
00000000
00010000
00000000
00000000
00100000
00000000
00000000
,  // measure 23
00002000
00000000
00000000
00000000
00023000
00000000
00000000
00000100
00030000
00000000
00001000
00000000
00000000
00001000
00000000
00000000
,  // measure 24
00000001
00001000
00000001
00000000
00001000
00000000
00000000
00000010
00000000
00000000
00010000
00000000
00000000
00001000
00000000
00000000
,  // measure 25
00020000
00000000
00000000
00000000
00031000
00000000
00000000
01000000
00000000
00000000
00010000
00000000
00000000
10000000
00000000
00000000
,  // measure 26
10000000
00010000
10000000
00000000
00100000
00000000
00000000
01000000
00000000
00000000
00011000
00000000
00000000
00000100
00000000
00000000
,  // measure 27
00000001
00001000
00000001
00000000
00000010
00000000
00000000
00000100
00000000
00000000
00011000
00000000
00000000
01000000
00000000
00000000
,  // measure 28
10000000
00000000
00000000
00010000
10000000
00100000
00000000
01000000
,  // measure 29
00000000
00001000
00000000
00011000
00000000
00101000
00000000
00020200
,  // measure 30
00000000
00000000
00000000
00000000
00000000
00030300
00000000
00001000
,  // measure 31
00010000
00000000
00010000
00000010
00000000
00000010
00001000
00000100
,  // measure 32
00000020
00000000
00000000
00000000
,  // measure 33
00000000
00000000
00000000
00000000
,  // measure 34
00000230
00000000
00000000
00000000
,  // measure 35
00000000
00000000
00000000
00000000
,  // measure 36
00001300
00000010
00000001
00000010
00001000
00000000
00010010
00000000
,  // measure 37
00001000
00010000
00000100
00010000
00001000
00000000
01001000
00000000
,  // measure 38
00010000
00100000
10000000
00100000
00010000
00000000
00101000
00000000
,  // measure 39
00010000
00000000
00001000
00000000
01000000
00000000
00001000
00000000
00000000
00001000
00000000
00000000
00001000
00000000
00000000
00000000
,  // measure 40
00010000
00001000
00000100
00001000
00010000
00000000
00001010
00000000
,  // measure 41
00000001
00000010
00000100
00010000
00001000
00000000
00010100
00000000
,  // measure 42
00001000
00010000
00100000
00010000
00001000
00000000
01010000
00000000
,  // measure 43
10000000
00000000
01000000
00000000
00100000
00000000
00010000
00000000
00000000
00010000
00000000
00000000
00010000
00000000
00000000
00000000
,  // measure 44
10020000
00000000
00000000
00000000
,  // measure 45
01030000
00000000
00000100
00000000
00010000
00001000
00010000
00000000
,  // measure 46
00000010
01000000
00000100
00000100
,  // measure 47
00100000
00000100
01000000
00000020
,  // measure 48
00002030
00000000
00000000
00000000
,  // measure 49
00003100
00000000
01000000
00000000
00001000
00010000
00001000
00000000
,  // measure 50
00100000
00000000
00000000
00000000
00000001
00000000
00000000
00000000
00010000
00000000
00001000
00010000
00000000
00010000
00000000
00000000
,  // measure 51
00000010
00000000
00000000
00000000
10000000
00000000
00000000
00000000
00001000
00000000
00010000
00001000
00000000
00001000
00000000
00000000
,  // measure 52
00022000
00000000
00000000
00000000
,  // measure 53
00033000
00000000
00000000
00000000
;

//---------------dance-double - Spork!----------------
#NOTEDATA:;
#CHARTNAME:;
#STEPSTYPE:dance-double;
#DESCRIPTION:Spork!;
#CHARTSTYLE:;
#DIFFICULTY:Medium;
#METER:6;
#RADARVALUES:0.312,0.308,0.152,0.215,0.013,203.000,17.000,24.000,0.000,0.000,0.000,0.000,0.000,0.312,0.308,0.152,0.215,0.013,203.000,17.000,24.000,0.000,0.000,0.000,0.000,0.000;
#CREDIT:Spork!;
#NOTES:
// measure 0
00000000
00000000
00000000
00000000
,  // measure 1
00000000
00000000
00000000
00000000
,  // measure 2
00000000
00000000
00000000
00000000
,  // measure 3
00000000
00000000
00000000
00000000
,  // measure 4
20000000
01000000
00100000
30010000
,  // measure 5
00020000
00000000
10000000
00000000
01000000
00000000
00130000
00000010
,  // measure 6
00002000
00000100
00000010
00003001
,  // measure 7
00000002
00000000
00000000
00000000
00001000
00000000
00001003
00000000
00000000
00000010
00000000
00000000
00000100
00000000
00000000
00000000
,  // measure 8
00000001
00000100
00000001
00001000
00000001
00000000
00000010
00000000
,  // measure 9
00000100
00000000
00010000
00000000
00001000
00000000
01000000
00100000
,  // measure 10
10000000
01000000
10000000
00010000
10000000
00000000
00100000
00000000
,  // measure 11
00100000
01000000
00001000
00000000
00010000
00000100
00000010
00000000
,  // measure 12
00000001
00001000
00000001
00000010
00000100
00000000
00010000
00000000
,  // measure 13
00001000
00000000
01000000
00000000
00010000
00000000
00100000
01000000
,  // measure 14
10000000
00010000
10000000
00100000
01000000
00000000
00001000
00000000
,  // measure 15
00100000
00001000
00010000
00000000
00000010
00010000
00001000
00000000
,  // measure 16
00100000
01000000
01200000
01000000
,  // measure 17
00310000
10000000
01000000
00010000
00001000
00000000
00010000
00000000
,  // measure 18
00000010
00000100
00000120
00000100
,  // measure 19
00001030
00000001
00000010
00001000
00010000
00000000
00001000
00000000
,  // measure 20
00020000
00030200
00000320
00000031
,  // measure 21
00000100
00000001
00001000
00000000
00000001
00001000
00000100
00000000
,  // measure 22
00010000
00000000
00001000
00000000
01000000
00001000
00010000
00000000
,  // measure 23
00010000
01000000
11000000
01010000
,  // measure 24
00002000
00203000
02300000
13000000
,  // measure 25
00100000
10000000
00010000
00000000
10000000
00010000
00100000
00000000
,  // measure 26
00001000
00010000
00010010
00011000
,  // measure 27
00001000
00000010
00000011
00001010
,  // measure 28
00000120
00000000
00000031
00000100
,  // measure 29
00000010
00010000
00001000
00100000
,  // measure 30
02000000
00000000
00000000
00000000
,  // measure 31
03100000
00001000
00010000
00000100
,  // measure 32
00000020
00000000
00000000
00000000
,  // measure 33
00000000
00000000
00000000
00000000
,  // measure 34
00000230
00000000
00000000
00000000
,  // measure 35
00000000
00000000
00000000
00000000
,  // measure 36
00001300
00000000
00000100
00001000
00000100
00000000
00010000
00000000
,  // measure 37
00001000
00000000
01000000
00010000
01000000
00000000
01000000
00000000
,  // measure 38
00010000
00000000
00100000
00010000
00100000
00000000
00001000
00000000
,  // measure 39
00010000
00000000
00000000
00000000
00000010
00000000
00001000
00000000
00000000
00001000
00000000
00000000
00001000
00000000
00000000
00000000
,  // measure 40
00000002
00000010
00000100
00001003
,  // measure 41
00002000
00000000
00000001
00000000
00000010
00000000
00003100
01000000
,  // measure 42
00020000
00100000
01000000
10030000
,  // measure 43
20000000
00000000
00000000
00000000
00000000
00000000
30010000
00000000
00000000
01000000
00000000
00000000
00100000
00000000
00000000
00000000
,  // measure 44
10200000
00000000
00000000
00000000
,  // measure 45
10300000
00000000
01000000
00000000
00100000
00001000
00010000
00000000
,  // measure 46
00001000
00000000
01000000
00000000
00001000
00010000
00000010
00000000
,  // measure 47
00010000
00000000
00000100
00000000
00000010
00000100
00000110
00000000
,  // measure 48
00000021
00000000
00000000
00000000
,  // measure 49
00000031
00000000
00000100
00000000
00000010
00010000
00001000
00000000
,  // measure 50
00010000
00001000
01001000
00011000
,  // measure 51
00010000
01000000
11000000
01010000
,  // measure 52
02200000
00000000
00000000
00000000
,  // measure 53
03300000
00000000
00000000
00000000
;
