#VERSION:0.81;
#TITLE:Disagree Feelings;
#SUBTITLE:;
#ARTIST:uno(IOSYS);
#TITLETRANSLIT:;
#SUBTITLETRANSLIT:;
#ARTISTTRANSLIT:;
#GENRE:;
#ORIGIN:;
#CREDIT:;
#BANNER:Disagree Feelings-bn.png;
#BACKGROUND:Disagree Feelings-bg.png;
#PREVIEWVID:;
#JACKET:Disagree Feelings-jk.png;
#CDIMAGE:;
#DISCIMAGE:;
#LYRICSPATH:;
#CDTITLE:darkanine.png;
#MUSIC:[Round 4] - Disagree Feelings.ogg;
#OFFSET:0.220000;
#SAMPLESTART:48.709122;
#SAMPLELENGTH:12.000000;
#SELECTABLE:YES;
#BPMS:0.000=170.000;
#STOPS:;
#DELAYS:;
#WARPS:;
#TIMESIGNATURES:0.000=4=4;
#TICKCOUNTS:0.000=4;
#COMBOS:0.000=1;
#SPEEDS:0.000=1.000=0.000=0;
#SCROLLS:0.000=1.000;
#FAKES:;
#LABELS:0.000=Song Start;
#BGCHANGES:;
#KEYSOUNDS:;
#ATTACKS:
;

//---------------dance-single - ----------------
#NOTEDATA:;
#CHARTNAME:;
#STEPSTYPE:dance-single;
#DESCRIPTION:;
#CHARTSTYLE:;
#DIFFICULTY:Hard;
#METER:9;
#RADARVALUES:0.680289,0.698318,0.479568,0.193510,0.172476,486.000000,57.000000,23.000000,0.000000,0.000000,0.000000,0.000000,0.000000,0.680289,0.698318,0.479568,0.193510,0.172476,486.000000,57.000000,23.000000,0.000000,0.000000,0.000000,0.000000,0.000000;
#CREDIT:;
#OFFSET:0.220000;
#BPMS:0.000000=170.000000
;
#STOPS:;
#DELAYS:;
#WARPS:;
#TIMESIGNATURES:0.000000=4=4
;
#TICKCOUNTS:0.000000=4
;
#COMBOS:0.000000=1
;
#SPEEDS:0.000000=1.000000=0.000000=0
;
#SCROLLS:0.000000=1.000000
;
#FAKES:;
#LABELS:0.000000=Song Start
;
#NOTES:
0000
0000
0000
0000
,
0000
0000
0000
0000
,
0000
0000
0000
0000
,
0000
0000
0000
0000
,
0000
0000
0000
0000
,
0000
0000
0000
0000
,
0000
0000
0000
0000
,
0000
0000
0000
0000
,
2002
0000
0000
3003
,
1000
0000
0100
1000
0100
0000
0000
0000
0001
0000
0100
0000
0001
0000
1000
0000
,
0000
0010
0100
0000
0001
1000
0100
1000
,
0010
0010
0010
0000
0100
0001
1000
0100
,
0000
0100
0010
0100
1000
1000
0001
0001
,
0100
0000
0100
0010
0100
0000
0000
0000
0001
0000
0010
0000
0001
0000
1000
0000
,
0000
0100
0010
0000
0001
1000
0010
0100
,
0001
0100
1000
0100
0001
0010
1000
0010
,
0001
0000
1001
0000
0000
0000
0110
0000
0000
0000
1000
0000
0001
1000
0001
0000
,
0010
0001
1000
0010
0100
0001
0100
0010
,
1000
0100
1000
0001
1000
0100
0010
0100
,
1000
0100
0001
0100
1000
0010
0100
0001
,
0100
1000
0100
0002
0000
0000
2003
0000
,
3100
0010
0010
0001
1000
0100
1000
0010
,
0100
0010
1000
0001
0010
1000
0010
0001
,
1000
0000
0100
1100
0000
0010
0000
0101
,
0000
1000
0000
0110
0000
0001
1000
1000
,
0001
0000
0000
0001
0010
0000
0000
0000
1000
0000
0000
1000
0010
0000
0000
0000
,
0100
0010
0100
0001
1000
0000
0001
0000
,
1000
0100
0000
0000
0110
0000
0000
0000
0001
0010
0000
0000
1100
0000
0000
0000
,
0001
0100
0010
1000
0001
0000
1001
0000
,
0210
0010
0010
0310
,
2001
0000
0001
0000
0100
0000
3100
0010
,
0000
0010
0001
1001
0000
1000
0010
0100
,
0220
0000
0000
0000
0000
0000
0000
0330
,
1010
0000
0000
1001
0000
0000
0011
0000
0000
0110
0000
0000
0011
0000
1100
0000
,
0001
1000
0001
0000
0100
0010
0000
0200
0000
0000
0300
0000
0000
0000
0000
0000
,
1001
0000
0100
0000
0001
0010
0100
1000
,
0000
0001
1000
0100
0000
0010
0001
0100
,
0110
0000
1000
0000
0001
1000
0100
0010
,
0000
0001
1000
0010
0000
0100
0001
0100
,
1001
0000
0010
0000
1000
0001
0100
0010
,
0000
1000
0100
0001
0000
0100
0010
0100
,
0010
0010
1001
0000
0100
0100
1001
0000
,
0010
0000
0001
0000
1000
0000
0110
0000
0000
0000
0001
0000
1000
0001
1000
0000
,
0010
0000
0100
0000
0001
1000
0100
0010
,
0000
0010
0100
1000
0000
0001
0100
0010
,
1010
0000
0011
0000
1010
0000
0001
0010
,
0000
0010
1000
0001
0000
1000
0100
0010
,
0100
0010
0100
0010
0100
0010
0001
1000
,
0001
1000
0100
1000
0010
0100
0001
0010
,
0110
0100
1100
1000
1001
0001
0101
0100
,
0110
0000
0000
0000
0000
0000
0100
0001
1000
0100
0000
0000
,
0110
0100
1000
1000
0001
0010
0000
0010
,
0001
0100
1000
0200
0000
0000
0300
0001
,
0000
0010
0000
1000
0000
0100
0001
0000
,
1000
0010
0100
0002
1000
1000
1000
1003
,
0010
0100
0001
0010
0100
1000
0010
0100
,
0001
1000
0100
0010
0001
2000
0000
0000
,
3001
0010
0100
0010
0001
0001
1000
1000
,
0010
0110
0000
1001
0000
0101
0000
1000
,
2010
0000
0000
0000
3100
0000
0000
0000
0002
0000
0000
0100
0000
0000
0103
0000
,
0000
0001
2000
0000
0100
0000
3100
0100
,
0120
0000
0000
0000
0031
0000
0000
0000
0200
0000
0000
0010
0000
0000
0310
0000
,
0000
0000
0100
0000
0002
0000
0000
0000
0003
0000
0100
0001
0100
0000
0001
0000
,
0012
0000
0000
0000
0000
0000
0000
0000
1003
0000
0000
1000
0000
0000
0010
0000
,
2010
0000
0000
0000
3002
0000
0000
0000
0013
0000
0000
0010
0000
0000
0100
0000
,
0110
0000
0010
0001
0010
0000
0001
0000
1001
0000
1000
0100
1000
0000
0010
0000
,
0220
0000
0000
0330
,
0001
0000
0010
0100
0010
0000
0001
0000
1000
0000
0010
0000
0100
0000
0001
0000
,
1000
0000
0010
0100
0010
0000
1000
0000
0100
0000
0010
0000
0001
0000
1000
0000
,
0100
0100
0100
1000
0010
0100
0001
1000
,
0100
0010
0001
0100
0010
0010
0100
0100
,
0110
0000
1000
0001
1000
0000
0100
0000
0010
0000
0001
0000
1000
0000
0010
0000
,
0100
0000
0001
1000
0001
0000
0010
0000
0100
0000
1000
0000
0001
0000
0100
0000
,
0010
1000
0010
0100
0001
0100
0001
0100
,
0001
0011
0000
1100
0000
1010
0000
0101
,
1001
0000
1000
0100
0000
0000
0010
0000
0000
0000
0000
0100
1000
0000
0001
0000
,
0100
0000
0100
0010
0000
0000
1000
0000
0000
0000
0000
0001
0010
0000
0100
0000
,
1000
0000
1000
0001
0000
0000
0100
0000
0000
0000
0000
0010
1000
0000
0100
0000
,
0010
0000
0000
0110
0000
0000
0100
0000
1100
0000
1000
0000
1001
0000
0100
0000
,
0001
0000
0001
0100
0000
0000
0010
0000
0000
0000
0000
0100
0001
0000
1000
0000
,
0100
0000
0100
0010
0000
0000
0001
0000
0000
0000
0000
1000
0010
0000
0100
0000
,
0001
0001
1000
1000
0010
0010
0100
0100
,
0001
0100
0001
0100
0000
0010
0100
0010
1000
0000
1010
0000
1010
0000
1010
0000
,
1001
0000
0000
0000
;

//---------------dance-single - ----------------
#NOTEDATA:;
#CHARTNAME:;
#STEPSTYPE:dance-single;
#DESCRIPTION:;
#CHARTSTYLE:;
#DIFFICULTY:Challenge;
#METER:10;
#RADARVALUES:0.941107,1.000000,0.715145,0.580530,0.664664,629.000000,85.000000,69.000000,14.000000,0.000000,4.000000,0.000000,0.000000,0.941107,1.000000,0.715145,0.580530,0.664664,629.000000,85.000000,69.000000,14.000000,0.000000,4.000000,0.000000,0.000000;
#CREDIT:;
#NOTES:
0000
0000
0000
0000
,
1100
0000
0000
0000
0000
0000
0000
0000
1000
0000
0000
0001
0000
0000
1001
0000
,
0000
0000
0000
0000
0000
0000
0000
0000
0001
0100
0001
0000
0001
0100
0001
0000
,
1010
0000
0000
0000
0000
0000
0000
0000
0010
0000
0000
1000
0000
0000
1001
0000
,
0000
0000
1000
0100
1000
0000
1000
0100
1000
0000
1000
0100
0010
0000
0100
0000
,
0220
0000
0000
0000
0330
0000
0000
0000
0110
0000
0000
0010
0000
0000
0001
0000
,
2002
0000
0000
0000
3003
0000
0000
0000
1001
0000
0000
1000
0000
0000
0100
0000
,
0010
0000
0000
0100
0000
0000
1000
0100
1000
0000
0000
0010
0000
0000
0100
0004
,
0400
0000
0000
0000
0000
0000
0000
0000
0000
0000
0000
0303
MMMM
0000
0000
0000
,
1000
0010
1000
0010
1000
0000
0000
0000
0100
0000
1000
0000
0001
0000
0010
0000
,
0000
0000
0001
0100
0001
0000
0000
0000
1000
0000
0010
0000
0100
0000
0001
0000
,
1000
0100
1000
0100
1000
0000
0000
0000
0001
0000
0100
0000
0010
0000
1000
0000
,
0000
0000
0001
0010
0001
0000
0000
0000
1001
0000
1100
0000
1001
0000
0101
0000
,
1010
0000
1000
0001
1000
0000
0000
0000
0100
0000
0010
0000
0001
0000
0100
0000
,
0000
0000
0001
1000
0001
0000
0000
0000
1000
0000
0100
0000
0010
0000
0100
0000
,
1000
0010
0100
0010
1000
0001
0100
0001
0010
0100
0010
0100
1000
0001
1000
0001
,
0100
0110
0000
1001
0000
0020
0100
0130
,
0001
0000
1000
0100
1000
0000
0001
0100
0001
0000
1000
0010
1000
0000
0001
0010
,
0001
0000
1000
0100
1000
0000
0001
0010
0001
0000
1000
0010
1000
0000
0100
1000
,
0100
0000
0010
0001
0010
0000
0001
0100
0001
0000
1000
0100
1000
0000
0010
0100
,
0010
0000
1000
0001
1000
0000
0100
0010
0100
0000
1000
0001
1000
0000
0001
0100
,
0001
0000
1000
0010
1000
0000
0100
1000
0100
0000
0010
0001
0010
0000
0001
0100
,
0001
0000
1000
0010
1000
0000
1000
0100
0010
0000
0010
0100
1000
0000
0100
0000
,
1001
0000
1010
0101
0000
0110
0000
1001
,
0000
0000
0011
0000
0000
0000
1100
0000
0000
0000
0001
0000
0100
0001
0100
0001
,
0100
0000
0000
0100
1000
0000
0000
1000
0100
0000
0000
0100
0001
0000
0000
0001
,
1000
1000
0001
0010
0100
1000
0001
1000
,
0100
0000
0000
0100
0001
0000
0000
0001
0010
0000
0000
0010
1000
0000
0000
1000
,
0100
0000
0010
0000
0001
0000
0100
0000
0010
0000
0000
1000
0010
0000
0100
0000
,
0002
0000
0100
0000
0103
1000
0100
0010
,
0001
0000
0010
0000
1000
0000
0010
0001
,
0000
1000
0100
0001
0000
0001
0100
1000
,
0020
0000
0000
0000
0000
0000
0000
0030
,
1001
0000
0000
0011
0000
0000
0110
0000
0000
1100
0000
0000
0011
0000
1001
0000
,
1000
0001
0100
0000
0100
0010
0000
0110
0000
0000
0100
0000
0001
0000
1000
0000
,
1001
0000
0001
0000
0100
0001
0100
0000
0010
0000
1000
0000
0001
0100
0001
0000
,
1000
0000
0100
1000
0100
0000
1000
0000
0010
0000
0100
0000
0010
1000
0010
0000
,
0100
0000
0001
0000
1000
0100
1000
0000
0010
0000
0100
0000
0001
0100
0001
0000
,
1000
0000
0010
0000
0100
0001
0100
0000
0010
0000
1000
0001
1000
0000
0100
0000
,
0110
0000
0010
0000
0001
0010
0001
0000
0100
0000
0010
0000
1000
0010
1000
0000
,
0001
0000
0100
0010
0100
0000
0001
0000
1000
0000
0100
0000
0010
0001
0010
0000
,
0100
0100
1010
0000
0100
0100
0011
0000
,
1010
0000
0101
0000
0011
0000
1001
0000
0000
0000
0001
0000
0100
0001
0100
0000
,
0101
0000
0001
0000
1000
0100
1000
0000
0010
0000
0100
0000
0001
0100
0001
0000
,
1000
0000
0100
1000
0100
0000
0010
0000
0100
0000
1000
0000
0001
1000
0001
0000
,
0011
0000
1010
0000
1100
0000
0101
1000
,
0000
0001
0100
1000
0000
0001
0010
2000
,
0001
0000
0001
0000
0001
3100
0010
0002
,
0000
1000
0010
0103
,
1010
1000
1100
1000
1001
0001
0101
0001
,
0110
0000
0000
0000
0000
0000
1000
0100
0010
0011
0000
0000
,
2000
3200
2300
3200
2300
3020
0000
0230
,
0302
2003
3002
2003
3002
0000
0203
0000
0000
0000
0000
0000
0000
0000
2300
0000
,
0000
3200
0000
0302
0000
0023
0230
0000
,
2300
3002
0000
0043
0000
0000
0000
0000
,
0032
0000
2003
3200
0320
0230
2300
3020
0230
0302
2003
3200
0320
0032
0203
0302
,
2003
3020
0230
0302
2003
3200
0320
0230
2300
0000
3020
0000
0030
0000
0000
0000
,
2000
0000
0000
3000
2000
0000
0000
0000
3002
0000
0023
0000
0032
0000
0003
0000
0200
0000
0000
0300
0200
0000
0000
0000
0302
0000
2003
0000
3200
0000
2300
0000
,
3040
0000
0000
0000
0000
0000
0000
0030
,
1001
0000
0000
0000
0M00
0000
0000
0000
1010
0000
0000
0101
0000
0000
0011
0000
,
0000
M000
000M
0M00
0000
00M0
000M
1100
,
1001
0000
0000
0000
00M0
0000
0000
0000
0101
0000
0000
1010
0000
0000
1100
0000
,
0000
0000
000M
0000
M000
0000
00M0
0000
0001
0100
0001
0100
0001
0000
1000
0000
,
2002
0000
0000
0000
3003
0000
0000
0000
1010
0000
0000
0110
0000
0000
0101
0000
,
1001
0000
0000
0000
0000
0000
0000
0000
0011
0000
0000
1001
0000
0000
1100
0000
,
0011
0000
0000
1010
0000
0000
1100
0000
0011
0000
0000
1100
0000
0000
1001
0000
,
0220
0000
0000
0330
,
1000
0010
1000
0010
1000
0000
0001
0000
0010
0000
0100
0000
1000
0000
0001
0000
,
0100
0000
0001
1000
0001
0000
1000
0000
0010
0000
0100
0000
0001
0000
1000
0000
,
0100
0010
0100
0010
0100
0000
1000
0000
0001
0000
0100
0000
0010
0000
1000
0000
,
0001
0000
1000
0100
0010
0100
1000
0000
1010
0000
0101
0000
0011
0000
1100
0000
,
1001
0000
0001
0100
0001
0000
1000
0000
0010
0000
1000
0000
0100
0000
0010
0000
,
0100
0000
1000
0010
1000
0000
0001
0000
0100
0000
0010
0000
0100
0000
0001
0000
,
1000
0100
0010
0100
1000
0001
0100
0001
1000
0010
0100
0010
1000
0001
0100
0001
,
1000
1010
0000
0110
0000
1001
0000
1100
,
0001
0000
0001
0010
0000
0000
0100
1000
0000
0000
0001
1000
0010
0000
0000
0000
,
0100
0000
0100
0001
0000
0000
1000
0100
0000
0000
0010
0001
1000
0000
0000
0000
,
0100
0000
0100
0010
0000
0000
0001
1000
0000
0000
0010
0100
0001
0000
0000
0000
,
1000
0000
1000
0010
0000
0000
0100
0001
0010
0000
0100
1000
0010
0000
0010
0000
,
1000
0000
1000
0010
0000
0000
0100
0001
0000
0000
1000
0001
0010
0000
0000
0000
,
0100
0000
0100
1000
0000
0000
0001
0100
0000
0000
0010
1000
0001
0000
0000
0000
,
1000
0001
0100
0001
0010
0100
1000
0100
0010
0001
0100
0001
1000
0100
0010
0100
,
1000
0001
1000
0001
0000
0100
0001
0100
0010
0000
0110
0000
0110
0000
0110
0000
,
1001
0000
0000
0000
;

//---------------dance-single - ----------------
#NOTEDATA:;
#CHARTNAME:;
#STEPSTYPE:dance-single;
#DESCRIPTION:;
#CHARTSTYLE:;
#DIFFICULTY:Medium;
#METER:7;
#RADARVALUES:0.555289,0.558654,0.361779,0.159856,0.063101,400.000000,43.000000,19.000000,0.000000,0.000000,0.000000,0.000000,0.000000,0.555289,0.558654,0.361779,0.159856,0.063101,400.000000,43.000000,19.000000,0.000000,0.000000,0.000000,0.000000,0.000000;
#CREDIT:;
#NOTES:
0000
0000
0000
0000
,
0000
0000
0000
0000
,
0000
0000
0000
0000
,
0000
0000
0000
0000
,
0000
0000
0000
0000
,
0000
0000
0000
0000
,
0000
0000
0000
0000
,
0000
0000
0000
0000
,
0000
0000
0000
0000
,
1000
0100
1000
0000
0001
0100
0010
1000
,
0000
1000
0100
0000
1000
0001
1000
0001
,
0100
0010
0100
0000
0001
1000
0100
0010
,
0000
0010
0100
0000
1000
1000
0001
0001
,
0100
0010
0100
0000
0010
1000
0001
0100
,
0000
0100
0010
0000
1000
0100
0010
0001
,
1000
0100
0010
0100
1000
0010
0100
0010
,
1000
0001
0000
0110
0000
0000
0100
0000
,
1001
0000
0001
0100
0010
0000
0010
1000
,
0100
0000
0100
1000
0001
0000
0001
0010
,
0100
0000
0100
1000
0001
0000
0001
0100
,
0020
0000
0000
2030
0000
0000
3002
0000
,
0103
0000
0100
0010
1000
0000
1000
0100
,
0001
0000
0001
0100
0010
0100
0010
0000
,
0110
0000
1000
0001
0000
1000
0000
0010
,
0000
0100
0000
0010
0000
0000
0001
0000
,
1100
1001
0101
1001
,
0100
0010
1000
0001
0010
0000
0100
0000
,
0101
0110
0011
0110
,
1000
0100
0001
0100
1000
0000
1001
0000
,
0210
0000
0000
0000
0000
0302
2003
3200
,
0320
0000
0032
0000
2003
0000
3020
0130
,
0000
0001
1000
1000
0000
0001
0010
0001
,
2000
0000
0000
0000
,
3001
0000
0000
1000
0000
0000
0001
0000
0000
0010
0000
0000
0100
0000
0100
0000
,
0010
0000
0000
0000
0100
0000
0000
1001
0000
0000
0000
0000
0000
0000
0000
0000
,
1100
0000
0001
0000
1000
0001
0100
0010
,
0000
0010
1000
0100
0000
0100
1000
0001
,
0010
0000
0100
0000
1000
0001
0100
0010
,
0000
0010
1000
0001
0000
1000
0100
0010
,
0001
0000
1000
0000
0010
0100
0001
1000
,
0000
1000
0100
0010
0000
0010
0001
1000
,
0010
0010
0100
0000
0100
0100
0010
0000
,
1000
0001
0100
1000
0000
0000
0100
0000
,
1010
0000
0001
0000
1000
0010
0100
0001
,
0000
0001
0010
0100
0000
0100
0010
0001
,
0020
0000
0032
0000
2003
0000
3200
0310
,
0001
0100
0001
0100
0010
1000
0100
0020
,
0000
0000
0030
0000
0000
0001
0100
0020
,
0000
1030
0100
0001
,
1000
1000
0010
0010
0100
0100
0001
0001
,
1001
0000
0000
0000
0000
0000
1000
0100
0010
0001
0000
0000
,
1000
0100
1000
0100
1000
0010
0000
0010
,
0100
0000
0001
1000
0000
1000
0100
0010
,
0000
0010
0001
1000
0000
0100
0010
0000
,
0001
1000
0000
0010
1000
0001
1000
0001
,
1000
0100
0010
0100
1000
0100
0010
0100
,
1000
0010
0100
0010
1000
0001
0000
0000
,
0011
1100
1010
0101
,
1001
1000
0000
0001
0000
1000
0000
0010
,
0100
0010
0100
0010
,
1000
0001
1000
0001
,
0010
0100
0010
0100
,
1000
0010
0100
0001
,
1001
0000
0000
0000
0000
0000
0000
0000
0010
0000
0000
0100
0000
0000
0010
0000
,
0110
0000
0000
0000
0000
0000
0000
0000
1000
0000
0000
0001
0000
0000
1000
0000
,
1001
0000
0000
0010
0000
0000
0010
0000
1001
0000
0000
0100
0000
0000
0100
0000
,
0020
0000
0000
0030
,
1000
0001
0100
0001
1000
0010
0100
0001
,
0000
1000
0100
0000
0010
0001
0100
0001
,
1000
0100
1000
0000
0010
0100
0001
1000
,
0000
0100
1000
0000
1001
0000
0110
0000
,
1001
0000
0001
1000
0001
0100
0010
1000
,
0000
0001
1000
0000
0100
1000
0001
0010
,
0100
1000
0001
0100
0010
1000
0001
0010
,
0100
1100
0000
0110
0000
0101
0000
1001
,
0001
0000
0000
0011
0000
0000
0000
0000
1000
0000
0000
0000
1010
0000
0000
0000
,
0100
0000
0000
0101
0000
0000
0000
0000
0100
0000
0000
0000
1100
0000
0000
0000
,
0010
0000
0000
0110
0000
0000
0000
0000
0100
0000
0000
0000
1001
0000
0000
0000
,
1000
0000
0000
0001
0000
0000
1000
0000
0100
0000
0000
0000
0010
0000
0010
0000
,
0100
0000
0000
1010
0000
0000
0000
0000
0100
0000
0000
0000
0011
0000
0000
0000
,
1000
0000
0000
0101
0000
0000
0000
0000
0001
0000
0000
0000
1100
0000
0000
0000
,
0001
0010
0001
0010
0100
1000
0100
1000
,
0001
1000
0001
0000
0010
0010
0010
0010
,
0100
0000
0000
0000
;

//---------------dance-single - ----------------
#NOTEDATA:;
#CHARTNAME:;
#STEPSTYPE:dance-single;
#DESCRIPTION:;
#CHARTSTYLE:;
#DIFFICULTY:Easy;
#METER:5;
#RADARVALUES:0.383414,0.418991,0.227164,0.092548,0.000000,281.000000,27.000000,11.000000,0.000000,0.000000,0.000000,0.000000,0.000000,0.383414,0.418991,0.227164,0.092548,0.000000,281.000000,27.000000,11.000000,0.000000,0.000000,0.000000,0.000000,0.000000;
#CREDIT:;
#NOTES:
0000
0000
0000
0000
,
0000
0000
0000
0000
,
0000
0000
0000
0000
,
0000
0000
0000
0000
,
0000
0000
0000
0000
,
0000
0000
0000
0000
,
0000
0000
0000
0000
,
0000
0000
0000
0000
,
0000
0000
0000
0000
,
1000
1000
0001
0100
,
0010
0010
1000
0001
,
0100
0100
0001
1000
,
0100
0100
0010
0010
,
0001
0001
1000
0100
,
0010
0010
0100
1000
,
0001
0100
0010
1000
,
0001
1000
0000
0100
0000
0000
0000
0000
,
1000
1000
0010
0010
,
0100
0100
0001
0001
,
1000
0010
1000
0010
,
0100
0001
0100
0001
,
1000
1000
0100
0100
,
0010
0010
0001
1000
,
1001
0000
0001
1000
0000
0001
0000
1000
,
0000
0010
0000
0100
0000
0000
0000
0000
,
1010
0100
0011
0100
,
1000
0001
1000
0001
,
0100
1000
0010
0001
,
1000
0100
0001
0100
,
1001
0100
0100
0100
,
1010
0100
0100
0100
,
1001
0000
0000
0110
0000
0000
1010
0000
,
0202
0000
0000
0303
,
1000
1000
0010
0010
,
0101
1100
1001
0000
,
0110
0100
0001
1000
,
0010
0010
1000
0100
,
0001
0001
0010
0100
,
1000
1000
0001
0100
,
0010
0010
1000
0001
,
0100
0100
0010
0100
,
1000
0010
0001
0010
,
0100
0010
0100
0010
,
1001
1000
0100
0010
,
0001
0001
0100
0001
,
0010
0010
0100
0100
,
0001
1000
0001
1000
,
0020
0100
0100
0100
,
2030
3002
0203
0320
,
1030
1000
0001
0001
,
1001
0000
0100
0100
,
1000
0010
0100
0001
,
0010
0100
0001
0100
,
1000
0010
0001
0010
,
0100
0010
1000
0001
,
0010
0100
0010
0100
,
1000
0001
1000
0001
,
0010
1000
0100
0001
,
0010
0100
0000
0010
0000
0100
0000
1000
,
0002
0100
0100
0103
,
2000
0100
0000
3100
,
0002
0010
0010
0013
,
2000
0001
0000
3010
,
1001
0000
0100
0000
,
0110
0000
0001
0000
,
1001
0100
1010
0100
,
0011
0000
0000
0000
,
1000
1000
0100
0100
,
0010
0010
0100
0100
,
0001
0001
0100
0100
,
0010
0010
0100
0001
,
1000
1000
0010
0010
,
0100
0100
0010
0010
,
0001
1000
0010
0100
,
0001
0010
0100
1000
,
0001
0100
0001
0101
,
1000
0100
1000
1100
,
0001
1000
0001
1001
,
0100
0010
0100
0110
,
1000
0010
1000
1010
,
0001
0010
0001
0011
,
1000
0100
0001
0010
,
1000
1000
0001
0001
,
1001
0000
0000
0000
;

//---------------dance-single - ----------------
#NOTEDATA:;
#CHARTNAME:;
#STEPSTYPE:dance-single;
#DESCRIPTION:;
#CHARTSTYLE:;
#DIFFICULTY:Beginner;
#METER:3;
#RADARVALUES:0.221154,0.314243,0.075721,0.033654,0.000000,171.000000,9.000000,4.000000,0.000000,0.000000,0.000000,0.000000,0.000000,0.221154,0.314243,0.075721,0.033654,0.000000,171.000000,9.000000,4.000000,0.000000,0.000000,0.000000,0.000000,0.000000;
#CREDIT:;
#NOTES:
// measure 0
0000
0000
0000
0000
,  // measure 1
0000
0000
0000
0000
,  // measure 2
0000
0000
0000
0000
,  // measure 3
0000
0000
0000
0000
,  // measure 4
0000
0000
0000
0000
,  // measure 5
0000
0000
0000
0000
,  // measure 6
0000
0000
0000
0000
,  // measure 7
0000
0000
0000
0000
,  // measure 8
0000
0000
0000
0000
,  // measure 9
1000
1000
0000
0000
,  // measure 10
0010
0010
0000
0000
,  // measure 11
0001
0001
0000
0000
,  // measure 12
0010
0010
0000
0000
,  // measure 13
1000
1000
0000
0000
,  // measure 14
0010
0010
0000
0000
,  // measure 15
0001
0000
1000
0000
,  // measure 16
0100
0000
0000
0000
,  // measure 17
1000
1000
1000
0000
,  // measure 18
0100
0100
0100
0000
,  // measure 19
0010
0010
0010
0000
,  // measure 20
0001
0001
0001
0000
,  // measure 21
1000
1000
1000
0000
,  // measure 22
0100
0100
0100
0000
,  // measure 23
0210
0000
0000
0000
,  // measure 24
0000
0000
0000
0300
0000
0000
0000
0000
,  // measure 25
1000
0000
0001
0000
,  // measure 26
0100
0000
0000
0000
,  // measure 27
0001
0000
0010
0000
,  // measure 28
1000
0000
0000
0000
,  // measure 29
1001
1000
1000
1000
,  // measure 30
1001
0001
0001
0001
,  // measure 31
1001
0000
0100
0100
,  // measure 32
0110
0000
0000
0000
,  // measure 33
0020
0000
0000
0000
,  // measure 34
0130
0000
0000
0000
,  // measure 35
1000
0000
1000
0000
,  // measure 36
0100
0000
0010
0000
,  // measure 37
0001
0000
0001
0000
,  // measure 38
0100
0000
0010
0000
,  // measure 39
1000
0000
1000
0000
,  // measure 40
0010
0000
0100
0000
,  // measure 41
0001
1000
0001
1000
,  // measure 42
1001
0000
0000
0000
,  // measure 43
1000
0000
0100
0000
,  // measure 44
0001
0000
0100
0000
,  // measure 45
1000
0000
0010
0000
,  // measure 46
0001
0000
0010
0000
,  // measure 47
0100
0100
0100
0000
,  // measure 48
0010
0010
0010
0000
,  // measure 49
1000
0001
1000
0001
,  // measure 50
1000
0000
0100
0100
,  // measure 51
1000
0000
0010
0000
,  // measure 52
0100
0100
0000
0000
,  // measure 53
1000
0000
0001
0000
,  // measure 54
0100
0000
0010
0010
,  // measure 55
1000
0000
0100
0000
,  // measure 56
0001
0000
0010
0000
,  // measure 57
1000
1000
0001
0001
,  // measure 58
1001
0000
0000
0000
,  // measure 59
0100
0000
0010
0000
,  // measure 60
1000
0000
0001
0000
,  // measure 61
0010
0000
0100
0000
,  // measure 62
1000
0000
0001
0000
,  // measure 63
0100
0000
0100
0100
,  // measure 64
0010
0000
0010
0010
,  // measure 65
1000
1000
0001
0001
,  // measure 66
2002
0000
0000
3003
,  // measure 67
1000
1000
1000
0000
,  // measure 68
0001
0001
0010
0000
,  // measure 69
0100
0100
0100
0000
,  // measure 70
1000
1000
0010
0000
,  // measure 71
0100
0100
0100
0000
,  // measure 72
0010
0010
0001
0000
,  // measure 73
1000
0000
0010
0000
,  // measure 74
1001
0000
0000
0000
,  // measure 75
1000
0000
1000
0000
,  // measure 76
0010
0000
0010
0000
,  // measure 77
0001
0000
0001
0000
,  // measure 78
0100
0000
0100
0000
,  // measure 79
1000
0000
1000
0000
,  // measure 80
0010
0000
0010
0000
,  // measure 81
0001
1000
0001
1000
,  // measure 82
0001
1000
0001
1000
,  // measure 83
0100
0000
0000
0000
;
