#VERSION:0.82;
#TITLE:Z;
#SUBTITLE:;
#ARTIST:Eptic & MUST DIE!;
#TITLETRANSLIT:;
#SUBTITLETRANSLIT:;
#ARTISTTRANSLIT:;
#GENRE:;
#ORIGIN:;
#CREDIT:;
#BANNER:[Round 3] - Z.png;
#BACKGROUND:[Round 3] - Z-bg.png;
#PREVIEWVID:;
#JACKET:[Round 3] - Z-jacket.png;
#CDIMAGE:;
#DISCIMAGE:;
#LYRICSPATH:;
#CDTITLE:cdtitle.png;
#MUSIC:[Round 3] - Z.mp3;
#OFFSET:-0.180000;
#SAMPLESTART:52.453514;
#SAMPLELENGTH:13.714283;
#SELECTABLE:YES;
#BPMS:0.000=140.000,
120.000=70.000,
122.000=140.000,
124.000=70.000,
125.000=140.000,
187.000=70.000,
188.000=140.000;
#STOPS:;
#DELAYS:;
#WARPS:;
#TIMESIGNATURES:0.000=4=4;
#TICKCOUNTS:0.000=4;
#COMBOS:0.000=1;
#SPEEDS:0.000=1.000=0.000=0;
#SCROLLS:0.000=0.500,
60.000=0.600,
61.000=0.700,
62.000=0.800,
63.000=0.900,
64.000=1.000,
96.000=0.500,
112.000=0.600,
113.000=0.700,
114.000=0.800,
115.000=0.900,
116.000=1.000,
117.000=1.100,
118.000=1.200,
119.000=1.300,
120.000=1.000,
125.000=1.500,
125.333=0.800,
125.667=1.500,
126.000=0.800,
126.333=1.500,
126.667=0.800,
127.000=1.500,
127.333=0.800,
127.667=1.000,
129.000=1.500,
129.167=0.500,
129.333=1.500,
129.500=0.500,
129.667=1.500,
129.833=0.500,
130.000=2.000,
130.250=1.500,
130.500=1.000,
130.750=0.500,
131.000=1.500,
131.333=0.800,
131.667=1.000,
133.000=1.500,
133.167=0.500,
133.333=1.500,
133.500=0.500,
133.667=1.500,
133.833=0.500,
134.000=2.000,
134.167=1.500,
134.333=1.000,
134.500=0.500,
134.667=1.000,
135.000=1.250,
135.333=0.500,
135.667=1.250,
136.000=0.500,
136.333=1.250,
137.000=1.000,
137.333=1.500,
137.667=0.800,
138.000=1.500,
138.333=0.800,
138.667=1.000,
139.333=1.500,
139.667=0.800,
140.000=2.000,
140.250=1.500,
140.500=1.000,
140.750=0.500,
141.000=1.250,
141.333=0.500,
141.667=1.250,
142.000=0.500,
142.333=1.250,
142.667=0.500,
143.000=1.500,
143.333=0.800,
143.667=1.000,
145.000=1.500,
145.167=0.500,
145.333=1.500,
145.500=0.500,
145.667=1.500,
145.833=0.500,
146.000=2.000,
146.167=1.500,
146.333=1.000,
146.500=0.500,
146.667=1.000,
147.000=1.500,
147.333=0.800,
147.667=1.000,
149.000=1.500,
149.167=0.500,
149.333=1.500,
149.500=0.500,
149.667=1.500,
149.833=0.500,
150.000=2.000,
150.167=1.500,
150.333=1.000,
150.500=0.500,
150.667=1.000,
151.000=1.500,
151.167=0.500,
151.333=1.500,
151.500=0.500,
151.667=1.500,
151.833=0.500,
152.000=2.000,
152.167=1.500,
152.333=1.000,
152.500=0.500,
152.667=1.000,
157.000=1.500,
157.333=0.800,
157.667=1.500,
158.000=0.800,
158.333=1.500,
158.667=0.800,
159.000=1.500,
159.333=0.800,
159.667=1.000,
161.000=1.500,
161.167=0.500,
161.333=1.500,
161.500=0.500,
161.667=1.500,
161.833=0.500,
162.000=2.000,
162.167=1.500,
162.333=1.000,
162.500=0.500,
162.667=1.000,
165.000=1.500,
165.167=0.500,
165.333=1.500,
165.500=0.500,
165.667=1.500,
165.833=0.500,
166.000=2.000,
166.167=1.500,
166.333=1.000,
166.500=0.500,
166.667=1.000,
167.000=1.500,
167.167=0.500,
167.333=1.500,
167.500=0.500,
167.667=1.500,
167.833=0.500,
168.000=2.000,
168.167=1.500,
168.333=1.000,
168.500=0.500,
168.667=1.000,
169.000=1.500,
169.167=0.500,
169.333=1.500,
169.667=0.500,
170.000=1.500,
170.333=0.500,
171.000=2.100,
172.000=2.000,
172.250=1.500,
172.500=1.000,
172.750=0.500,
173.000=1.500,
173.333=0.800,
173.667=1.500,
174.000=0.800,
174.333=1.500,
174.667=0.800,
175.000=1.500,
175.333=0.800,
175.667=1.000,
177.000=1.500,
177.167=0.500,
177.333=1.500,
177.500=0.500,
177.667=1.500,
177.833=0.500,
178.000=2.000,
178.167=1.500,
178.333=1.000,
178.500=0.500,
178.667=1.000,
179.000=1.500,
179.333=0.800,
179.667=1.000,
181.000=1.500,
181.167=0.500,
181.333=1.500,
181.500=0.500,
181.667=1.500,
181.833=0.500,
182.000=2.000,
182.167=1.500,
182.333=1.000,
182.500=0.500,
182.667=1.000,
183.000=1.500,
183.167=0.500,
183.333=1.500,
183.500=0.500,
183.667=1.500,
183.833=0.500,
184.000=2.000,
184.167=1.500,
184.333=1.000,
184.500=0.500,
184.667=1.000,
187.500=0.500,
188.000=1.500,
188.333=0.500,
189.000=1.500,
189.333=0.500,
190.000=1.500,
190.333=0.500,
191.000=1.500,
191.333=0.500,
192.000=1.500,
192.333=0.500,
193.000=1.500,
193.333=0.500,
194.000=1.500,
194.333=0.500,
195.000=2.000,
195.250=1.500,
195.500=1.000,
195.750=0.500,
196.000=1.500,
196.333=0.500,
197.000=1.500,
197.333=0.500,
198.000=1.500,
198.333=0.500,
199.000=1.500,
199.333=0.500,
200.000=1.500,
200.167=0.500,
201.000=1.500,
201.333=0.500,
202.000=1.500,
202.333=0.500,
203.000=2.000,
203.250=1.500,
203.500=1.000,
203.750=0.500,
204.000=1.500,
204.333=0.500,
205.000=1.500,
205.333=0.500,
206.000=1.500,
206.333=0.500,
207.000=1.500,
207.333=0.500,
208.000=1.500,
208.333=0.500,
209.000=1.500,
209.333=0.500,
210.000=1.500,
210.333=0.500,
211.000=2.000,
211.250=1.500,
211.500=1.000,
211.750=0.500,
212.000=1.500,
212.333=0.500,
213.000=1.500,
213.333=0.500,
214.000=1.500,
214.333=0.500,
215.000=1.500,
215.333=0.500,
216.000=1.000,
220.000=1.500,
220.333=0.500,
221.000=1.500,
221.333=0.500,
222.000=1.500,
222.333=0.500,
223.000=1.500,
223.333=0.500,
224.000=1.500,
224.333=0.500,
225.000=1.500,
225.333=0.500,
226.000=1.500,
226.333=0.500,
227.000=2.000,
227.250=1.500,
227.500=1.000,
227.750=0.500,
228.000=1.500,
228.333=0.500,
229.000=1.500,
229.333=0.500,
230.000=1.500,
230.333=0.500,
231.000=1.500,
231.333=0.500,
232.000=1.500,
232.167=0.500,
233.000=1.500,
233.333=0.500,
234.000=1.500,
234.333=0.500,
235.000=2.000,
235.250=1.500,
235.500=1.000,
235.750=0.500,
236.000=1.500,
236.333=0.500,
237.000=1.500,
237.333=0.500,
238.000=1.500,
238.333=0.500,
239.000=1.500,
239.333=0.500,
240.000=1.500,
240.333=0.500,
241.000=1.500,
241.333=0.500,
242.000=1.500,
242.333=0.500,
243.000=2.000,
243.250=1.500,
243.500=1.000,
243.750=0.500,
244.000=1.500,
244.333=0.500,
245.000=1.500,
245.333=0.500,
246.000=1.500,
246.333=0.500,
247.000=1.500,
247.333=0.500,
248.000=1.000,
259.167=0.250,
259.333=1.000,
259.500=0.250,
260.000=1.000,
260.167=0.250,
260.667=1.000,
260.833=0.250,
261.000=1.000,
261.250=0.910,
261.500=0.830,
261.750=0.750,
262.000=0.660,
262.250=0.580,
262.500=0.500,
262.750=0.410,
263.000=0.330,
263.250=0.250,
263.500=0.160,
263.750=0.083,
264.000=1.000;
#FAKES:;
#LABELS:0.000=Song Start;
#BGCHANGES:;
#KEYSOUNDS:;
#ATTACKS:
;

//---------------dance-single - BEGINNER----------------
#NOTEDATA:;
#CHARTNAME:xRGTMx-BEG;
#STEPSTYPE:dance-single;
#DESCRIPTION:BEGINNER;
#CHARTSTYLE:;
#DIFFICULTY:Beginner;
#METER:1;
#RADARVALUES:0.069351,0.114428,0.060682,0.000000,0.000000,49.000000,7.000000,0.000000,1.000000,0.000000,0.000000,0.000000,0.000000,0.069351,0.114428,0.060682,0.000000,0.000000,49.000000,7.000000,0.000000,1.000000,0.000000,0.000000,0.000000,0.000000;
#CREDIT:xRGTMx;
#NOTES:
0000
0000
0000
0000
,
0000
0000
0000
0000
,
0000
0000
0000
0000
,
0000
0000
0000
0000
,
0000
0000
0000
0000
,
0000
0000
0000
0000
,
0000
0000
0000
0000
,
0000
0000
0000
0000
,
1000
0000
0000
0000
,
0000
0000
0000
0000
,
0000
0000
0000
0000
,
0000
0000
0000
0000
,
0001
0000
0000
0000
,
0000
0000
0000
0000
,
0000
0000
0000
0000
,
0000
0000
0000
0000
,
1000
0000
0000
0000
,
1000
0000
0000
0000
,
0001
0000
0000
0000
,
0001
0000
0000
0000
,
1000
0000
0000
0000
,
1000
0000
0000
0000
,
0001
0000
0000
0000
,
0001
0000
0000
0000
,
0010
0000
0000
0000
,
0000
0000
0000
0000
,
0010
0000
0000
0000
,
0000
0000
0000
0000
,
0100
0000
0000
0000
,
0000
0000
0000
0000
,
0100
0000
0000
0000
,
0000
1001
0000
0000
,
0000
1000
0000
0000
,
0000
0100
0000
0000
,
0000
0010
0000
0000
,
0000
1001
0000
0000
,
0000
0001
0000
0000
,
0000
0100
0000
0000
,
0000
0010
0000
0000
,
0000
1001
0000
0000
,
0000
1000
0000
0000
,
0000
0010
0000
0000
,
0000
0100
0000
0000
,
0000
1001
0000
0000
,
0000
0001
0000
0000
,
0000
0010
0000
0000
,
0000
0100
0000
0000
,
1001
0000
0000
0000
,
1000
0000
0000
0000
,
0010
0000
0000
0000
,
0001
0000
0000
0000
,
0100
0000
0000
0000
,
0001
0000
0000
0000
,
0010
0000
0000
0000
,
1000
0000
0001
0000
,
1001
0000
0000
0000
,
0001
0000
0000
0000
,
0010
0000
0000
0000
,
1000
0000
0000
0000
,
0100
0000
0000
0000
,
1000
0000
0000
0000
,
0010
0000
0000
0000
,
0001
0000
1000
0000
,
0110
0000
0000
0000
,
0000
0000
0000
0000
,
0000
0000
0000
0000
,
0M00
0000
0000
0000
;

//---------------dance-single - S-CHALLENGE----------------
#NOTEDATA:;
#CHARTNAME:xRGTMx-CHA;
#STEPSTYPE:dance-single;
#DESCRIPTION:S-CHALLENGE;
#CHARTSTYLE:;
#DIFFICULTY:Challenge;
#METER:10;
#RADARVALUES:0.729419,1.000000,0.615486,1.000000,0.810534,383.000000,71.000000,135.000000,12.000000,2.000000,13.000000,0.000000,0.000000,0.729419,1.000000,0.615486,1.000000,0.810534,383.000000,71.000000,135.000000,12.000000,2.000000,13.000000,0.000000,0.000000;
#CREDIT:xRGTMx;
#NOTES:
0000
0000
0000
0000
,
0000
0000
0000
0000
,
0000
0000
0000
0000
,
0000
0000
0000
0000
,
0000
0000
0000
0000
,
0000
0000
0000
0000
,
0000
0000
0000
0000
,
0000
0000
0000
0000
,
0002
0000
0000
0000
0000
0000
0010
0000
0000
1000
0000
0200
,
0000
0000
0000
M010
,
0000
0000
0000
0000
,
0000
0000
0000
0300
,
2003
0000
0000
0000
0000
0000
0010
0000
0000
0001
0000
0200
,
0000
0000
0000
0000
0000
0000
001M
3000
,
0020
0000
0000
0300
,
0031
0000
0010
0001
0100
0001
1000
0100
0010
0001
0100
0010
,
1010
0000
0000
1001
0000
0000
0011
0000
0000
0101
0000
0100
,
0010
0000
0010
1000
0000
1000
0001
0000
0001
0010
0000
0000
,
0110
0000
0000
1100
0000
0000
1000
0010
0100
0001
0000
0010
,
0001
0000
0001
0100
0000
0100
1000
0000
1000
0010
0000
0010
,
0001
0000
0000
1001
0000
0000
1010
0000
0000
0110
0000
0100
,
0001
0000
0001
0010
0000
0010
1000
0000
1000
0100
0000
0100
,
0001
0000
0000
1001
0000
0000
0101
0000
0000
1100
0000
1000
,
0020
0030
0010
0200
0300
0100
0010
0000
0010
1000
0001
0000
,
0120
0001
0001
1000
,
1000
0000
0000
0100
0000
0000
0100
0000
0000
0031
0000
0001
,
0200
1000
1000
0001
,
0001
0010
0010
0301
,
1000
0100
1000
0100
0010
0100
0010
0001
0010
0001
1000
0001
,
1000
0010
1000
0010
0100
0001
0100
0010
1000
0001
0010
0100
,
2000
0000
0000
0000
0000
3000
0000
0000
0000
0000
0000
0000
0001
0100
0001
0100
0010
0100
0010
1000
0010
1000
0001
1000
,
0001
0000
0000
0000
0000
0000
0440
0000
0000
0000
0000
0000
0000
0000
0000
0330
0000
0000
2002
0000
3003
0000
1000
0000
,
0001
0010
0100
1000
01M0
0100
0002
0000
0003
2020
3030
0010
,
0100
0001
1000
0001
01M0
0100
2000
0000
3001
0022
0033
2020
,
3030
0102
0103
0010
0100
0000
1001
0000
1000
0100
0010
0000
,
0220
0000
0330
2002
0003
0200
0300
0200
3300
2002
3003
0001
,
1000
0000
0010
0000
0100
0000
0001
0000
0M10
0000
0010
0000
2000
0000
0000
3000
1000
0000
0001
0000
0000
0000
0M10
0000
,
0010
1000
0100
1000
0M10
0010
0002
0000
1003
0001
0M10
0010
,
2000
0000
0000
3000
1000
0000
0020
0000
0000
0000
0031
0000
0010
0000
1000
0000
0100
0000
0001
0000
0000
0000
0001
0000
,
0010
0000
0000
0000
0000
0000
0440
0000
0000
0000
0000
0000
0000
0000
0000
0330
0000
0000
2002
0000
0000
3003
1000
0000
,
0100
0001
0100
1000
01M0
0100
0002
0000
1003
0101
0000
0001
,
0010
0100
1000
0001
01M0
0100
2000
0000
3001
1100
1000
0100
,
0002
0000
1003
0020
0001
0000
0100
0030
0010
0012
0000
0000
,
0200
0003
0000
0320
0030
0220
0330
2002
3003
1010
0000
0010
,
0100
0001
1000
0001
0M10
0010
2000
0000
3001
1010
0000
1000
,
0010
0100
0001
1000
0M10
0010
0002
0000
1003
0011
0001
0100
,
2000
0000
3001
0010
1000
0100
0010
0001
0100
0000
0000
0000
,
2002
3003
0000
1200
0300
1000
0200
0300
0010
0200
0300
0001
,
0200
0000
0000
0000
0300
0000
0000
0000
1000
0000
0000
0000
0020
0000
0000
0000
0030
0000
0000
0000
0001
0000
0000
0000
0020
0000
0000
0000
0030
0000
0000
0000
0100
0000
0000
0000
0040
0000
0000
0000
0000
0000
0000
0000
0000
0030
0000
0000
,
2002
3003
0000
0202
0303
0001
0200
0300
0010
0200
0300
1000
,
0200
0000
0300
0000
0000
0000
0000
0000
0001
0000
0000
0000
0020
0000
0000
0000
0030
0000
0000
0000
1000
0000
0000
0000
0020
0000
0000
0000
0030
0000
0000
0000
0100
0000
0000
0000
0040
0000
0000
0000
0000
0000
0000
0000
0000
0030
0000
0000
,
2002
3003
0000
2020
3030
0100
0002
0003
0100
2000
3000
0100
,
0002
0000
0000
0000
0003
0000
0000
0000
0010
0000
0000
0000
2000
0000
0000
0000
3000
0000
0000
0000
0010
0000
0000
0000
0200
0000
0000
0000
0300
0000
0000
0000
0100
0000
0000
0000
0040
0000
0000
0000
0000
0000
0000
0000
0000
0030
0000
0000
,
2002
3003
0000
0022
0033
0100
2000
3000
0100
0002
0003
0100
,
2000
0000
0010
0000
0000
3001
0102
0000
1000
0000
0000
0103
,
0220
0330
0000
2002
3003
1000
2200
3300
0001
0202
0303
1000
,
2020
0000
0000
0000
3030
0000
0000
0000
0001
0000
0000
0000
0022
0000
0000
0000
0033
0000
0000
0000
1000
0000
0000
0000
2002
0000
0000
0000
3003
0000
0000
0000
0001
0000
0000
0000
0440
0000
0000
0000
0000
0000
0000
0000
0000
0330
0000
0000
,
2002
0000
0000
3003
0000
0000
0000
0000
0000
0000
0000
0000
2002
0000
0000
3003
0000
0000
0000
0000
1000
0000
0000
0000
2020
0000
0000
0000
3030
0000
0000
0000
0001
0000
0000
0000
0022
0000
0000
0000
0033
0000
0000
0000
1000
0000
0000
0000
,
2200
0000
3300
0000
0000
0000
0000
0000
0001
0000
0000
0000
0202
0000
0000
0000
0303
0000
0000
0000
1000
0000
0000
0000
2002
0000
0000
0000
3003
0000
0000
0000
0001
0000
0000
0000
0440
0000
0000
0000
0000
0000
0000
0000
0000
0330
0000
0000
,
0220
0330
0000
2002
3003
1000
0202
0303
0001
2200
3300
1000
,
0022
0000
0000
0000
0033
0000
0000
0000
0001
0000
0000
0000
2020
0000
0000
0000
3030
0000
0000
0000
1000
0000
0000
0000
2002
0000
0000
0000
3003
0000
0000
0000
0001
0000
0000
0000
0440
0000
0000
0000
0000
0000
0000
0000
0000
0330
0000
0000
,
2002
3003
0000
2002
3003
1000
0022
0033
0001
2020
3030
1000
,
0001
0000
0010
0000
1000
0000
0001
0000
0100
0000
1000
0000
0010
0100
0010
0000
1000
0001
1000
0000
0100
0010
0100
0000
,
2002
0000
0000
0000
,
0000
0000
0000
0000
,
0000
0000
0000
0000
0000
0000
0000
0000
0000
0000
0000
0000
0000
0000
0000
0000
0000
0000
0000
0000
0000
0000
0000
0000
0000
0000
0000
0000
0000
0000
0000
3003
;

//---------------dance-single - S-EXPERT----------------
#NOTEDATA:;
#CHARTNAME:xRGTMx-ESP;
#STEPSTYPE:dance-single;
#DESCRIPTION:S-EXPERT;
#CHARTSTYLE:;
#DIFFICULTY:Hard;
#METER:9;
#RADARVALUES:0.584526,0.857806,0.407434,0.658830,0.732515,349.000000,47.000000,76.000000,0.000000,0.000000,14.000000,0.000000,0.000000,0.584526,0.857806,0.407434,0.658830,0.732515,349.000000,47.000000,76.000000,0.000000,0.000000,14.000000,0.000000,0.000000;
#CREDIT:xRGTMx;
#NOTES:
0000
0000
0000
0000
,
0000
0000
0000
0000
,
0000
0000
0000
0000
,
0000
0000
0000
0000
,
0000
0000
0000
0000
,
0000
0000
0000
0000
,
0000
0000
0000
0000
,
0000
0000
0000
0000
,
0001
0000
0000
0000
0000
0000
0010
0000
0000
0001
0000
2000
,
0000
0000
0000
0010
,
0000
0000
0000
0000
,
0000
0000
0000
3000
,
1000
0000
0000
0000
0000
0000
0010
0000
0000
1000
0000
0002
,
0000
0000
0000
0010
,
0000
0000
0000
0000
,
1003
0000
1000
0010
0100
0010
0100
0001
1000
0100
0010
0001
,
1000
0000
0000
1010
0000
0000
1001
0000
0000
0001
0000
0020
,
0000
0000
1000
0000
0000
0001
0000
0000
0130
0010
0000
0000
,
1001
0000
0000
0101
0000
0000
0001
0010
0001
1000
0000
1000
,
0000
0000
0010
0000
0000
0001
0000
0000
0100
0000
0000
1000
,
0001
0000
0000
1001
0000
0000
1010
0000
0000
1000
0000
0200
,
0000
0000
0001
0000
0000
0010
0000
0000
1300
0100
0000
0010
,
0001
0000
0000
1001
0000
0000
1010
0000
0000
0100
0000
0001
,
0010
0000
0010
0100
0000
0100
0010
0000
0010
0100
0010
0000
,
2001
0001
0100
0100
,
0010
0000
0000
0010
0000
0000
0001
0000
0000
3001
0000
1000
,
0002
1000
0100
0100
,
0010
0010
1000
1003
,
1000
0000
1000
0010
0000
0010
0100
0000
0100
0001
0000
0001
,
0100
0000
0100
0010
0000
0010
1000
0100
0010
0100
0010
0001
,
2000
0000
0000
0000
0000
0000
0000
0000
0000
0000
3000
0000
0000
0000
0000
0000
0000
0000
0000
0000
0000
0000
0000
0000
0220
0000
0000
0000
0000
0000
0000
0000
0000
0330
0000
0000
2002
0000
0000
0000
0000
0000
0000
0000
0000
3003
0000
0000
,
0000
0000
0000
0000
0000
0000
0000
0000
0000
0000
0000
0000
1400
0000
0000
0000
0000
0000
0000
0000
0000
0000
0000
0000
0000
0000
0000
0000
0000
0000
0000
0000
0000
0300
0000
0000
0110
0000
0000
0000
0000
0000
0000
0000
0010
0000
0000
0000
,
0001
0010
0001
0100
0001
0100
0020
0000
1030
0010
0000
0010
,
1000
0100
1000
0100
0001
0100
2000
0000
3001
2000
3000
2020
,
3030
0022
0033
0001
1000
0000
0110
0000
0001
1000
0010
0000
,
2002
0000
3003
2200
3300
0202
0303
2200
3300
1001
0000
1000
,
0010
0100
0010
0100
0001
1000
0200
0000
0310
0100
0000
1000
,
0010
0001
0010
1000
0100
0010
0002
0000
1003
0001
0010
0100
,
2000
0000
3001
1000
0000
0010
0100
0010
0100
0010
0000
1000
,
0001
0000
0000
0000
0000
0000
0000
0000
0000
0000
0000
0000
0401
0000
0000
0000
0000
0000
0000
0000
0000
0000
0000
0000
0000
0000
0000
0000
0000
0000
0000
0000
0000
0300
0000
0000
0110
0000
0000
0000
0000
0000
0000
0000
0010
0000
0000
0000
,
1000
0010
1000
0100
1000
0100
0020
0000
0031
0010
0000
0001
,
1000
0100
0001
0100
1000
0100
2000
0000
3001
1000
0010
1000
,
0020
0000
0130
0001
0010
0000
0110
0000
0100
2000
0000
0000
,
0002
0000
3003
2002
3003
0202
0303
2200
3300
1001
0000
0001
,
0100
0010
0100
0001
0010
0100
2000
0000
3100
1000
0000
0001
,
0010
1000
0010
0001
0100
0010
2000
0000
3001
1000
0010
0100
,
0002
0000
1003
0001
0010
0100
0010
0100
1000
0000
0000
0000
,
0220
0330
0000
2002
3003
1000
0001
0000
0001
0100
0000
0100
,
1000
0000
1000
0100
0000
0100
0001
0000
0001
0040
0000
0030
,
0220
0330
0000
2002
3003
1000
0100
0000
0100
0001
0000
0001
,
0100
0000
0100
1000
0000
1000
0010
0000
0100
0040
0000
0030
,
0220
0330
0000
2002
3003
0001
0010
0000
0010
1000
0000
1000
,
0010
0000
0010
0001
0000
0001
0100
0000
0100
0040
0000
0030
,
0220
0330
0000
2002
3003
1000
0010
0000
0010
0001
0000
0001
,
0010
0000
0100
0000
0000
0001
1000
0000
0100
0000
0000
0010
,
0200
0300
0000
2002
3003
1000
0010
0000
0100
0010
0000
0001
,
0010
0000
0100
0010
0000
1000
0010
0000
0100
0040
0000
0030
,
0220
0330
0000
2002
3003
0001
0010
0000
0100
0010
0000
1000
,
0010
0000
0100
0010
0000
0001
0010
0000
0100
0040
0000
0030
,
0220
0330
0000
2002
3003
1000
0100
0000
0100
0001
0000
0001
,
0100
0000
0100
1000
0000
1000
0010
0000
0100
0040
0000
0030
,
0220
0330
0000
2002
3003
0001
0010
0000
0100
1000
0000
0001
,
0100
0001
0010
0100
1000
0001
0440
0330
4004
3003
0440
0330
,
2002
0000
0000
0000
,
0000
0000
0000
0000
,
0000
0000
0000
0000
0000
0000
0000
0000
0000
0000
0000
0000
0000
0000
0000
0000
0000
0000
0000
0000
0000
0000
0000
0000
0000
0000
0000
0000
0000
0000
0000
3003
;

//---------------dance-single - S-DIFFICULT----------------
#NOTEDATA:;
#CHARTNAME:xRGTMx-DSP;
#STEPSTYPE:dance-single;
#DESCRIPTION:S-DIFFICULT;
#CHARTSTYLE:;
#DIFFICULTY:Medium;
#METER:7;
#RADARVALUES:0.396289,0.457497,0.554804,0.182045,0.199383,235.000000,64.000000,21.000000,0.000000,0.000000,3.000000,0.000000,0.000000,0.396289,0.457497,0.554804,0.182045,0.199383,235.000000,64.000000,21.000000,0.000000,0.000000,3.000000,0.000000,0.000000;
#CREDIT:xRGTMx;
#NOTES:
0000
0000
0000
0000
,
0000
0000
0000
0000
,
0000
0000
0000
0000
,
0000
0000
0000
0000
,
0000
0000
0000
0000
,
0000
0000
0000
0000
,
0000
0000
0000
0000
,
0000
0000
0000
0000
,
1000
0000
0000
0000
0000
0000
0010
0000
0000
0100
0000
0100
,
0000
0000
0000
0010
,
0000
0000
0000
0000
,
0000
0000
0000
0000
,
0001
0000
0000
0000
0000
0000
0010
0000
0000
0100
0000
0100
,
0000
0000
0000
0010
,
0000
0000
0000
0000
,
1000
0000
0000
0001
0000
0000
0100
0010
0100
0010
0000
0000
,
1001
1000
0100
0100
,
0010
0001
0100
0001
,
1001
1000
0100
0100
,
0010
0000
0000
0001
0000
0000
0100
0000
0000
0010
0000
0010
,
0100
1001
1000
0100
,
0010
0001
1000
0010
,
1001
0001
0010
0100
,
1000
0000
0000
0010
0000
0000
0100
0000
0010
0100
0010
0000
,
1001
1000
1000
1000
,
0100
0100
0100
0100
,
1001
0001
0001
0001
,
0100
0100
0100
0100
,
1001
1000
0100
0100
,
0010
0000
0010
0001
0000
0001
0100
0000
0100
0001
0000
0001
,
2000
0000
0000
0000
0000
3000
0000
0000
0000
0000
0000
0000
0220
0000
0000
0330
0000
0000
2002
0000
0000
3003
0000
0000
,
0000
0020
0000
0130
,
0001
0000
0000
1000
0000
1000
0001
0000
0001
1000
0000
0000
,
0010
0000
0000
0100
0000
0100
0010
0000
0000
2002
0000
0000
,
0000
3003
0000
0001
0100
0000
0100
0000
0100
0010
0000
0000
,
2000
0000
0000
3001
0000
0001
0000
1000
0000
0001
0000
0000
,
1000
0000
0000
0100
0000
0100
0010
0000
0010
0100
0000
0000
,
1000
0000
0000
0001
0000
1000
0001
0000
0000
0100
0000
0010
,
0100
0002
0010
0203
,
1000
0302
0000
1003
,
0100
0000
0000
0010
0100
0010
0100
0000
0000
1000
0000
0000
,
0001
0000
0000
0100
0010
0100
0010
0000
0000
1000
0001
1000
,
0001
0000
0000
1000
0100
0000
0100
0000
0100
0020
0000
0000
,
0000
0000
0000
0031
0000
0000
0000
0000
0001
1000
0000
0000
,
0010
0000
0000
0100
0010
0100
0010
0000
0000
0110
0000
0000
,
1001
0000
0000
1000
0001
1000
0001
0000
0000
0010
0100
0010
,
0100
0000
0000
1000
0000
0001
0000
1000
0000
0000
0000
0000
,
0110
1001
0101
1100
,
0101
0000
0000
0000
1100
0000
0000
0000
1001
0000
0000
0000
0020
0000
0000
0030
,
0110
1001
1100
0101
,
1100
0000
0000
0000
0101
0000
0000
0000
1001
0000
0000
0000
0020
0000
0000
0030
,
0110
1001
0011
1010
,
0011
0000
0000
0000
1010
0000
0000
0000
1001
0000
0000
0000
0020
0000
0000
0030
,
0110
1001
1010
0011
,
1010
0000
0100
0000
0000
0001
1000
0000
0100
0010
0000
0000
,
0110
1001
1010
1100
,
0011
0000
0000
0000
0101
0000
0000
0000
1001
0000
0000
0000
0020
0000
0000
0030
,
0110
1001
0011
0101
,
1010
0000
0000
0000
1100
0000
0000
0000
1001
0000
0000
0000
0020
0000
0000
0030
,
0110
1001
1100
1010
,
0101
0000
0000
0000
0011
0000
0000
0000
1001
0000
0000
0000
0020
0000
0000
0030
,
0110
1001
0101
0011
,
0100
0000
0100
1000
0000
1000
0004
0003
0400
0300
0040
0030
,
2002
0000
0000
0000
,
0000
0000
0000
0000
,
0000
0000
0000
0000
0000
0000
0000
0000
0000
0000
0000
0000
0000
0000
0000
0000
0000
0000
0000
0000
0000
0000
0000
0000
0000
0000
0000
0000
0000
0000
0000
3003
;

//---------------dance-single - S-BASIC----------------
#NOTEDATA:;
#CHARTNAME:xRGTMx-BSP;
#STEPSTYPE:dance-single;
#DESCRIPTION:S-BASIC;
#CHARTSTYLE:;
#DIFFICULTY:Easy;
#METER:3;
#RADARVALUES:0.194429,0.257342,0.121363,0.052013,0.000000,137.000000,14.000000,6.000000,0.000000,0.000000,0.000000,0.000000,0.000000,0.194429,0.257342,0.121363,0.052013,0.000000,137.000000,14.000000,6.000000,0.000000,0.000000,0.000000,0.000000,0.000000;
#CREDIT:xRGTMx;
#NOTES:
// measure 0
0000
0000
0000
0000
,  // measure 1
0000
0000
0000
0000
,  // measure 2
0000
0000
0000
0000
,  // measure 3
0000
0000
0000
0000
,  // measure 4
0000
0000
0000
0000
,  // measure 5
0000
0000
0000
0000
,  // measure 6
0000
0000
0000
0000
,  // measure 7
0000
0000
0000
0000
,  // measure 8
1000
0000
0100
0000
,  // measure 9
0000
0000
0000
0010
,  // measure 10
0000
0000
0000
0000
,  // measure 11
0000
0000
0000
0000
,  // measure 12
0001
0000
0100
0000
,  // measure 13
0000
0000
0000
0010
,  // measure 14
0000
0000
0000
0000
,  // measure 15
1000
1000
0001
0001
,  // measure 16
1000
0000
0100
0000
,  // measure 17
0010
0100
0010
0000
,  // measure 18
0001
0000
1000
0000
,  // measure 19
0010
0100
0010
0000
,  // measure 20
1000
0000
0100
0000
,  // measure 21
0010
0100
1000
0000
,  // measure 22
0001
0000
0100
0000
,  // measure 23
0010
0100
0001
1000
,  // measure 24
1002
0000
0000
0000
,  // measure 25
0003
0000
0000
0000
,  // measure 26
2000
0000
0000
0000
,  // measure 27
3000
0000
0000
0000
,  // measure 28
0001
0000
0010
0000
,  // measure 29
0100
0100
1000
0001
,  // measure 30
2000
0000
0000
0000
0000
3000
0000
0000
0000
0000
0000
0000
0020
0000
0000
0000
0000
0000
0000
0000
0000
0000
0000
0000
,  // measure 31
0030
1001
0000
1000
,  // measure 32
0000
0100
0000
0001
,  // measure 33
0000
0010
0000
1000
,  // measure 34
0000
0001
1000
0001
,  // measure 35
0000
1001
0000
0001
,  // measure 36
0000
0100
0000
1000
,  // measure 37
0000
0010
0000
0001
,  // measure 38
0000
1000
0001
1000
,  // measure 39
0000
0110
0000
1000
,  // measure 40
0000
0100
0000
0001
,  // measure 41
0000
0010
0000
1000
,  // measure 42
0000
0100
0010
0001
,  // measure 43
0000
0110
0000
0001
,  // measure 44
0000
0100
0000
1000
,  // measure 45
0000
0010
0000
0001
,  // measure 46
0000
0100
0010
0000
,  // measure 47
1001
0100
0100
0100
,  // measure 48
0100
0100
0100
0100
,  // measure 49
1001
0100
0100
0100
,  // measure 50
0100
0100
0100
0100
,  // measure 51
1001
0010
0010
0010
,  // measure 52
0010
0010
0010
0010
,  // measure 53
1001
0010
0010
0010
,  // measure 54
0010
0000
0100
0000
,  // measure 55
1001
0100
0100
0100
,  // measure 56
0100
0100
0100
0010
,  // measure 57
1001
0010
0010
0010
,  // measure 58
0010
0010
0010
0100
,  // measure 59
1001
0100
0100
0100
,  // measure 60
0010
0010
0010
0100
,  // measure 61
1001
0100
0100
0100
,  // measure 62
0010
0000
0100
0000
,  // measure 63
2002
0000
0000
0000
,  // measure 64
0000
0000
0000
0000
,  // measure 65
0000
0000
0000
0000
0000
0000
0000
0000
0000
0000
0000
0000
0000
0000
0000
0000
0000
0000
0000
0000
0000
0000
0000
0000
0000
0000
0000
0000
0000
0000
0000
3003
;
