#TITLE:オオエドランヴ;
#SUBTITLE:;
#ARTIST:ギガP feat. れをる & nqrse;
#TITLETRANSLIT:Ooedo Ranvu;
#SUBTITLETRANSLIT:;
#ARTISTTRANSLIT:GigaP feat. Reol & nqrse;
#GENRE:;
#CREDIT:;
#BANNER:[Round 3] - Ooedo Ranvu.png;
#BACKGROUND:[Round 3] - Ooedo Ranvu-bg.png;
#LYRICSPATH:;
#CDTITLE:cdtitle.png;
#MUSIC:[Round 3] - Ooedo Ranvu.mp3;
#OFFSET:-0.347000;
#SAMPLESTART:46.898167;
#SAMPLELENGTH:14.328358;
#SELECTABLE:YES;
#BPMS:0.000000=134.000000
;
#STOPS:
;
#BGCHANGES:0.000=[Round 3] - Ooedo Ranvu-bg.png=1.000=0=0=1=====,
99999=-nosongbg-=1.000=0=0=0 // don't automatically add -songbackground-
;
#KEYSOUNDS:;
#ATTACKS:;

//---------------dance-single - ----------------
#NOTES:
     dance-single:
     :
     Beginner:
     1:
     0.140466,0.188261,0.010573,0.116300,0.000000,81.000000,1.000000,11.000000,0.000000,0.000000,0.000000,0.140466,0.188261,0.010573,0.116300,0.000000,81.000000,1.000000,11.000000,0.000000,0.000000,0.000000:
0000
0000
0000
0000
,
0000
0000
0000
0000
,
1000
0000
0000
0000
,
1000
0000
0000
0000
,
1000
0000
0000
0000
,
0001
0000
0001
0000
,
0100
0000
0000
0000
,
0010
0000
0000
0000
,
0100
0000
0000
0000
,
0010
0000
0010
0000
,
1000
0000
0000
0000
,
0001
0000
0000
0000
,
0010
0000
0000
0000
,
0100
0000
0100
0000
,
0010
0000
0000
0000
,
0001
0000
0000
0000
,
0100
0000
0000
0000
,
0100
0000
0010
0000
,
1000
0000
0000
0000
,
1000
0000
0100
0000
,
0010
0000
0000
0000
,
0010
0000
0001
0000
,
1000
0000
0000
0000
,
1000
0000
0000
0000
,
0001
0000
0000
0000
,
1000
0000
0001
0000
,
1001
0000
1000
0000
,
0010
0000
1000
0000
,
0010
0000
0100
0000
,
0010
0000
0100
0000
,
0001
0000
0100
0000
,
0001
0000
0010
0000
,
0001
0000
1000
0000
,
0010
0000
1000
1000
,
0002
0000
0000
0003
,
0200
0000
0300
0010
,
0020
0000
0000
0030
,
1000
1000
1000
0000
,
0002
0000
0000
0003
,
0020
0000
0000
0030
,
0200
0000
0300
0100
,
1000
1000
0001
0001
,
2000
0000
0000
3000
,
0001
0000
0001
0000
,
1000
0000
1000
0000
,
0010
0000
0010
0000
,
2000
3000
0002
0003
,
1000
1000
0000
1000
,
0000
0001
0000
0001
,
0000
0100
0000
0100
,
0002
0000
0003
0000
2000
0000
0000
3000
;

//---------------dance-single - ----------------
#NOTES:
     dance-single:
     :
     Easy:
     4:
     0.285464,0.322732,0.063436,0.211454,0.000000,163.000000,6.000000,20.000000,0.000000,0.000000,0.000000,0.285464,0.322732,0.063436,0.211454,0.000000,163.000000,6.000000,20.000000,0.000000,0.000000,0.000000:
0000
0000
0000
0000
,
0000
0000
0000
0000
,
1001
0000
0001
0001
,
0100
0000
0100
0100
,
0010
0000
0010
0010
,
1000
0000
0001
1000
,
1001
0000
0001
0000
,
1000
0010
1000
1000
,
0001
0000
0010
0000
,
0001
0010
0001
0010
,
0100
0000
0010
0000
,
0100
1000
0001
0000
,
0100
0100
0001
0001
,
1000
1000
0001
0000
,
1001
0000
1000
0100
,
0010
0001
0010
0100
,
1000
0000
0001
0100
,
0010
1000
0010
0100
,
0120
0000
0000
0030
1000
0000
0001
0000
,
0200
0000
0000
0300
0001
0000
1000
0000
,
0200
0000
0000
0300
0010
0000
0001
0000
,
2000
0000
0000
3000
0010
0000
1000
0000
,
1010
0010
0100
0001
,
1000
0100
0010
0100
,
1000
0001
0100
0001
,
0020
2030
3020
0032
,
1003
0000
0100
0000
,
0010
0100
1000
0000
,
0001
0100
0010
0000
,
0010
0100
0002
0023
,
0130
0000
0010
0000
,
0001
0010
0100
0000
,
1000
0001
0010
0000
,
0001
1000
0010
0010
,
2000
0100
0000
0001
,
3002
1000
0000
0203
,
0320
1000
0000
0100
,
0230
0000
0000
0000
0002
0003
0020
0030
,
0301
1000
0100
1000
,
0001
0100
0010
1000
,
0001
0010
0100
0010
,
0001
1000
0010
1000
,
2020
0000
0000
3030
,
0010
0100
0010
0010
,
1000
0100
1000
1000
,
0001
0010
0001
0001
,
1000
0100
0010
0001
,
1000
0010
1000
1000
,
0001
0100
0001
0001
,
1000
0001
1000
1000
,
0001
0000
0100
0000
0010
0000
2000
3000
;

//---------------dance-single - ----------------
#NOTES:
     dance-single:
     :
     Medium:
     7:
     0.448586,0.376521,0.084582,0.105727,0.169164,279.000000,8.000000,10.000000,0.000000,0.000000,0.000000,0.448586,0.376521,0.084582,0.105727,0.169164,279.000000,8.000000,10.000000,0.000000,0.000000,0.000000:
0000
0000
0000
0000
,
0000
0000
0000
0000
,
1001
0000
0001
0000
1000
0000
0001
1000
,
0100
0000
0010
0000
0100
0000
0010
0100
,
1000
0000
0010
0000
1000
0000
0010
1000
,
0001
0000
0010
0000
0100
1000
0001
0000
,
0100
0000
0000
0000
0100
0000
0000
0000
0001
0000
0000
0001
0000
0000
0001
0000
,
1000
0000
0000
0000
1000
0000
0000
0000
0010
0000
0000
0010
0000
0000
0010
0000
,
1000
0000
0000
0000
1000
0000
0000
0000
0100
0000
0000
0100
0000
0000
0100
0000
,
0010
0001
1000
0000
0010
1000
0001
0000
,
0010
0000
0000
0000
0010
0000
0000
0000
0100
0000
0000
0100
0000
0000
0100
0000
,
1000
0000
0000
0000
1000
0000
0000
0000
0001
0000
0000
0001
0000
0000
0001
0000
,
0010
0000
0000
0000
0100
0000
0000
1000
0000
0001
0000
0000
0010
0000
0000
0000
,
0001
0000
0000
0100
0000
0000
0010
0000
1000
0000
0000
0000
0001
0000
0000
0000
,
1001
0000
0000
0000
1000
0000
0000
0000
0001
0000
0000
0000
1000
0000
0000
0100
,
0000
0100
0000
0000
0010
0000
0000
0100
0000
0100
0000
0000
1000
0000
0001
0000
,
0000
0010
0001
1000
0000
0010
1000
0001
,
0000
1000
0100
0001
0000
0001
0100
1000
,
0002
0000
0000
0003
1000
0100
0001
0100
,
2000
0000
0000
3000
0001
0010
1000
0010
,
0001
0000
0000
0001
0000
0000
0001
0000
1000
0000
0010
0000
0001
0000
0010
0000
,
0100
0000
0000
0001
0000
0000
1000
0000
0100
0000
0001
0000
1000
0000
0010
0000
,
0001
0000
0010
0000
0100
0000
0010
0001
,
1000
0000
0000
0000
0010
0000
0000
0000
0100
0000
0000
0001
0000
0000
0001
0000
,
0010
0000
0001
0000
1000
0100
0010
0100
,
0200
2300
3020
0032
,
0103
0000
0000
0000
1000
0000
0100
0000
0010
0000
0000
0001
0000
0000
0100
0000
,
0001
0000
1000
0100
0010
0000
0110
0000
,
0100
1000
0010
0000
0100
0001
0010
0000
,
0100
1000
0010
0001
0010
1000
0100
0000
,
0010
0000
0000
0000
0001
0000
0010
0000
0100
0000
0000
1000
0000
0000
0010
0000
,
1000
0000
0001
0010
0100
0000
0110
0000
,
0010
0001
0100
0000
0010
1000
0100
0000
,
1000
0001
0100
0000
0101
0000
1010
0000
,
2100
0000
0000
0100
0000
0000
0100
0000
0001
0000
0000
0000
0010
0000
0000
0000
,
3002
0000
0000
0100
0000
0000
0100
0000
1000
0000
0000
0000
0023
0000
0000
0000
,
0230
0000
0000
0010
0000
0000
0010
0000
0001
0000
0000
0000
1000
0000
0000
0000
,
0310
0001
0010
0001
0010
0100
1000
0010
,
0100
0000
0000
0001
0000
0000
0010
0000
0001
0000
0010
0000
0100
0000
0000
0000
,
1000
0000
0000
0010
0000
0000
0100
0000
0001
0000
0000
0000
0101
0000
0000
0000
,
0100
0000
0000
0010
0000
0000
0010
0000
1000
0000
0000
0001
0000
0000
0001
0000
,
1000
0100
0001
0100
1000
0010
0001
0010
,
1000
0000
0100
0000
0010
0000
0001
1000
,
0010
0000
0000
0010
0000
0000
0010
0000
1000
0000
0100
0000
1000
0000
0000
0000
,
0001
0000
0000
0001
0000
0000
0001
0000
0100
0000
0010
0000
1000
0000
0000
0000
,
0100
0000
0000
0100
0000
0000
0100
0000
1000
0000
0010
0000
1000
0000
0000
0000
,
0001
0000
0000
0001
0000
0000
0010
0000
1000
0000
0010
0000
0001
0000
0000
0000
,
1000
0000
0000
1000
0000
0000
0001
0000
0010
0000
0100
0000
0010
0000
0001
0000
,
0100
0000
0000
0100
0000
0000
0010
0000
1000
0000
0001
0000
0010
0000
0010
0000
,
0001
0000
0000
0001
0000
0000
1000
0000
0100
0000
0010
0000
0100
0000
1000
0000
,
0010
0000
0000
0010
0000
0000
0100
0000
0001
0000
1000
0000
0100
0000
0100
0000
;

//---------------dance-single - ----------------
#NOTES:
     dance-single:
     :
     Hard:
     10:
     0.800506,0.726148,0.306609,0.169164,0.798241,485.000000,29.000000,16.000000,0.000000,0.000000,0.000000,0.800506,0.726148,0.306609,0.169164,0.798241,485.000000,29.000000,16.000000,0.000000,0.000000,0.000000:
// measure 0
0000
0000
0000
0000
,  // measure 1
0000
0000
0000
0000
,  // measure 2
1010
0000
0000
0010
0000
0000
1000
0000
0100
0000
0010
0000
0001
0000
0100
0000
,  // measure 3
0101
0000
0000
0001
0000
0000
0100
0000
0010
0000
1000
0000
0100
0000
0010
0000
,  // measure 4
0110
0000
0000
0100
0000
0000
1000
0000
0010
0000
0100
0000
0001
0000
0010
0000
,  // measure 5
0011
0000
0000
0001
0000
0000
1000
0000
1001
0000
0001
0000
1000
0000
0100
0000
,  // measure 6
1100
0000
0000
1000
0010
0000
1000
0000
0001
0000
0010
0001
0000
0010
0100
0000
,  // measure 7
0001
0000
0000
0100
1000
0000
0100
0000
0010
0001
0000
0100
0000
0010
1000
0000
,  // measure 8
0100
0000
0000
1000
0001
0000
0100
0000
0010
0000
1000
0100
0000
1000
0001
0100
,  // measure 9
0001
0000
0000
0010
1000
0000
0010
0000
0001
0100
0001
0100
0010
0000
1000
0000
,  // measure 10
0100
0000
0000
1000
0010
0000
1000
0000
0001
0010
0100
1000
0000
0010
0100
0000
,  // measure 11
0001
0000
0000
0100
1000
0000
0100
0000
0010
1000
0001
0100
0000
0001
1000
0000
,  // measure 12
0100
0000
0000
0100
0010
0000
0001
0000
0100
0010
0100
0001
0010
0000
0001
1000
,  // measure 13
0010
0000
0000
0010
0100
0000
0001
0000
0101
0000
0100
0000
0110
0000
0010
0000
,  // measure 14
1010
0000
1000
0100
0000
0100
0001
0000
1000
0010
1000
0010
0001
0000
1000
0000
,  // measure 15
0001
0000
0001
0010
0000
0010
1000
0000
0001
0100
0001
0100
1000
0000
0001
0000
,  // measure 16
0100
0000
0100
0001
0000
0001
0010
0000
0100
1000
0100
1000
0010
0000
0100
0000
,  // measure 17
0010
0000
0010
1000
0000
1000
0100
0000
0010
0001
0010
0001
0100
0000
0010
0000
,  // measure 18
0110
0000
0100
0001
0000
1000
0001
0000
0010
0001
0100
1000
0100
0001
0010
0000
,  // measure 19
1000
0000
0010
0100
0000
1000
0100
0000
1000
0010
0001
1000
0100
0001
0000
1000
,  // measure 20
0010
0000
0100
0010
0000
0001
0010
0000
0100
0001
0010
1000
0010
0001
0100
0000
,  // measure 21
1000
0000
0100
0001
0000
0010
1000
0000
0001
0100
0010
0100
1000
0100
0010
0100
,  // measure 22
0110
0010
0001
1000
0010
0100
0001
0101
,  // measure 23
1100
0000
1000
0000
0010
0000
0100
0000
0001
0000
1000
0001
1000
0000
1001
0000
,  // measure 24
1010
0000
0010
0000
1000
0000
0100
0000
1000
0001
0010
0000
0001
0000
0011
0000
,  // measure 25
0020
0032
0203
2300
,  // measure 26
3010
0000
0000
0010
0001
0000
1000
0000
0010
0000
0100
0001
0000
1000
0100
0000
,  // measure 27
1000
0000
0000
1000
0010
0000
0100
0000
0110
0000
0010
0000
1010
0000
1000
0000
,  // measure 28
0001
0000
0010
0100
0000
0100
0010
0000
0001
0000
0100
0010
0000
0010
0100
0000
,  // measure 29
0001
0100
0001
0000
0010
1000
0010
0000
0200
0000
2300
0000
3020
0000
0032
0000
,  // measure 30
1003
0000
0000
1000
0100
0000
0010
0000
1000
0000
0001
0010
0000
0100
0001
0000
,  // measure 31
0100
0000
0000
0100
1000
0000
0001
0000
1001
0000
1000
0000
1100
0000
0100
0000
,  // measure 32
0010
0000
1000
0001
0000
0001
1000
0000
0010
0000
0001
1000
0000
1000
0001
0000
,  // measure 33
0010
0001
0010
0000
0100
1000
0100
0000
1100
0000
1000
0000
1010
0000
0010
0000
,  // measure 34
0110
0000
0000
0100
0001
0000
0010
0000
0100
0000
0010
0001
1000
0000
0010
0000
,  // measure 35
1010
0000
0000
0000
0000
0000
1000
0000
0001
0000
0000
0000
0100
0000
0000
0000
0101
0000
0000
0000
0001
0000
0000
0000
0011
0000
0000
0000
0000
0000
0010
0100
,  // measure 36
0010
0000
0100
1000
0001
1000
0100
0000
0010
0000
0001
0100
1000
0100
0001
0000
,  // measure 37
1000
0010
0100
0001
0010
0100
1000
0000
0020
0000
2030
0000
3200
0000
0302
0000
,  // measure 38
1003
0000
0000
1000
0010
0000
0100
0000
1000
0000
0001
0100
0010
0000
1000
0000
,  // measure 39
0010
0000
0000
0010
0100
0000
0001
0000
0101
0000
0100
0000
0110
0000
0010
0000
,  // measure 40
0100
0000
0001
1000
0100
0010
1000
0000
0001
0000
1000
0010
0100
1000
0001
0000
,  // measure 41
0100
0000
0001
0010
0001
0000
1000
0000
0002
0000
0023
0000
2030
0000
3200
0000
,  // measure 42
0301
0000
0001
0000
1000
0000
1000
0000
0010
0000
0010
0000
0100
0010
0100
0000
,  // measure 43
0010
0000
0010
1000
0000
1000
0001
0000
0001
0100
0000
0100
0010
0000
0010
0000
,  // measure 44
1000
0000
1000
0100
0000
0100
0010
0000
0010
0001
0000
0001
0100
0000
0100
0000
,  // measure 45
0001
0000
0001
0100
0000
0100
0010
0000
0010
1000
0000
1000
0001
0000
0001
0000
,  // measure 46
0010
0000
0010
1000
0000
1000
0001
0000
0001
0100
0000
0100
1000
0100
1000
0100
,  // measure 47
0010
0001
0010
0001
1000
0010
1000
0010
0100
0001
0100
0001
1000
0000
0100
0000
,  // measure 48
0010
0001
1000
0010
0100
0000
0001
0010
0100
0010
0001
0100
0010
0000
1000
0000
,  // measure 49
0100
1000
0010
1000
0100
0000
0010
0001
0100
0010
1000
0100
0010
0000
0100
0000
,  // measure 50
1000
0010
0001
0010
1000
0000
0001
0100
1000
0100
0001
0010
0100
0000
0110
0000
;
