#VERSION:0.81;
#TITLE:Neuronecia;
#SUBTITLE:;
#ARTIST:Function Phantom;
#TITLETRANSLIT:;
#SUBTITLETRANSLIT:;
#ARTISTTRANSLIT:;
#GENRE:;
#ORIGIN:;
#CREDIT:;
#BANNER:[Round 3] - Neuroneciabn.png;
#BACKGROUND:[Round 3] - Neuroneciabg.png;
#PREVIEWVID:;
#JACKET:;
#CDIMAGE:;
#DISCIMAGE:;
#LYRICSPATH:;
#CDTITLE:encorerebirth.png;
#MUSIC:[Round 3] - Neuronecia.ogg;
#OFFSET:-0.002;
#SAMPLESTART:67.804;
#SAMPLELENGTH:16.211;
#SELECTABLE:YES;
#BPMS:0.000=88.500,
36.000=177.000,
100.000=88.500,
116.000=177.000;
#STOPS:;
#DELAYS:;
#WARPS:;
#TIMESIGNATURES:0.000=4=4;
#TICKCOUNTS:0.000=4;
#COMBOS:0.000=1;
#SPEEDS:0.000=1.000=0.000=0;
#SCROLLS:0.000=1.000;
#FAKES:;
#LABELS:0.000=Song Start;
#BGCHANGES:;
#KEYSOUNDS:;
#ATTACKS:
;

//---------------dance-single - Spork!----------------
#NOTEDATA:;
#CHARTNAME:;
#STEPSTYPE:dance-single;
#DESCRIPTION:Spork!;
#CHARTSTYLE:;
#DIFFICULTY:Beginner;
#METER:1;
#RADARVALUES:0.111,0.119,0.079,0.050,0.000,65.000,8.000,5.000,0.000,0.000,0.000,0.000,0.000,0.111,0.119,0.079,0.050,0.000,65.000,8.000,5.000,0.000,0.000,0.000,0.000,0.000;
#CREDIT:Spork!;
#NOTES:
0000
0000
0000
0000
,
0000
0000
0000
0000
,
0000
0000
0000
0000
,
0000
0000
0000
0000
,
0000
0000
0000
0000
,
0001
0000
0000
0000
,
0000
0000
0000
0000
,
1000
0000
0000
0000
,
0000
0000
0000
0000
,
1000
0000
0000
0000
,
0100
0000
0000
0000
,
1000
0000
0000
0000
,
0010
0000
1000
0000
,
0001
0000
0000
0000
,
0100
0000
0000
0000
,
0001
0000
0000
0000
,
0010
0000
0001
0000
,
1001
0000
0000
0000
,
0100
0000
0000
0000
,
0110
0000
0000
0000
,
0001
0000
0000
0000
,
1001
0000
0000
0000
,
0010
0000
0000
0000
,
0110
0000
0000
0000
,
1000
0000
0000
0000
,
0001
0000
0000
0000
,
1000
0000
0000
0000
,
0020
0000
0000
0000
,
0030
0000
0000
0000
,
1000
0000
0000
0000
,
1000
0000
0000
0000
,
0001
0000
0000
0000
,
0001
0000
0000
0000
,
1000
0000
1000
0000
,
0001
0000
0001
0000
,
1000
0000
0001
0000
,
1000
0000
0000
0000
,
1001
0000
0000
0000
,
0010
0000
0100
0000
,
0010
0000
0000
0000
,
1000
0000
0000
0000
,
1001
0000
0000
0000
,
0010
0000
0100
0000
,
0010
0000
0000
0000
,
0001
0000
1000
0000
,
0002
0000
0003
0000
,
0100
0000
0001
0000
,
2000
0000
3000
0000
,
0010
0000
1000
0000
,
0200
0000
0300
0000
,
1000
0000
0001
0000
,
0020
0000
0030
0000
,
1001
0000
0000
0000
,
0001
0000
0000
0000
,
0010
0000
0000
0000
,
0001
0000
0000
0000
,
0100
0000
0001
0000
,
1000
0000
0000
0000
,
0010
0000
0000
0000
,
1000
0000
0000
0000
,
1001
0000
0000
0000
;

//---------------dance-single - Spork!----------------
#NOTEDATA:;
#CHARTNAME:;
#STEPSTYPE:dance-single;
#DESCRIPTION:Spork!;
#CHARTSTYLE:;
#DIFFICULTY:Easy;
#METER:5;
#RADARVALUES:0.325,0.392,0.288,0.219,0.000,178.000,29.000,22.000,0.000,0.000,0.000,0.000,0.000,0.325,0.392,0.288,0.219,0.000,178.000,29.000,22.000,0.000,0.000,0.000,0.000,0.000;
#CREDIT:Spork!;
#NOTES:
0000
0000
0000
0000
,
0000
0000
0000
0000
,
0000
0000
0000
0000
,
0000
0000
0000
0000
,
0000
0000
0000
0000
,
2000
0000
0100
0000
,
0001
0000
0010
3000
,
0002
0000
2000
0000
,
0000
0000
0000
3003
,
1001
0000
0000
1000
0000
0000
1000
0000
,
1100
0000
0000
1000
0000
0000
1000
0000
,
1010
0000
0000
1000
0000
0000
1000
0000
,
0001
0010
0100
1000
,
1001
0000
0000
0001
0000
0000
0001
0000
,
0011
0000
0000
0001
0000
0000
0001
0000
,
0101
0000
0000
0001
0000
0000
0001
0000
,
2000
0000
3001
1001
,
1000
0100
0001
0100
,
1000
0100
0001
0110
,
0001
0100
1000
0100
,
0001
0100
1000
0110
,
1000
0010
0001
0010
,
1000
0010
0001
0110
,
0001
0010
1000
0010
,
0001
0010
1000
0110
,
0002
0000
0000
0003
,
0010
0001
0100
0010
,
2000
0000
0000
3000
,
0000
0000
0000
0000
,
0001
0010
0001
0100
,
0010
1000
0100
0100
,
1000
0010
1000
0100
,
0010
0001
0100
0100
,
0001
0010
1000
0010
,
0001
0100
1000
0100
,
0001
0001
1000
1000
,
0200
0000
0310
0000
,
1100
0010
0001
0100
,
1010
0100
1001
0100
,
0011
0100
1000
0010
,
1001
0100
1000
0001
,
1010
0100
0001
0010
,
1100
0010
1001
0010
,
0101
0010
1000
0100
,
2002
3003
0220
0330
,
2000
0000
0000
3100
0020
0000
0000
0030
,
0001
0100
1000
0100
,
0002
0000
0000
0103
0020
0000
0000
0030
,
1000
0100
0001
0100
,
2000
0000
0000
3010
0200
0000
0000
0300
,
0001
0010
1000
0010
,
0002
0000
0000
0013
0200
0000
0000
0300
,
2000
0000
0001
3000
,
1010
0000
0000
0010
0000
0000
0010
0000
,
0110
0000
0000
0010
0000
0000
0010
0000
,
0011
0000
0000
0010
0000
0000
0010
0000
,
1000
0100
0010
0001
,
0101
0000
0000
0100
0000
0000
0100
0000
,
0110
0000
0000
0100
0000
0000
0100
0000
,
1100
0000
0000
0100
0000
0000
0100
0000
,
2002
0000
0000
3003
;

//---------------dance-single - Spork!----------------
#NOTEDATA:;
#CHARTNAME:;
#STEPSTYPE:dance-single;
#DESCRIPTION:Spork!;
#CHARTSTYLE:;
#DIFFICULTY:Hard;
#METER:9;
#RADARVALUES:0.639,0.632,0.467,0.556,0.437,347.000,47.000,56.000,0.000,0.000,0.000,0.000,0.000,0.639,0.632,0.467,0.556,0.437,347.000,47.000,56.000,0.000,0.000,0.000,0.000,0.000;
#CREDIT:Spork!;
#NOTES:
0000
0000
0000
0000
,
0000
0000
0000
0000
,
0000
0000
0000
0000
,
0000
0000
0000
0000
,
0000
0000
0000
0000
,
0020
0000
0000
0000
0000
1030
0100
0020
0000
0000
0000
0000
0000
0031
1000
0020
,
0000
0000
0000
0000
0000
0130
0001
0020
0000
0000
0000
0000
0000
0030
0001
0000
,
0200
0000
0000
0000
0000
0301
0010
0200
0000
0000
0000
0000
0000
1300
0001
0200
,
0000
0000
0000
0000
0000
0310
1000
0200
0000
0000
0000
0000
0000
0300
0000
0000
,
1000
0000
0001
0000
0000
0000
0101
0000
0000
0000
0000
0010
0100
0000
0010
0000
,
0001
0000
1000
0000
0000
0000
1010
0000
0000
0000
0000
0010
0100
0000
0010
0000
,
1000
0000
0100
0000
0000
0000
0110
0000
0000
0000
0000
0100
1000
0000
0001
0000
,
1000
0010
0001
0010
1000
0010
0110
0110
,
0001
0000
1000
0000
0000
0000
1100
0000
0000
0000
0000
0010
0200
0000
0010
0000
,
1300
0000
0001
0000
0000
0000
0011
0000
0000
0000
0001
1000
0001
0000
1000
0000
,
0001
0000
0100
0000
0000
0000
0110
0000
0000
0000
0000
0100
0001
0000
1000
0000
,
0001
0020
0000
1030
0010
0001
1001
0000
,
1000
0000
0100
1000
0000
0000
0010
0000
0100
0001
0000
0000
0010
0000
0100
0010
,
0000
0000
0100
0000
1000
0001
0000
0000
0101
0000
0000
0000
0100
0000
0010
0000
,
0000
1000
0000
0010
1000
0000
0000
0100
0000
0010
0001
0000
0000
0100
0000
0010
,
0100
0000
0000
0001
0000
1000
0010
0000
0000
0100
0000
0000
1001
0000
1001
0000
,
1000
0000
0100
1000
0000
0000
0010
0000
0100
0001
0000
0000
0010
0000
1000
0010
,
0000
0000
0100
0000
0010
0100
0000
0000
1000
0000
0001
1000
0001
0000
0100
0000
,
0000
0010
0000
0000
0101
0000
0000
0010
0000
0000
1100
0000
0000
0001
0000
0000
,
0110
0000
0000
1000
0000
0000
0001
0000
0000
0100
0000
0000
0110
0000
0000
0000
,
1002
0000
0000
0000
0023
0000
0000
0200
0030
0000
0000
1300
0001
0100
0100
0100
,
0010
0000
0010
1000
0010
0100
0001
1000
0000
1000
0000
1000
0100
0010
0001
0000
,
2002
0000
0000
3003
,
0010
0000
0000
0000
0010
0000
0000
0000
0010
0000
0000
0010
0000
0000
0010
0000
0010
0000
0000
0000
0010
0000
0000
0000
0120
0000
0000
0000
0000
0000
0000
0000
,
1030
0000
0000
0100
0000
0000
1000
0000
0000
0001
0000
0000
2000
0000
0000
3020
,
0000
0000
0032
0000
0000
0203
0000
0000
2300
0000
0000
3010
0000
0000
1000
0000
,
0001
0000
0000
0010
0000
0000
0001
0000
0000
1000
0000
0000
0002
0000
0000
0203
,
0000
0000
2300
0000
0000
3020
0000
0000
0032
0000
0000
0103
0000
0000
0001
0000
,
1000
0100
1000
0100
0010
0001
0010
0001
,
0100
0010
0100
0010
1000
0001
1000
0001
,
0010
0100
0010
0100
0010
0000
0001
0000
0100
0010
0100
0010
0100
0000
0010
0000
,
2002
0000
0000
3003
,
1200
0000
0000
0000
0000
0000
0020
0000
0300
0000
0030
0100
0010
0000
0001
0000
,
2010
0000
0100
3000
0012
0000
1000
0003
,
0201
0000
0000
0000
0000
0000
0320
0000
0000
0000
0030
0100
0010
0000
1000
0000
,
0001
0000
0000
0010
0000
0000
1000
0000
0010
0000
0000
0001
0000
0000
0100
0000
,
1020
0000
0000
0000
0000
0000
0230
0000
0000
0000
0300
0010
1000
0000
0100
0000
,
0012
0000
0100
0003
2010
0000
0001
3000
,
1200
0000
0000
0000
0000
0000
0320
0000
0000
0000
0030
0100
1000
0000
0001
0000
,
0101
0000
0000
1010
0000
0000
1001
0000
1100
0000
0000
0011
0000
0000
0110
0000
,
1002
0000
0000
0000
0000
0000
0103
0001
0100
0000
0010
0000
1000
0000
0100
0000
,
0020
0000
0100
0002
0030
0020
0003
0130
,
2001
0000
0000
0000
0000
0000
3010
1000
0010
0000
0100
0000
0001
0000
0010
0000
,
0200
0000
0000
0000
0010
0000
2000
0000
0300
0000
0001
3000
0001
1000
0001
1000
,
0020
0000
0000
0000
0000
0000
1030
0100
1000
0000
0010
0000
0100
0000
0001
0000
,
0021
0000
0000
0000
0001
0000
0200
0000
0030
0000
0020
0300
0000
0000
0031
0000
,
0200
0000
0000
0000
0000
0000
0301
0010
0001
0000
0010
0000
0100
0000
2000
0000
,
0000
0000
0000
0000
0010
0000
0002
0000
0000
3000
0000
2000
0000
0000
0003
0000
,
3001
0000
1000
0000
0000
0000
1010
0000
0000
0000
0000
0100
0010
0000
0100
0000
,
1000
0000
0001
0000
0000
0000
0101
0000
0000
0000
0000
0100
0010
0000
0100
0000
,
0001
0000
0010
0000
0000
0000
0110
0000
0000
0000
0000
0010
0001
0000
1000
0000
,
0001
0100
1000
0100
0001
0100
0110
0110
,
1000
0000
0001
0000
0000
0000
0011
0000
0000
0000
0000
0100
0020
0000
0100
0000
,
0031
0000
1000
0000
0000
0000
1100
0000
0000
0000
1000
0001
1000
0000
0001
0000
,
1000
0000
0010
0000
0000
0000
0110
0000
0000
0000
0000
0010
1000
0000
0001
0000
,
1000
0100
0000
0110
0000
1001
0000
0000
;

//---------------dance-single - Spork!----------------
#NOTEDATA:;
#CHARTNAME:;
#STEPSTYPE:dance-single;
#DESCRIPTION:Spork!;
#CHARTSTYLE:;
#DIFFICULTY:Medium;
#METER:7;
#RADARVALUES:0.447,0.482,0.467,0.477,0.055,220.000,47.000,48.000,0.000,0.000,0.000,0.000,0.000,0.447,0.482,0.467,0.477,0.055,220.000,47.000,48.000,0.000,0.000,0.000,0.000,0.000;
#CREDIT:Spork!;
#NOTES:
0000
0000
0000
0000
,
0000
0000
0000
0000
,
0000
0000
0000
0000
,
0000
0000
0000
0000
,
0000
0000
0000
0000
,
0012
0000
0203
0000
,
0320
0000
0000
0000
0000
0000
0000
0000
2030
0000
0000
0000
0000
0000
0000
3000
,
2100
0000
3020
0000
,
0230
0000
0000
0000
0000
0000
0000
0000
0302
0000
0000
0000
0000
0000
0000
0003
,
1000
0001
0000
0010
0000
0000
0200
0000
,
0310
0001
0000
0100
0000
0000
0100
0000
,
0001
1000
0000
0100
0000
0000
0010
0010
,
0100
0000
1000
0000
0001
0000
1000
1000
,
0001
1000
0000
0010
0000
0000
0200
0000
,
0310
1000
0000
0100
0000
0000
0100
0000
,
1000
0001
0000
0100
0000
0000
0010
0000
,
0200
0000
1000
0000
0001
0300
1001
0000
,
1000
1200
1300
1020
,
1030
1002
1003
2001
,
3001
0021
0031
0201
,
0301
0000
1001
0000
0110
0000
1000
1000
,
0100
2100
3100
0102
,
0103
0120
0130
0210
,
0310
0012
0013
2010
,
3010
0210
0310
0110
,
1002
0000
0000
0000
0010
0000
0000
0000
0103
0000
0001
0000
1000
0001
1000
0000
,
0001
0000
0010
0000
0100
0000
1000
0001
,
2002
0000
0000
0000
,
3003
0000
0000
0110
,
0001
0100
0001
0010
,
0100
0000
1000
0000
1001
0000
0100
0010
,
0100
0010
1000
0100
,
0010
0000
0001
0000
0110
0000
0001
1000
,
0001
0000
0000
0010
0000
0000
0001
0000
0000
0010
0000
0000
0100
0000
0000
1000
,
0000
0000
0100
0000
0000
1000
0000
0000
0001
0000
0000
0000
1000
0000
0001
0000
,
1000
0000
0000
0010
0000
0000
1000
0000
0000
0010
0000
0000
0100
0000
0001
0000
,
0200
0000
0000
0000
0000
0000
0000
0000
0320
0000
0000
0000
0000
0000
0000
0030
,
1020
0000
0030
1001
0000
0000
0010
0000
,
0012
0013
0120
0130
,
1200
0000
0300
1001
0000
0000
0010
0000
,
1000
0000
0000
0100
0000
0000
1000
0000
0010
0000
0000
0100
0000
0000
0001
0000
,
0021
0000
0030
1001
0000
0000
0010
0000
,
2010
3010
0120
0130
,
0201
0000
0300
1001
0000
0000
0010
0000
,
0001
0000
0000
0100
0000
0000
0001
0000
0010
0000
0000
0100
0000
0000
1000
0000
,
0002
0000
0000
1000
1003
0000
0010
0000
,
2000
3010
0101
1100
,
2000
0000
0000
0001
3001
0000
0010
0000
,
0002
0103
1010
0011
,
1002
0000
0000
0100
0103
0000
0010
0000
,
0210
0301
0011
1010
,
2001
0000
0000
0100
3100
0000
0000
0000
,
0200
0000
0320
0000
,
0031
1000
0000
0100
0000
0000
0020
0000
,
0130
1000
0000
0010
0000
0000
0010
0000
,
1000
0001
0000
0010
0000
0000
0100
0100
,
0010
0000
0001
0000
1000
0000
0001
0001
,
1000
0001
0000
0100
0000
0000
0020
0000
,
0130
0001
0000
0010
0000
0000
0010
0000
,
0001
1000
0000
0010
0000
0000
0100
0000
,
0010
0000
0000
0110
0000
1001
0000
0000
;
