#TITLE:Megaburn;
#SUBTITLE:;
#ARTIST:M2U;
#TITLETRANSLIT:;
#SUBTITLETRANSLIT:;
#ARTISTTRANSLIT:;
#GENRE:;
#CREDIT:;
#BANNER:[Round 3] - Megaburn.png;
#BACKGROUND:[Round 3] - Megaburn-bg.png;
#LYRICSPATH:;
#CDTITLE:;
#MUSIC:[Round 3] - Megaburn.mp3;
#OFFSET:-0.260000;
#SAMPLESTART:89.036003;
#SAMPLELENGTH:11.098000;
#SELECTABLE:YES;
#BPMS:0.000000=173.000000
;
#STOPS:
;
#BGCHANGES:;
#KEYSOUNDS:;
#ATTACKS:;

//---------------dance-single - ----------------
#NOTES:
     dance-single:
     :
     Hard:
     10:
     0.813454,0.898502,0.219913,0.204205,0.376994,671.000000,28.000000,26.000000,0.000000,0.000000,0.000000,0.813454,0.898502,0.219913,0.204205,0.376994,671.000000,28.000000,26.000000,0.000000,0.000000,0.000000:
// measure 0
0000
0000
0000
0000
,  // measure 1
0000
0000
0000
0000
,  // measure 2
0000
0000
0000
0000
,  // measure 3
0000
0000
0000
0000
,  // measure 4
2002
0000
0000
3003
0000
0000
0000
0000
,  // measure 5
0000
0000
0000
0000
,  // measure 6
0000
0000
0000
0000
,  // measure 7
1000
1000
0001
0010
0100
1000
1001
0000
,  // measure 8
0001
0000
0100
0010
0000
0010
0000
1000
,  // measure 9
0100
0000
0100
0000
0100
0000
1000
0000
0001
0000
0001
0100
0001
0000
0100
0000
,  // measure 10
0010
0000
1000
0100
0000
0100
0000
0010
,  // measure 11
0000
0010
0001
0000
0001
0000
1000
0000
0010
0000
0100
0010
0100
0000
0100
0000
,  // measure 12
0001
0000
0010
0100
0100
0100
0000
1000
,  // measure 13
0001
0000
1000
0100
1000
0000
0001
0100
0001
0000
1000
0010
1000
0000
0000
0000
,  // measure 14
0001
0000
0000
0000
0100
0000
0020
0030
0000
0000
0010
0000
0000
0000
1000
0000
,  // measure 15
0001
0001
1000
0100
0010
0001
1001
0000
,  // measure 16
1000
0000
0000
0100
1000
0000
0001
0000
1000
0000
0100
0000
1000
0000
0001
0000
,  // measure 17
0100
0100
0100
0010
1000
0100
1000
1000
,  // measure 18
0001
0000
0000
0100
0001
0000
1000
0000
0001
0000
0100
0000
0001
0000
1000
0000
,  // measure 19
0000
1000
0100
0000
0100
0000
1000
0001
1000
0000
0001
0000
1000
0000
0001
0000
,  // measure 20
0010
0000
0000
0100
0010
0000
0001
0000
0001
0000
0001
0000
0010
0000
0001
0000
,  // measure 21
1000
0000
1000
0001
1000
0000
0001
0000
0100
0000
0100
0010
0100
0000
0000
0000
,  // measure 22
0010
0000
0000
0001
0010
0000
0200
0300
0010
0000
0001
0000
0010
0000
0100
0000
,  // measure 23
0001
0101
1010
1001
,  // measure 24
1000
0001
0010
0100
0010
0010
0100
1000
,  // measure 25
0001
0100
0010
1000
0100
0001
0100
1000
,  // measure 26
0001
1000
0100
1000
0010
0001
0010
1000
,  // measure 27
0001
0000
0010
0001
0010
0000
0100
0010
0100
0000
1000
0100
1000
0000
0001
0000
,  // measure 28
0100
0010
1000
0100
0010
0010
1000
0010
,  // measure 29
0001
0100
0010
1000
0100
0010
0100
1000
,  // measure 30
0010
0001
0010
1000
0100
0001
0100
0010
,  // measure 31
0001
0000
0100
1000
0100
0000
0010
0100
0010
0000
1000
0001
1000
0000
0000
0000
,  // measure 32
0100
0000
0100
0000
1000
0001
0100
0000
,  // measure 33
0010
0000
0010
0000
1000
0001
0010
0000
,  // measure 34
0100
0100
1000
0000
0010
0010
0100
0000
,  // measure 35
0001
0010
0001
0010
0100
1000
0100
0000
,  // measure 36
1000
0001
0100
0001
1000
0001
0010
0001
,  // measure 37
0100
0010
1000
0010
0100
0010
1000
0001
,  // measure 38
0010
0100
0010
0100
0010
0100
0010
0100
1000
0001
1000
0001
1000
0001
1000
0001
,  // measure 39
0100
0000
0000
0010
0000
0000
0100
0000
0000
0000
0010
0000
0100
0000
0000
0000
0000
0000
0110
0000
0000
0000
0000
0000
,  // measure 40
2002
3003
0001
0001
0010
0001
1000
0100
,  // measure 41
0010
0010
0100
0010
0001
1000
0010
0000
,  // measure 42
2020
3030
1000
1000
0001
0100
0010
0010
,  // measure 43
1000
1000
0001
1000
0100
0010
0001
0000
,  // measure 44
0022
0033
0010
0010
0001
0100
0001
1000
,  // measure 45
0100
1000
0010
0010
0100
0001
1000
0000
,  // measure 46
2200
3300
1000
1000
0001
0010
0100
1000
,  // measure 47
0010
0100
0010
0100
0010
0000
0110
0000
,  // measure 48
2002
3003
1000
0001
0100
0100
1000
0001
,  // measure 49
0010
0010
1000
0001
0010
0100
1000
0000
,  // measure 50
2002
3003
1000
0001
0010
0010
1000
0001
,  // measure 51
0100
0100
1000
0001
0100
0010
1000
0000
,  // measure 52
2002
3003
0001
1000
0010
0010
0100
1000
,  // measure 53
0100
0100
0010
0001
1000
0100
0001
0000
,  // measure 54
2002
3003
0001
1000
0001
0010
0100
1000
,  // measure 55
1100
0001
0000
0010
0010
0010
0110
0000
,  // measure 56
1001
0000
1000
0100
1000
0001
1000
0000
,  // measure 57
0110
0000
0001
1000
0001
0010
0001
0000
,  // measure 58
0110
0000
1000
0100
1000
0001
1000
0000
,  // measure 59
0110
0000
0001
0110
0000
1000
0110
0000
,  // measure 60
0001
0010
0001
0010
0001
0010
0001
0010
,  // measure 61
0100
1000
0100
1000
0100
1000
0100
1000
,  // measure 62
0001
0100
0001
0100
0001
0100
0001
0100
0010
1000
0010
1000
0010
1000
0010
1000
,  // measure 63
0001
2000
3010
2000
3100
0100
1001
0000
,  // measure 64
1000
0000
0001
0000
0100
0010
0100
0000
0001
0000
0010
0100
0000
0010
0100
0000
,  // measure 65
1000
0000
0001
0000
0010
0100
0010
0000
0001
0000
0100
0010
0000
0100
0010
0000
,  // measure 66
1000
0000
0001
0000
0100
0001
0100
0000
0010
0000
1000
0100
0000
1000
0100
0000
,  // measure 67
0010
0000
0001
0000
0100
0010
0100
0010
0100
0000
0001
1000
0001
1000
0001
0000
,  // measure 68
0010
0000
0100
0000
1000
0001
1000
0000
0010
0000
1000
0001
0000
1000
0001
0000
,  // measure 69
0100
0000
0010
0000
1000
0001
1000
0000
0001
0000
0010
0100
0000
0010
0100
0000
,  // measure 70
1000
0000
0001
0000
0100
0010
0100
0000
0001
0000
1000
0010
0000
1000
0010
0000
,  // measure 71
0100
0000
0001
0000
1000
0100
1000
0100
1000
0000
0001
0100
0001
0100
0001
0000
,  // measure 72
0010
0000
0100
0000
0010
0001
0010
0001
1000
0000
0010
0100
0010
0100
0001
0000
,  // measure 73
1000
0000
0001
0000
0100
0010
0100
0010
1000
0000
0001
0010
0001
0010
0100
0000
,  // measure 74
1000
0000
0001
0000
0010
0001
0010
0001
1000
0000
0100
1000
0100
1000
0001
0000
,  // measure 75
0100
0000
0010
0000
0100
0001
0100
0001
0010
0000
0100
1000
0100
0010
0100
0000
,  // measure 76
1000
0001
0100
0010
0010
0010
1000
0001
,  // measure 77
0010
0000
0100
0010
0100
0000
1000
0001
1000
0000
0010
0100
0010
0000
0100
0000
,  // measure 78
0001
0001
0101
2000
3100
0100
1100
0002
,  // measure 79
0103
0000
0010
0100
0001
0000
0010
0100
1000
0000
0001
0000
1001
0000
0000
0000
,  // measure 80
1000
0001
0010
1000
0001
0100
1000
0001
,  // measure 81
1000
0001
0100
1000
0001
0010
1000
0001
,  // measure 82
0010
0000
1000
0000
0001
0000
0100
0000
1000
0000
0010
0000
0100
0000
0001
0100
,  // measure 83
0001
0000
0100
0010
0100
0000
0010
1000
0010
0000
1000
0001
1000
0000
0001
0000
,  // measure 84
0100
0010
0100
0010
1000
0001
1000
0001
,  // measure 85
0010
0100
0010
0100
1000
0001
1000
0001
,  // measure 86
0100
0010
0100
0010
1000
0001
1000
0001
0010
0100
0010
0100
1000
0001
1000
0001
,  // measure 87
0010
0001
0100
1000
0001
0020
0200
0000
,  // measure 88
0330
0000
0000
0000
;

//---------------dance-single - ----------------
#NOTES:
     dance-single:
     :
     Medium:
     8:
     0.516123,0.587482,0.141373,0.157081,0.023562,422.000000,18.000000,20.000000,0.000000,0.000000,0.000000,0.516123,0.587482,0.141373,0.157081,0.023562,422.000000,18.000000,20.000000,0.000000,0.000000,0.000000:
0000
0000
0000
0000
,
0000
0000
0000
0000
,
0000
0000
0000
0000
,
0000
0000
0000
0000
,
1001
0000
0000
0000
,
0000
0000
0000
0000
,
0000
0000
0000
0000
,
0001
1000
0001
0000
1000
0001
0100
0000
,
0010
0000
0010
1000
0000
1000
0000
0001
,
0100
0100
0001
1000
,
0100
0000
0100
0010
0000
0010
0000
0001
,
0000
1000
1000
0000
0001
0000
0001
0000
,
0100
0000
0100
0001
0001
0001
0000
1000
,
0010
0010
0100
0100
,
0001
0000
0000
0000
0001
0000
0020
0030
0000
0000
0010
0000
0000
0000
0001
0000
,
1000
0001
1000
0000
0001
1000
0100
0000
,
0000
1000
0000
0001
0000
0100
0000
0001
,
0000
1000
0000
0100
0000
0010
0000
0001
,
0000
0100
0000
0001
0000
1000
0000
0010
,
0000
0100
0000
0100
0001
0000
1000
0000
,
0000
0001
0000
0010
0000
0001
0000
1000
,
0000
0001
0000
0100
0000
0010
0000
1000
,
0000
0001
0000
0010
0000
0100
0000
0010
,
0001
0011
1001
1010
,
1000
0010
0100
0000
0010
0010
1000
0000
,
0001
0010
0100
0000
0010
0100
1000
0000
,
0001
0100
0010
0000
0100
0010
1000
0000
,
0001
0001
0010
0000
0100
0100
1000
0000
,
0010
0100
0001
0000
1000
1000
0100
0000
,
0010
0001
0100
0000
0010
1000
0100
0000
,
1000
0001
0100
0000
0010
0100
0001
0000
,
0010
0010
0100
0000
1000
1000
0001
0000
,
0100
0000
0100
0000
0100
0010
0100
0000
,
0001
0000
0001
0000
0001
0010
0001
0000
,
1000
0000
1000
0000
1000
0100
1000
0000
,
0001
0010
0100
1000
,
0001
1000
0100
0000
1000
0001
0100
0000
,
0001
1000
0010
0000
1000
0001
0010
0000
,
0001
1000
0001
1000
0010
0100
0010
0100
,
0010
0010
0100
1001
,
0220
0330
0001
0000
1000
0100
1000
0000
,
0001
0010
0000
0010
0000
0010
0100
0000
,
0220
0330
1000
0000
0001
0100
0001
0000
,
1000
0010
0000
0010
0000
0010
0100
0000
,
0202
0303
0001
0000
1000
1000
0100
0000
,
1000
1000
0100
0000
1000
0001
0100
0000
,
0202
0303
0100
0000
0001
0001
0010
0000
,
0100
0100
0100
1001
,
0220
0330
0001
0000
1000
1000
1000
0000
,
0100
0100
0100
0000
0010
0010
0010
0000
,
0220
0330
1000
0000
0001
0001
0001
0000
,
0100
0100
0100
0000
0010
0010
0010
0000
,
0220
0330
1000
0000
0001
0010
0001
0000
,
0010
0100
0010
0000
0100
1000
0100
0000
,
2002
3003
1000
0000
0001
1000
0010
1000
,
0002
0000
0000
1003
,
1000
1000
0100
0100
,
0001
0001
0010
0010
,
1000
1000
0010
0010
,
0001
0001
0100
0110
,
0001
0100
1000
0010
,
0001
0100
1000
0010
,
0001
1000
0001
0000
1000
0001
1000
0000
,
0010
0100
0010
0100
0010
0100
0010
0000
,
1000
0000
0001
0000
1000
0000
0000
0000
0100
0000
0000
0100
0000
0000
0000
0000
,
1000
0000
0001
0000
0100
0000
0000
0000
0010
0000
0000
0010
0000
0000
0000
0000
,
0100
0000
0001
0000
0010
0000
0000
0000
0100
0000
0000
0100
0000
0000
0000
0000
,
1000
0001
0100
0001
1000
0001
0100
0000
,
0001
0000
1000
0000
0001
0000
0000
0000
0100
0000
0000
0100
0000
0000
0000
0000
,
0001
0000
1000
0000
0010
0000
0000
0000
0100
0000
0000
0100
0000
0000
0000
0000
,
0010
0000
1000
0000
0001
0000
0000
0000
0010
0000
0000
0010
0000
0000
0000
0000
,
0001
1000
0100
1000
0001
0100
0010
0000
,
0110
0000
0100
0001
0000
0001
0000
1000
,
0100
0100
0100
0000
1000
1000
1000
0000
,
0010
0000
0010
0100
0000
0100
0000
0110
,
0000
0010
1000
0000
0001
1000
0001
0000
,
1001
0000
0001
0010
0001
0010
0000
0100
,
1000
0100
1000
0000
0001
0100
0001
0000
,
0100
0010
0100
0010
1000
0001
1000
0001
,
0010
0100
0010
0100
0010
0100
0010
0000
,
0001
0100
1000
0001
,
0010
1000
0100
0001
,
1000
0010
0001
0100
,
0001
0010
0100
1000
,
0010
0100
0010
0000
0100
0010
0100
0000
,
0001
1000
0001
0000
1000
0001
1000
0000
,
0100
0010
0100
0010
0001
1000
0001
1000
,
0100
0010
0100
0010
0100
0020
0200
0000
,
0330
0000
0000
0000
;

//---------------dance-single - ----------------
#NOTES:
     dance-single:
     :
     Easy:
     6:
     0.374750,0.380136,0.125665,0.094248,0.000000,306.000000,16.000000,12.000000,0.000000,0.000000,0.000000,0.374750,0.380136,0.125665,0.094248,0.000000,306.000000,16.000000,12.000000,0.000000,0.000000,0.000000:
0000
0000
0000
0000
,
0000
0000
0000
0000
,
0000
0000
0000
0000
,
0000
0000
0000
0000
,
1001
0000
0000
0000
,
0000
0000
0000
0000
,
0000
0000
0000
0000
,
1000
0001
1000
1001
,
0001
0001
0100
0100
,
0001
0010
0100
1000
,
1000
1000
0100
0100
,
1000
0010
0100
0001
,
0010
0010
0100
0100
,
1000
0001
0100
1000
,
0100
0100
0010
0010
,
1000
0001
1000
1001
,
0001
0010
0001
1000
,
0010
0010
0010
0010
,
1000
0100
1000
0001
,
0000
0100
0100
0000
0100
0000
0100
0000
,
0001
0010
0100
0010
,
0001
0100
0010
0100
,
0001
1000
0100
0010
,
0001
1000
0001
1001
,
1000
0100
1000
0001
,
0100
0100
0010
0010
,
0100
0001
1000
0100
,
0010
0010
0100
0100
,
1000
0010
0100
0001
,
1000
1000
0001
0001
,
0010
0100
1000
0001
,
0100
1000
0010
0001
,
2002
0000
0000
0000
,
3003
0000
0000
0000
,
1000
0000
1000
0000
,
0100
0100
0100
0100
,
0010
0001
1000
0100
,
0010
0001
1000
0100
,
0010
0001
0100
1000
,
0010
0010
0010
1001
,
0002
0100
0000
0103
,
0001
0001
1000
0100
,
0020
0001
0000
0031
,
0010
0001
0010
0001
,
2000
0010
0000
3010
,
1000
1000
0010
0100
,
0002
1000
0000
1003
,
0010
0010
0010
1001
,
2000
0000
3100
0000
0000
1000
0100
0000
,
1000
0000
0100
0000
0000
1000
0001
0000
,
0002
0000
0103
0000
0000
0001
0100
0000
,
0001
0000
0100
0000
0000
0001
0100
0000
,
0020
0000
1030
0000
0000
0010
1000
0000
,
0010
0000
1000
0000
0000
0010
1000
0000
,
0002
0000
1003
0000
1000
0001
1000
0000
,
0200
0000
0300
1001
,
0001
0001
0100
0100
,
0001
0001
1000
1000
,
0100
0100
0010
0010
,
0001
0001
1000
1001
,
0001
0100
0001
1000
,
0100
0010
0001
1000
,
0010
0100
0010
0100
,
0001
1000
0000
1000
0000
1000
0100
0000
,
1000
0100
1000
0001
,
0100
1000
0100
0010
,
1000
0001
0010
0100
,
0010
0001
1000
0100
,
0010
0001
1000
0010
,
0001
0010
0100
0010
,
1000
0001
0010
0010
,
0100
0100
0100
1001
,
0001
0000
0000
0100
0000
0100
0000
0000
,
0010
1000
0100
0010
,
0001
0000
0000
1000
0000
1000
0000
0000
,
0001
0010
0100
1000
,
0010
0000
0000
0100
0000
0100
0000
0000
,
0001
1000
0001
1000
,
0100
1001
0100
1001
,
1000
0001
0000
0001
0000
0001
0100
0000
,
0010
1000
0100
0001
,
0010
1000
0100
0001
,
0010
0001
0100
1000
,
0010
0001
0100
1000
,
1001
0000
0110
0000
,
1001
0000
0110
0000
,
0001
1000
0001
1000
,
0100
0100
0100
0200
,
0300
0000
0000
0000
;
