#TITLE:MIRACLE MEETS;
#SUBTITLE:(KURO-HACO Remix);
#ARTIST:kuroburger;
#TITLETRANSLIT:;
#SUBTITLETRANSLIT:;
#ARTISTTRANSLIT:;
#GENRE:;
#CREDIT:;
#BANNER:MIRACLE MEETS-Banner.png;
#BACKGROUND:MIRACLE MEETS-bg.png;
#LYRICSPATH:;
#CDTITLE:;
#MUSIC:[ROUND 3] - MIRACLE MEETS (KURO-HACO Remix).ogg;
#OFFSET:-2.095000;
#SAMPLESTART:45.924995;
#SAMPLELENGTH:16.000000;
#SELECTABLE:YES;
#BPMS:0.000000=180.000000
;
#STOPS:
;
#BGCHANGES:;
#KEYSOUNDS:;
#ATTACKS:;

//---------------dance-single - ----------------
#NOTES:
     dance-single:
     :
     Hard:
     10:
     0.711268,0.711268,0.016935,0.118545,0.279427,572.000000,2.000000,14.000000,0.000000,0.000000,0.000000,0.711268,0.711268,0.016935,0.118545,0.279427,572.000000,2.000000,14.000000,0.000000,0.000000,0.000000:
// measure 0
0000
0000
0000
0000
,  // measure 1
0000
0000
0000
0000
,  // measure 2
0000
0000
0000
0000
,  // measure 3
0000
0000
0000
0000
,  // measure 4
0000
0000
0000
0000
,  // measure 5
0000
0000
0000
0000
,  // measure 6
0000
0000
0000
0000
,  // measure 7
0000
0000
0000
0000
,  // measure 8
0001
0000
0000
0001
0000
0000
0100
0000
0000
0100
0001
0000
1000
0000
0100
0000
,  // measure 9
0010
0000
0000
0100
0000
0000
1000
0000
0000
1000
0001
0000
0100
0000
0010
0000
,  // measure 10
1000
0000
0100
0010
0000
0100
0010
0000
0001
1000
0001
0000
1000
0000
1000
0000
,  // measure 11
0001
0000
0100
0010
0000
0100
0010
0000
1000
0001
1000
0000
0001
0000
0001
0000
,  // measure 12
1000
0000
0000
1000
0000
0000
0100
0000
0000
0100
1000
0000
0001
0000
0100
0000
,  // measure 13
0010
0000
0000
0100
0000
0000
0001
0000
0000
0001
1000
0000
0100
0000
0010
0000
,  // measure 14
0001
0001
1000
1000
0010
0100
0010
0100
,  // measure 15
0001
0000
0001
0000
1000
0001
1000
0001
1000
0000
0000
1000
0000
0000
1000
0000
,  // measure 16
0001
0000
0100
0000
1000
0000
0100
0000
0010
0000
1000
0100
0010
0000
0100
0000
,  // measure 17
1000
0001
0000
0001
0000
0001
0100
0001
,  // measure 18
0100
0000
1000
0000
0100
0000
0010
0000
1000
0000
0100
0010
0100
0000
1000
0000
,  // measure 19
1000
0000
0001
1000
0000
0001
1000
0010
,  // measure 20
1000
0000
0100
0000
0001
0000
0100
0000
0010
0000
0001
0100
0010
0000
0100
0000
,  // measure 21
0001
1000
0000
1000
0000
1000
0100
0010
,  // measure 22
0001
0100
0001
0010
0100
1000
0010
0100
,  // measure 23
0000
0100
0010
1000
0002
0000
1003
0000
,  // measure 24
1001
0000
0001
0000
0100
0000
1000
0100
,  // measure 25
0001
0000
0000
0000
1000
0000
0000
0000
0100
0000
0000
0000
0010
0100
0010
0100
,  // measure 26
0010
0000
0100
0000
0100
0000
1000
0001
,  // measure 27
1000
0000
0001
0000
0100
0010
0010
0100
,  // measure 28
0010
0000
1000
0000
0100
0000
0001
0100
,  // measure 29
1000
0000
0000
0000
0001
0000
0000
0000
0100
0000
0000
0000
0010
0100
0010
0100
,  // measure 30
0010
1000
0100
0010
0100
1000
0010
0100
,  // measure 31
0000
0100
0010
1000
0100
0010
0001
0100
,  // measure 32
0010
0000
0000
1000
0000
0000
0001
0000
1000
0000
0001
0000
1000
0000
0001
0000
1000
0000
0001
0000
0000
0000
0000
0000
,  // measure 33
1000
0000
0100
0000
0001
0000
0100
0000
0010
0000
0001
0100
0010
0000
0100
0000
,  // measure 34
0002
0010
0000
0100
0000
1003
0100
1000
,  // measure 35
0100
0000
0001
0000
0100
0000
0010
0000
0001
0000
0100
0010
0100
0000
0001
0000
,  // measure 36
0001
0000
1000
0001
0000
1000
0001
1000
,  // measure 37
0001
0000
0100
0000
1000
0000
0100
0000
0010
0000
1000
0100
0010
0000
0100
0000
,  // measure 38
2000
0010
0000
0100
0000
3001
0010
0100
,  // measure 39
1000
0010
1000
0100
0010
0001
0100
0010
,  // measure 40
0000
0010
0100
0001
2000
0000
3001
0000
,  // measure 41
0001
0000
0100
0000
1000
0000
0100
0000
0010
0000
1000
0100
0010
0000
0100
0000
,  // measure 42
2000
0010
0000
0100
0000
3001
0100
0001
,  // measure 43
0100
0000
1000
0000
0100
0000
0010
0000
1000
0000
0100
0010
0100
0000
1000
0000
,  // measure 44
1000
0000
0001
1000
0000
0001
1000
0001
,  // measure 45
1000
0000
0100
0000
0001
0000
0100
0000
0010
0000
0001
0100
0010
0000
0100
0000
,  // measure 46
0002
0010
0000
0100
0000
1003
0010
0100
,  // measure 47
0001
0010
0001
0100
0010
1000
0100
0010
,  // measure 48
0000
0010
0100
1000
0002
0000
1003
0000
,  // measure 49
0001
0100
0010
0100
1000
0100
0010
0100
,  // measure 50
0000
0001
0100
0010
1000
0001
1000
0001
,  // measure 51
1000
0100
0001
0100
1000
0010
0100
0010
,  // measure 52
1000
0000
0000
0001
0000
0010
0000
0001
1000
0000
0000
0010
0000
0000
0000
0000
,  // measure 53
1000
0100
0010
0100
0001
0100
0010
0100
,  // measure 54
0000
1000
0010
0100
0001
1000
0001
1000
,  // measure 55
0001
0100
1000
0100
0001
0010
0100
0010
,  // measure 56
0001
0000
0000
0001
0000
0000
1000
0000
0000
1000
0000
0000
0010
0000
0010
0000
,  // measure 57
1000
0000
0100
0000
0010
0000
0001
0000
1000
0000
0001
1000
0001
0000
0010
0000
,  // measure 58
0001
0000
0100
0000
0010
0000
1000
0000
0001
0000
1000
0001
1000
0000
0010
0000
,  // measure 59
1000
0000
0100
0000
0001
0000
0100
0000
0010
0000
0001
1000
0001
0000
0010
0000
,  // measure 60
0001
0000
0100
0000
1000
0000
0100
0000
0010
0000
1000
0001
1000
0000
0010
0000
,  // measure 61
1000
0000
0100
0010
0100
0000
1000
0000
0001
0000
0100
0010
0100
0000
0001
0000
,  // measure 62
1000
0000
0100
0010
0100
0000
0010
0000
0001
0000
0100
0010
0100
0000
0010
0000
,  // measure 63
1000
1000
0001
0001
0010
0100
0010
0100
,  // measure 64
1000
0000
1000
0000
0001
0000
0001
0000
1000
0001
1000
0001
1000
0001
1000
0001
,  // measure 65
2000
0000
0001
0000
0001
0000
3001
0100
,  // measure 66
0000
0100
0000
0100
0001
0010
0100
0010
,  // measure 67
0001
0000
0100
0000
0010
0000
0100
0000
1000
0000
0100
0010
0100
0000
0001
0000
,  // measure 68
0020
1000
0000
0100
0000
0031
1000
0001
,  // measure 69
1000
0000
0100
0000
0010
0000
0100
0000
1000
0000
0010
0100
0010
0000
1000
0000
,  // measure 70
0100
0010
0001
0100
0000
0100
0001
0001
,  // measure 71
1000
0000
0100
0000
0010
0000
0100
0000
0001
0000
0100
0010
0100
0000
1000
0000
,  // measure 72
0020
0001
0000
0100
0000
1030
0100
0010
,  // measure 73
0001
0100
1000
0001
0010
1000
0100
0001
,  // measure 74
0000
0001
0100
1000
0002
0000
1003
0000
,  // measure 75
1000
0000
0100
0000
0010
0000
0100
0000
0001
0000
0100
0010
0100
0000
1000
0000
,  // measure 76
0010
0000
0100
0010
0100
0010
0100
0010
0000
0010
1000
0000
0001
0000
1000
0000
,  // measure 77
0001
0000
0100
0000
0010
0000
0100
0000
0001
0000
0010
0100
0010
0000
0001
0000
,  // measure 78
0100
0010
1000
0001
0000
0001
1000
1000
,  // measure 79
0001
0000
0100
0000
0010
0000
0100
0000
1000
0000
0100
0010
0100
0000
0001
0000
,  // measure 80
0010
0000
0100
0010
0100
0010
0100
0010
0000
0010
0001
0000
0100
0000
0010
0000
,  // measure 81
1000
0100
0001
1000
0010
0001
0100
1000
,  // measure 82
0000
1000
0100
0001
2000
0000
3001
0000
,  // measure 83
2002
0000
0000
0000
,  // measure 84
3003
0000
0000
0000
;

//---------------dance-single - ----------------
#NOTES:
     dance-single:
     :
     Medium:
     6:
     0.500790,0.565627,0.177817,0.372569,0.021169,349.000000,21.000000,44.000000,0.000000,0.000000,0.000000,0.500790,0.565627,0.177817,0.372569,0.021169,349.000000,21.000000,44.000000,0.000000,0.000000,0.000000:
0000
0000
0000
0000
,
0000
0000
0000
0000
,
0000
0000
0000
0000
,
0000
0000
0000
0000
,
0000
0000
0000
0000
,
0000
0000
0000
0000
,
0000
0000
0000
0000
,
0000
0000
0000
0000
,
0001
0000
0100
0000
1000
0100
0001
0000
,
1000
0000
0100
0000
0001
0100
1000
0000
,
0001
0000
0100
0000
0010
1000
0010
0000
,
1000
0000
0100
0000
0010
0001
0010
0000
,
0001
0000
0100
0000
1000
0100
0001
0000
,
1000
0000
0100
0000
0001
0100
1000
0000
,
0001
0001
1000
1000
,
2002
0000
0000
3003
,
1000
0000
1000
0000
0100
0000
0001
0100
,
1000
0000
0000
0000
,
0001
0000
0100
0000
0100
0000
0001
0010
,
0100
0000
1000
0001
0000
0001
1000
0000
,
0001
0000
0100
0000
0100
0000
1000
0100
,
0001
0000
0000
1000
,
0100
0000
0010
0000
0100
0000
1000
0001
,
0000
0001
1000
0000
1001
0000
0110
0000
,
1001
0000
0001
0000
0100
0000
0010
0100
,
0010
1000
1000
0001
,
0001
0000
1000
0000
0100
0000
0010
0100
,
0010
0001
0001
1000
,
1000
0000
0001
0000
0100
0000
0010
0100
,
0010
1000
1000
0001
,
0001
0100
0010
0000
1000
0000
0001
0000
,
1000
0100
0010
0000
0001
0000
1000
0000
,
2002
0000
0000
3003
,
2010
0000
0001
0000
3200
0000
1000
1000
,
2300
0000
0000
0000
0000
0001
0001
0001
,
3002
0000
0100
0000
0013
0000
0001
0010
,
0001
0000
1000
0001
0000
0001
1000
0000
,
0012
0000
1000
0000
0203
0000
0001
0001
,
0302
0000
0000
0000
,
1003
0000
0001
0100
0000
0100
0010
1000
,
0000
1000
0200
0000
1300
0000
1001
0000
,
0012
0000
1000
0000
0203
0000
0001
0001
,
0302
0000
0000
0000
0000
1000
1000
1000
,
2003
0000
0100
0000
3010
0000
1000
0010
,
1000
0000
0001
1000
0000
1000
0001
0000
,
2010
0000
0001
0000
3200
0000
1000
1000
,
2300
0000
0000
0000
,
3001
0000
1000
0100
0000
0100
0010
0001
,
0000
0001
0200
0000
0301
0000
1001
0000
,
0012
0000
1003
0000
0100
0010
0100
0000
,
1000
0010
0100
0010
1000
0010
0100
0000
,
0210
0000
0301
0000
1000
0001
1000
0000
,
0001
0000
0000
0001
0000
1000
0000
0000
1000
0000
0000
0001
0000
0000
0000
0000
,
2010
0000
3001
0000
0100
0010
0100
0000
,
0001
0010
0100
0010
0001
0010
0100
0000
,
0010
0010
0100
0100
1000
1000
0001
0001
,
1000
0000
0000
1000
0000
0000
0001
0000
0000
0001
0000
0000
0010
0000
0010
0000
,
0001
0000
0100
0000
0010
1000
0010
0000
,
1000
0000
0100
0000
0010
0001
0010
0000
,
0001
0000
0100
0000
1000
0100
0001
0000
,
1000
0000
0100
0000
0001
0100
1000
0000
,
0001
0100
1000
0000
1000
0100
0001
0000
,
1000
0100
0001
0000
0001
0100
1000
0000
,
0001
0001
1000
1000
,
0001
0001
1000
1000
0001
1000
0001
1000
,
0002
0000
0023
0000
0230
0000
1300
0001
,
0000
0001
0000
0001
1000
0001
1000
1000
,
2010
0000
0001
0000
3200
0000
1000
1000
,
2300
0000
0000
0000
0000
0001
0001
0001
,
3002
0000
0100
0000
0013
0000
0001
0010
,
0001
0000
1000
0001
0000
0001
1000
0000
,
0012
0000
1000
0000
0203
0000
0001
0001
,
0302
0000
0000
0000
,
1003
0000
0001
0100
0000
0100
0010
1000
,
0000
1000
0200
0000
1300
0000
1001
0000
,
0012
0000
1000
0000
0203
0000
0001
0001
,
0302
0000
0000
0000
0000
1000
1000
1000
,
2003
0000
0100
0000
3010
0000
1000
0010
,
1000
0000
0001
1000
0000
1000
0001
0000
,
2010
0000
0001
0000
3200
0000
1000
1000
,
2300
0000
0000
0000
,
3001
0000
1000
0100
0000
0100
0010
0001
,
0000
0001
0200
0000
0301
0000
1001
0000
,
2002
0000
3003
0000
;

//---------------dance-single - ----------------
#NOTES:
     dance-single:
     :
     Easy:
     4:
     0.365311,0.569014,0.355634,0.287894,0.000000,226.000000,42.000000,34.000000,0.000000,0.000000,0.000000,0.365311,0.569014,0.355634,0.287894,0.000000,226.000000,42.000000,34.000000,0.000000,0.000000,0.000000:
0000
0000
0000
0000
,
0000
0000
0000
0000
,
0000
0000
0000
0000
,
0000
0000
0000
0000
,
0000
0000
0000
0000
,
0000
0000
0000
0000
,
0000
0000
0000
0000
,
0000
0000
0000
0000
,
1001
0000
1000
0000
,
0001
1000
0001
0000
,
1001
0000
0001
0000
,
1000
0001
1000
0000
,
1010
0000
0010
0000
,
1000
0010
1000
0000
,
0011
0000
0010
0000
,
0001
0010
0001
0000
,
1002
0100
1000
0010
,
1003
0000
0000
0000
,
2001
0100
0001
0010
,
3001
0000
0000
0000
,
2100
0001
0010
0001
,
3100
0000
0000
0000
,
0012
1003
2010
3001
,
0102
1003
2100
3001
,
2001
0100
0001
0010
,
3001
0000
0000
0000
,
1002
0100
1000
0010
,
1003
0000
0000
0000
,
0102
1000
0010
1000
,
0103
0000
0000
0000
,
2010
3001
0012
1003
,
2100
3001
0102
1003
,
2002
0000
0000
3003
,
0001
0100
0010
0100
,
0001
0000
0000
1000
,
0100
0010
0100
1000
,
0002
0000
1003
0000
,
0001
0100
0010
0100
,
0001
0000
0000
0000
,
1000
0100
0001
0100
,
1000
1000
0001
0001
,
1000
0100
0010
0100
,
1000
0000
0000
0001
,
0100
0010
0100
0001
,
2000
0000
3001
0000
,
1000
0100
0010
0100
,
1000
0000
0000
0001
,
0100
1000
0100
0001
,
0001
1000
1000
1001
,
1001
0001
0100
0010
,
1000
1000
0001
0001
,
1000
0100
0001
0010
,
2000
0000
3001
0000
,
1001
1000
0100
0010
,
0001
0001
1000
1000
,
0001
0100
1000
0010
,
0002
0000
1003
0000
,
0102
1000
0103
1001
,
2100
0001
3100
1001
,
0012
1000
0013
1001
,
2010
0001
3010
1001
,
0012
1003
2010
3001
,
0102
1003
2100
3001
,
1001
0000
1001
0000
,
1001
0110
1001
0110
,
2002
0000
0000
0000
,
0000
0000
0000
3003
,
0001
0100
0010
0100
,
0001
0000
0000
0000
,
1000
0100
0010
0100
,
2000
0000
3001
0000
,
1000
0100
0010
0100
,
1000
0000
0000
0000
,
0001
0100
1000
0100
,
0001
0001
1000
1000
,
0001
0100
0010
0100
,
0001
0000
0000
0000
,
1000
0100
0010
0100
,
2000
0000
3001
0000
,
1000
0100
0010
0100
,
1000
0000
0000
0000
,
0001
0100
1000
0100
,
0001
0001
1000
1000
,
2002
0000
0000
0000
,
3003
0000
0000
0000
;
