#VERSION:0.81;
#TITLE:Life Was A Bore;
#SUBTITLE:;
#ARTIST:Donna Burke;
#TITLETRANSLIT:;
#SUBTITLETRANSLIT:;
#ARTISTTRANSLIT:;
#GENRE:;
#ORIGIN:;
#CREDIT:;
#BANNER:Life Was A Bore-bn.png;
#BACKGROUND:Life Was A Bore-bg.png;
#PREVIEWVID:;
#JACKET:Life Was A Bore-jk.png;
#CDIMAGE:;
#DISCIMAGE:;
#LYRICSPATH:;
#CDTITLE:darkanine.png;
#MUSIC:Life Was a Bore.mp3;
#OFFSET:-0.346000;
#SAMPLESTART:65.255745;
#SAMPLELENGTH:13.469000;
#SELECTABLE:YES;
#BPMS:0.000=147.000;
#STOPS:;
#DELAYS:;
#WARPS:;
#TIMESIGNATURES:0.000=4=4;
#TICKCOUNTS:0.000=4;
#COMBOS:0.000=1;
#SPEEDS:0.000=1.000=0.000=0;
#SCROLLS:0.000=1.000;
#FAKES:;
#LABELS:0.000=Song Start;
#BGCHANGES:;
#KEYSOUNDS:;
#ATTACKS:
;

//---------------dance-single - ----------------
#NOTEDATA:;
#CHARTNAME:;
#STEPSTYPE:dance-single;
#DESCRIPTION:;
#CHARTSTYLE:;
#DIFFICULTY:Challenge;
#METER:12;
#RADARVALUES:0.683595,0.935241,0.208840,0.172520,0.549341,485.000000,23.000000,19.000000,0.000000,0.000000,0.000000,0.000000,0.000000,0.683595,0.935241,0.208840,0.172520,0.549341,485.000000,23.000000,19.000000,0.000000,0.000000,0.000000,0.000000,0.000000;
#CREDIT:;
#NOTES:
0000
0000
0000
0000
,
0000
0000
0000
0000
,
0000
0000
0000
0000
,
0000
0000
0000
0000
,
1000
0000
0000
0000
0000
0000
0000
0000
0000
0000
0000
0000
0100
0000
0000
0000
0000
0000
0000
0000
0000
0000
0000
0000
0001
0000
0000
0100
0000
0000
0010
0000
0100
0000
0001
0000
1000
0000
0000
0100
0000
0000
0010
0000
0000
0001
0000
0000
,
0010
0000
0000
0000
0000
0000
0000
0000
0000
0000
0000
0000
0000
0000
0000
0000
0000
0000
0000
0000
0000
0000
0000
0000
0100
0000
0000
0000
0000
0000
0000
0000
0000
0000
0000
0000
0000
0000
0000
0000
0000
0000
0000
0000
0000
0000
0000
0000
0000
0000
0000
0000
0000
0000
0000
0000
0000
0000
0000
0000
0000
0000
0000
0000
0000
0000
0000
0000
0010
0000
0000
0000
0000
0000
0000
0000
0000
0000
0000
0000
0100
0000
0000
0000
0000
0000
0000
0000
0000
0000
0010
0000
0000
0000
0000
0000
0001
0000
0000
0000
0000
0000
0000
0000
0000
0000
0000
0000
0000
0000
0000
0000
1000
0000
0000
0000
0000
0000
0000
0000
0100
0000
0000
0000
0000
0000
0000
0000
0000
0000
0000
0000
0000
0000
0000
0000
1000
0000
0000
0000
0000
0000
0000
0000
0010
0000
0000
0000
0000
0000
0000
0000
0000
0000
0000
0000
0000
0000
0000
0000
0100
0000
0000
0000
0000
0000
0000
0000
0001
0000
0000
0000
0000
0000
0000
0000
0000
0000
0000
0000
0000
0000
0000
0000
0010
0000
0000
0000
0000
0000
0000
0000
,
0001
0000
0000
0010
0000
0000
0200
0000
0000
0000
0000
0000
0300
0000
0000
0000
,
1100
0000
0000
0000
1100
0000
0000
0000
1000
0000
0000
0000
1000
0000
0000
0000
1001
0000
0000
0000
0001
0000
0000
0100
0010
0000
0000
0000
0100
0000
0000
0000
,
0002
0000
1003
0100
1000
0000
1010
0000
,
0010
0000
0100
0010
1000
0001
0010
0001
,
0200
0301
1000
1100
,
0012
0000
0000
0000
0103
0000
0000
0000
1000
0000
0100
0000
0010
0001
0010
0000
,
0002
0013
0100
1100
,
0001
0000
0010
0001
0100
0001
1000
0100
,
0020
0031
1000
1010
,
0002
0000
0000
0000
0000
0000
0100
0000
0000
0000
0000
0000
0103
0000
0000
0001
0000
0000
1000
0000
0000
0000
0000
0000
0100
0000
0000
0000
0000
0000
1000
0000
0001
0000
0100
0000
0010
0000
0000
0100
0000
0000
0001
0000
0000
0000
0000
0000
,
1000
0100
0010
0000
0001
1000
0100
0000
,
0001
0000
0100
0000
0010
0000
0000
0000
1000
0000
0100
0000
0010
0000
0100
1000
,
0010
0000
0000
0000
0000
0000
0000
0000
0000
0000
0000
0000
0000
0000
0000
0000
0000
0000
0100
0000
0000
0000
0000
0000
0001
0000
0000
0000
0000
0000
0000
0000
0000
0000
0000
0000
0000
0000
0000
0000
0000
0000
0000
0000
0000
0000
0000
0000
0000
0000
0000
0000
0000
0000
0000
0000
0000
0000
0000
0000
0000
0000
0000
0000
0000
0000
0000
0000
0000
0000
0000
0000
1000
0000
0000
0000
0000
0000
0000
0000
0000
0000
0000
0000
0000
0000
0000
0000
0000
0000
0000
0000
0000
0000
0000
0000
0000
0000
0000
0000
0000
0000
0000
0000
0000
0000
0000
0000
0000
0000
0000
0000
0000
0000
0000
0000
0000
0000
0000
0000
0100
0000
0000
0000
0000
0000
0000
0000
0000
0000
0000
0000
0000
0000
0000
0000
0000
0000
0000
0000
0000
0000
0000
0000
0000
0000
0000
0000
0000
0000
0000
0000
0010
0000
0000
0000
0000
0000
0000
0000
0000
0000
0000
0000
0000
0000
0000
0000
0000
0000
0000
0000
0000
0000
0000
0000
0000
0000
0000
0000
0000
0000
0000
0000
0000
0000
0000
0000
0000
0000
0000
0000
,
0100
1000
0010
0000
0100
0001
1000
0000
,
0010
0000
0000
1000
0100
0000
0010
0000
0000
0000
0000
0000
0001
0000
0000
0000
0000
0000
0000
0000
0000
0100
0000
0000
0000
0000
0000
0000
0000
0000
0000
0000
0010
0000
0000
0000
0000
0000
0000
0000
0000
0000
1000
0000
0000
0000
0000
0000
,
0000
0000
0000
0000
0100
0000
0000
0000
1000
0000
0000
0000
0000
0000
0000
0000
0010
0000
0000
0000
0100
0000
0000
0000
0001
0000
0000
0000
0000
0100
0001
0100
,
0010
0000
0000
0000
0000
0000
0000
0000
0000
0000
0000
0000
0000
0000
0000
0000
0000
0000
1000
0000
0000
0000
0000
0000
0100
0000
0000
0000
0000
0000
0000
0000
0010
0000
0000
0000
0000
0000
0000
0000
0001
0000
0000
0000
0010
0000
0000
0000
0001
0000
0000
0000
0000
0000
0000
0000
0000
0000
0000
0000
0000
0000
0000
0000
0000
0000
0000
0000
0000
0000
0000
0000
0000
0000
0000
0000
0000
0000
0000
0000
0000
0000
0000
0000
0000
0000
0000
0000
0000
0000
0000
0000
0000
0000
0000
0000
0100
0000
0000
0000
0000
0000
0000
0000
0000
0000
0000
0000
0000
0000
0000
0000
0000
0000
0000
0000
0000
0000
0000
0000
0001
0000
0000
0000
0000
0000
0000
0000
0000
0000
0000
0000
0000
0000
0000
0000
0000
0000
0000
0000
0000
0000
0000
0000
0100
0000
0000
0000
0000
0000
0000
0000
0000
0000
0000
0000
0000
0000
0000
0000
0000
0000
0000
0000
0000
0000
0000
0000
0000
0000
0000
0000
0000
0000
0010
0000
0000
0000
0000
0000
1000
0000
0000
0000
0100
0000
0000
0000
0000
0000
0000
0000
,
0010
0000
0000
0000
0000
0000
0000
0000
0000
0100
0000
0000
0000
0000
0000
0000
0000
0000
1000
0000
0000
0010
0000
0000
1000
0000
0000
0000
0000
0000
0001
0000
0000
0010
0000
0000
0100
0000
1000
0000
0001
0000
0010
0000
0000
0000
0000
0000
,
0100
1000
0010
0000
1000
0001
0010
0000
,
0100
1000
0100
0010
0100
1000
0100
0010
,
0001
0000
0000
0000
0000
0100
0000
0000
0000
0000
0000
0000
0010
0000
0000
0000
0000
0010
0000
0000
0000
0000
1000
0000
0000
0000
0000
0000
0100
0000
0000
0000
,
0010
0100
1000
0001
0100
0010
0100
0001
,
1000
0010
0100
0000
0001
1000
0100
1000
,
0010
0000
0100
0000
0001
0000
0000
0000
1000
0000
0000
0100
0000
0000
0010
0000
,
0100
0000
0000
1000
0000
0000
0000
0000
0001
0000
1000
0000
0010
0000
0100
0020
,
2030
0000
0000
0000
0000
0000
0000
0000
0000
0000
0000
0000
0000
0000
0000
0000
0000
0000
0000
0000
0000
0000
0000
0000
3001
0000
0000
0000
0000
0000
0000
0000
0000
0000
0000
0000
0010
0000
0000
0000
0000
0000
0000
0000
0000
0000
0000
0000
0100
0000
0000
0000
0000
0000
0000
0000
0000
0000
0000
0000
0010
0000
0000
0000
0000
0000
0000
0000
0000
0000
0000
0000
0001
0000
0000
0000
0000
0000
0000
0000
0000
0000
0000
0000
0000
0000
0000
0000
0000
0000
0000
0000
0000
0000
0000
0000
1000
0000
0000
0000
0000
0000
0000
0000
0100
0000
0000
0000
0000
0000
0000
0000
0010
0000
0000
0000
0000
0000
0000
0000
0100
0000
0000
0000
0000
0000
1000
0000
0000
0000
0000
0000
0001
0000
0000
0000
0000
0000
0100
0000
0000
0000
0000
0000
0010
0000
0000
0000
0000
0000
0000
0000
0000
0000
0000
0000
0000
0000
0000
0000
0000
0000
0000
0000
0000
0000
0000
0000
0000
0000
0000
0000
0000
0000
0000
0000
0000
0000
0000
0000
0000
0000
0000
0000
0000
0000
0000
0000
0000
0000
0000
0000
,
1001
1000
0100
0000
1000
0010
0100
0001
,
0100
0010
1000
0000
0100
1000
0001
0010
,
0001
0000
2000
3020
0030
0200
0300
0002
,
1003
0000
0100
0000
0000
0000
1000
0000
0000
0000
0100
0000
1000
0001
1000
0001
,
0010
0000
0001
0010
0100
0010
0001
0100
,
0010
0000
1000
0100
0010
0100
1000
0100
,
0020
0030
0200
2300
3000
0020
0000
0130
,
0001
0000
0001
0100
0010
0100
0001
0000
1000
0100
0010
0100
1000
0000
0001
0000
,
0101
1000
0100
0000
1000
0010
1000
0000
,
0001
0100
0001
0000
1000
0100
1000
0010
,
0100
0000
0001
1000
0100
1000
0001
0100
,
0010
0000
0000
0000
0010
0000
1000
0000
0100
0000
0010
0000
0001
1000
0100
1000
,
0001
0000
0100
0001
1000
0000
0010
1000
,
0001
0000
0010
0100
1000
0010
1000
0100
,
0010
0001
1000
0000
0010
1000
0001
0000
,
1000
0000
1010
0000
1010
0000
0000
0000
0100
0000
1000
0001
0010
0000
0100
0000
,
0010
0001
1000
0000
0100
1000
0001
0000
,
0100
0001
1000
0000
0001
0100
0010
0100
,
0001
1000
0010
0000
1000
0001
0010
0000
,
0100
0000
1000
0000
0001
0000
0000
0000
0100
0000
0001
0000
1000
0100
1000
0100
,
0010
0000
0001
0100
0001
0010
0100
0010
,
0001
0100
0001
0000
1000
0100
1000
0000
,
0001
0010
0100
0000
1000
0001
0100
0001
,
0010
0000
0000
0000
0000
0000
0000
0000
0000
0000
0000
0000
0000
0000
0000
0000
0000
0000
0000
0000
0000
0000
0000
0000
0100
0000
0000
0000
0000
0000
0000
0000
0000
0000
0000
0000
1000
0000
0000
0000
0000
0000
0000
0000
0000
0000
0000
0000
0001
0000
0000
0000
0000
0000
0000
0000
0000
0000
0000
0000
1000
0000
0000
0000
0000
0000
0000
0000
0000
0000
0000
0000
0100
0000
0000
0000
0000
0000
0000
0000
0000
0000
0000
0000
0010
0000
0000
0000
0000
0000
0000
0000
0000
0000
0000
0000
0001
0000
0000
0000
0000
0000
0000
0000
0000
0000
0000
0000
0100
0000
0000
0000
0000
0000
0000
0000
0000
0000
0000
0000
0001
0000
0000
0000
0000
0000
0000
0000
0010
0000
0000
0000
0100
0000
0000
0000
0000
0000
0010
0000
0000
0000
0000
0000
0001
0000
0000
0000
0000
0000
0000
0000
0000
0000
0000
0000
0000
0000
0000
0000
0000
0000
0000
0000
0000
0000
0000
0000
0000
0000
0000
0000
0000
0000
0000
0000
0000
0000
0000
0000
0000
0000
0000
0000
0000
0000
0000
0000
0000
0000
0000
0000
,
1100
0000
0000
0000
0000
0000
1000
0000
0001
0000
0100
0000
0010
0000
0000
0100
0000
0000
0101
0000
0000
0000
0000
0000
0000
0000
0000
0001
0000
0000
0010
0000
0000
0000
0000
0000
0110
0000
0000
0000
0000
0000
0000
0000
0000
0100
0000
0000
,
1000
0001
0010
0000
0000
0000
0010
0000
0100
0000
0000
0000
1000
0000
0000
0000
0000
0000
1000
0000
0010
0000
0000
0000
0000
0000
0000
0000
0100
0000
0000
0000
,
0101
0000
0000
0000
0000
0000
0001
0000
0100
0000
0010
0000
0000
1000
0000
0000
0000
0000
1100
0000
0000
0000
0000
0000
0000
0000
0000
0001
0000
0000
1000
0000
0000
0010
0000
0000
1000
0000
0000
0100
0000
0000
0000
0000
0000
0010
0000
0000
,
0000
0000
0010
0000
0000
0000
0001
0000
1000
0000
0000
0000
0000
0000
0001
0100
0010
0000
1000
0000
0000
0000
0000
0000
0001
0000
0010
0000
0100
0000
0000
0000
,
1100
0000
0000
0000
0000
0000
0000
0000
0000
0000
0000
0000
1000
0000
0000
0000
0000
0000
0001
0000
0000
0000
0000
0000
0100
0000
0000
0000
0000
0000
0000
0000
0010
0000
0000
0000
0000
0000
0000
0000
0100
0000
0000
0000
0000
0000
0000
0000
0001
0000
0000
0000
0000
0000
0000
0000
0000
0000
0000
0000
0000
0000
0000
0000
0000
0000
0000
0000
0000
0000
0000
0000
1001
0000
0000
0000
0000
0000
0000
0000
0000
0000
0000
0000
0000
0000
0000
0000
0000
0000
0000
0000
0000
0000
0000
0000
0000
0000
0000
0000
0000
0000
0000
0000
0000
0000
0000
0000
1000
0000
0000
0000
0000
0000
0000
0000
0000
0000
0000
0000
0010
0000
0000
0000
0000
0000
0000
0000
0000
0000
0000
0000
0000
0000
0000
0000
0000
0000
0000
0000
0000
0000
0000
0000
0110
0000
0000
0000
0000
0000
0000
0000
0000
0000
0000
0000
0000
0000
0000
0000
0000
0000
0000
0000
0000
0000
0000
0000
0000
0000
0000
0000
0000
0000
0000
0000
0001
0000
0000
0000
0000
0000
0000
0000
0000
0000
0100
0000
0000
0000
0000
0000
,
0010
0100
0001
1000
0010
0100
0001
1000
0100
0010
0001
0100
0010
0100
0001
1000
,
0100
0000
0000
0000
0000
0000
0000
0000
1000
0000
0000
0000
0001
0000
0000
0000
0000
0000
1000
0000
0000
0000
0000
0000
0010
0000
0000
0000
0000
0000
0100
0000
0000
0000
0000
0000
0001
0000
0000
0000
0000
0000
0000
0000
0000
0000
0000
0000
0100
0000
0000
0000
0000
0000
0000
0000
0000
0000
0000
0000
0001
0000
0000
0000
0000
0000
0000
0000
0000
0000
0000
0000
0101
0000
0000
0000
0000
0000
0000
0000
0000
0000
0000
0000
0000
0000
0000
0000
0000
0000
0000
0000
0000
0000
0000
0000
0000
0000
0000
0000
0000
0000
0000
0000
0000
0000
0000
0000
0100
0000
0000
0000
0000
0000
0000
0000
0000
0000
0000
0000
1000
0000
0000
0000
0000
0000
0000
0000
0000
0000
0000
0000
0000
0000
0000
0000
0000
0000
0000
0000
0000
0000
0000
0000
0220
0000
0000
0000
0000
0000
0000
0000
0000
0000
0000
0000
0000
0000
0000
0000
0000
0000
0000
0000
0000
0000
0000
0000
0000
0000
0000
0000
0000
0000
0000
0000
0000
0000
0000
0000
0000
0000
0000
0000
0000
0000
0000
0000
0000
0000
0000
0000
,
0330
0000
0000
0000
0000
0000
0000
0000
0000
0000
0000
0000
0000
0000
0000
0000
0000
0000
0000
0000
0000
0000
0000
0000
0001
0000
0000
0000
0000
0000
0000
0000
0010
0000
0000
0000
0000
0000
0000
0000
0100
0000
0000
0000
0000
0000
0000
0000
1000
0000
0000
0000
0000
0000
0000
0000
0000
0000
0000
0000
0000
0000
0000
0000
0000
0000
0000
0000
0000
0000
0000
0000
0000
0000
0000
0000
0000
0000
0000
0000
0000
0000
0000
0000
0000
0000
0000
0000
0000
0000
0001
0000
0000
0000
0000
0000
0100
0000
0000
0000
0000
0000
0000
0000
0000
0000
0000
0000
0000
0000
0000
0000
0000
0000
0000
0000
0000
0000
0000
0000
0000
0000
0000
0000
0000
0000
0000
0000
0000
0000
0000
0000
0000
0000
0000
0000
0000
0000
0000
0000
0000
0000
0000
0000
0000
0000
0000
0000
0000
0000
0000
0000
0000
0000
0000
0000
0000
0000
0000
0000
0000
0000
0000
0000
0000
0000
0000
0000
0001
0000
0000
0000
0000
0000
0000
0000
0000
0000
0000
0000
0010
0000
0000
0000
0000
0000
0000
0000
0000
0000
0000
0000
,
0100
0000
0000
0100
0000
0000
0110
0000
0000
0000
0000
0000
0000
0000
0000
0000
;

//---------------dance-single - ----------------
#NOTEDATA:;
#CHARTNAME:;
#STEPSTYPE:dance-single;
#DESCRIPTION:;
#CHARTSTYLE:;
#DIFFICULTY:Hard;
#METER:9;
#RADARVALUES:0.625224,0.911293,0.299640,0.227000,0.204300,424.000000,33.000000,25.000000,0.000000,0.000000,0.000000,0.000000,0.000000,0.625224,0.911293,0.299640,0.227000,0.204300,424.000000,33.000000,25.000000,0.000000,0.000000,0.000000,0.000000,0.000000;
#CREDIT:;
#NOTES:
// measure 0
0000
0000
0000
0000
,  // measure 1
0000
0000
0000
0000
,  // measure 2
0000
0000
0000
0000
,  // measure 3
0000
0000
0000
0000
,  // measure 4
1000
0000
0001
0000
0100
0010
0100
0001
,  // measure 5
1000
0100
0000
0010
0001
1000
0100
1000
,  // measure 6
0002
0000
0000
0100
0000
0000
0103
0000
0000
0000
0001
0000
1000
0000
0000
0000
,  // measure 7
1100
0000
1100
0000
1000
0000
0001
0000
0101
0000
0001
0100
0010
0000
0100
0000
,  // measure 8
0001
1000
0100
0000
1000
0001
0100
0000
,  // measure 9
0010
1000
0001
0010
0100
0010
0001
1000
,  // measure 10
0100
1000
0010
0000
0100
0001
0010
0000
,  // measure 11
0001
0000
0100
0000
0010
0000
0000
0000
1000
0000
0100
0010
0100
0010
0100
0000
,  // measure 12
1000
0010
0100
0000
0001
0010
0100
0000
,  // measure 13
1000
0010
0100
0010
1000
0100
0010
0100
,  // measure 14
1000
0001
0010
0000
0001
1000
0010
0000
,  // measure 15
0100
0000
0001
0000
1000
0001
1000
0000
0100
0000
1000
0010
0100
0010
0100
0000
,  // measure 16
0001
1000
0100
0000
1000
0000
0010
0100
,  // measure 17
0001
1000
0010
0000
1000
0100
1000
0000
,  // measure 18
0001
0100
0010
0000
1000
0000
0001
0010
,  // measure 19
0100
0010
0001
0000
1000
0010
1000
0000
,  // measure 20
0001
1000
0100
0000
1000
0000
0010
0000
,  // measure 21
0100
0001
1000
0000
0100
1000
0001
0100
,  // measure 22
0010
1000
1001
0000
1000
0100
1000
0001
,  // measure 23
0100
0000
0000
0010
0000
0000
1000
0010
1000
0000
0100
0010
0100
1000
0001
0000
,  // measure 24
1000
0100
1000
0000
0001
0100
0001
0000
,  // measure 25
1000
0010
1000
0100
1000
0010
1000
0100
,  // measure 26
0010
0001
0010
0000
0001
0100
0001
0000
,  // measure 27
1000
0001
1000
0100
0010
0001
0010
0100
,  // measure 28
1000
0010
1000
0000
0001
0010
0001
0000
,  // measure 29
1000
0000
0010
0000
1000
0000
0001
0000
0100
0000
0000
0010
0000
0000
0100
0000
,  // measure 30
0001
0000
0000
1000
0000
0000
0000
0000
0010
0000
0100
0000
0010
0000
0000
0000
,  // measure 31
1000
0000
0100
1000
0001
1000
0001
0000
0100
0001
0100
0010
1000
0000
0000
0000
,  // measure 32
0100
1000
1010
0000
0100
0001
0011
0000
,  // measure 33
0100
1000
1001
0000
0100
0001
1001
1000
,  // measure 34
0010
0000
0200
0001
0000
0310
0000
1000
,  // measure 35
0100
0000
1000
0000
0001
0000
1000
0000
0100
0000
0010
0000
0001
0100
0001
0100
,  // measure 36
0001
1000
1100
0000
1000
0001
0101
0000
,  // measure 37
0010
1000
1001
0000
0010
0001
1001
1000
,  // measure 38
0100
0000
0020
0001
0000
1000
0000
0031
,  // measure 39
0100
0000
0010
1000
0001
1000
0001
0000
1000
0010
1000
0010
0100
0000
0001
0000
,  // measure 40
0011
0000
0010
0001
0100
0010
0100
0001
,  // measure 41
1000
0000
0100
1000
0001
1000
0100
0010
,  // measure 42
0001
0000
0100
0010
0000
1000
0100
0000
,  // measure 43
1000
0000
0001
0000
0010
0000
0000
0000
0001
0000
1000
0000
0010
0100
0010
0100
,  // measure 44
0010
0000
1000
0001
0100
0000
0001
0010
,  // measure 45
0100
0000
1000
0001
0100
0010
1000
0100
,  // measure 46
0000
1000
0001
0000
1000
0010
0100
0001
,  // measure 47
0000
0000
0101
0000
1001
0000
0000
0000
1000
0000
0001
1000
0000
1000
0010
0000
,  // measure 48
1010
0000
0001
1000
0010
1000
0001
0100
,  // measure 49
0010
0000
0100
0001
1000
0100
0010
0001
,  // measure 50
0100
0000
0010
1000
0100
0000
0010
0001
,  // measure 51
1000
0000
0000
0000
0001
0000
1000
0000
0100
0000
1000
0000
0010
0100
0010
0100
,  // measure 52
0001
0000
1000
0100
0000
1000
0010
0100
,  // measure 53
0000
0001
0100
0010
0000
1000
0100
1000
,  // measure 54
0001
0001
0100
0000
1000
1000
0100
0010
,  // measure 55
0000
0000
0010
0100
1000
0100
1000
0100
1000
0010
0100
0001
0010
0000
0000
0000
,  // measure 56
0011
0000
0100
0000
1000
0000
1010
0000
0100
0000
0001
0000
0110
0000
0000
1000
,  // measure 57
0000
0000
0000
0001
1000
0100
0010
0002
0000
0000
0023
0000
0000
0000
0130
0000
,  // measure 58
1100
0000
0001
0000
0100
0000
0101
0000
0010
0000
0100
0000
1001
0000
0000
0010
,  // measure 59
0000
0000
2020
3030
0000
0202
0303
0000
0022
0033
0000
2200
3300
0000
2002
3003
,  // measure 60
0101
0000
0000
0010
0000
0000
1000
0000
0000
1010
0000
0000
0100
0000
0000
0001
0000
0000
0110
0000
0000
0000
0000
1000
,  // measure 61
0020
0000
0230
0000
0000
0302
0000
0000
2003
0000
0000
3200
0000
0000
0301
0000
,  // measure 62
0110
0010
0100
1001
0001
1000
0011
0000
,  // measure 63
0000
2000
3020
0000
0130
0000
0000
0200
,  // measure 64
0302
0000
0000
0010
0000
0000
2000
0000
0000
0000
0003
0000
3000
0000
0000
0000
;

//---------------dance-single - ----------------
#NOTEDATA:;
#CHARTNAME:;
#STEPSTYPE:dance-single;
#DESCRIPTION:;
#CHARTSTYLE:;
#DIFFICULTY:Medium;
#METER:7;
#RADARVALUES:0.474755,0.438394,0.099880,0.072640,0.018160,347.000000,11.000000,8.000000,0.000000,0.000000,0.000000,0.000000,0.000000,0.474755,0.438394,0.099880,0.072640,0.018160,347.000000,11.000000,8.000000,0.000000,0.000000,0.000000,0.000000,0.000000;
#CREDIT:;
#NOTES:
0000
0000
0000
0000
,
0000
0000
0000
0000
,
0000
0000
0000
0000
,
0000
0000
0000
0000
,
1000
0000
0100
0000
1000
0001
0100
0000
,
0110
0000
1000
0001
0100
0000
0100
0001
,
1000
0000
0000
0100
0000
0000
0200
0000
0000
0000
0000
0000
0300
0000
0000
0000
,
1010
1000
0001
0100
0101
0001
0010
0001
,
1000
0010
1000
0000
1000
0010
1000
0000
,
1000
0100
1000
0001
0010
0001
1000
0100
,
1000
0001
1000
0000
1000
0001
1000
0000
,
0001
0100
0001
0000
0001
0100
0001
0000
,
0001
0010
0001
0000
0001
0010
0001
0000
,
0001
0100
0001
1000
0010
1000
0001
0100
,
0001
1000
0001
0000
0001
1000
0001
0000
,
1000
0010
1000
0000
1000
0100
0010
0100
,
1000
0001
0010
0000
0100
0000
1000
0000
,
0001
0100
0001
0000
1000
0000
0100
0000
,
0010
0001
0010
0000
0001
1000
0001
0000
,
0100
0010
0100
0000
0001
0000
1000
0000
,
0100
0010
0001
0000
1000
0000
0001
0000
,
0100
0001
0100
0000
0010
1000
0010
0000
,
1000
0001
0010
0000
0100
0000
1000
0000
,
1001
0000
0100
0000
0010
0100
0010
0000
,
1000
0100
1000
0001
,
0100
0001
0000
1000
0000
0010
0000
1000
,
0001
0100
0001
1000
,
0100
1000
0000
0001
0000
0010
0000
0001
,
0100
0010
1000
0010
,
0100
0001
1000
0000
0100
0000
0010
0000
,
1001
0000
0001
0000
1000
0000
0010
0100
,
0010
1000
0100
0000
0010
0001
1001
0000
,
1000
0100
1000
0000
0001
0100
0001
0000
,
1000
0010
1000
0000
0001
0010
0001
0000
,
1000
0000
0100
0010
0000
0100
1000
0000
,
0100
0010
0001
0000
0001
0100
0010
0010
,
1000
0100
1000
0000
0001
0100
0001
0000
,
1000
0010
1000
0000
0001
0010
0001
0100
,
0010
0000
0010
1000
0000
0001
0000
0100
,
0010
1000
0010
0000
0100
0001
1000
0100
,
0010
0000
0001
0100
0001
0000
1000
0010
,
1000
0000
0001
0010
0001
0000
1000
0100
,
0010
0000
0001
0100
0000
0100
0001
0000
,
1000
0100
1000
0000
0001
0100
0001
0010
,
0100
0000
1000
0100
1000
0000
0001
0100
,
0001
0000
0010
0100
0010
0000
0001
1000
,
0001
0100
0001
0000
1000
0001
0100
0010
,
0000
0000
1000
0000
0010
0000
0000
0000
2000
0000
0000
0001
0000
0000
3100
0000
,
0010
0000
1000
0100
1000
0000
0001
0010
,
0001
0000
1000
0010
1000
0000
0001
0100
,
0010
0000
1000
0100
0000
0100
1000
0000
,
0001
0100
0001
0000
1000
0100
1000
0010
,
0100
0000
0001
0100
0001
0000
1000
0100
,
1000
0000
0010
0100
0010
0000
1000
0001
,
1000
0000
0001
0010
0001
0000
0100
0010
,
0100
0010
0010
1000
0001
0001
0011
0000
,
1000
0100
0100
0010
0100
0100
0002
0000
,
0100
0000
0100
0000
1000
0000
0003
1000
,
0100
0010
0010
0001
0010
0010
2000
0000
,
0000
0000
0100
0000
0100
0000
3100
0001
,
1000
1000
0010
1000
1000
0100
0002
0000
,
0100
0000
1000
0000
0100
0000
1003
0010
,
0110
0100
0100
0101
0001
0001
2020
0000
,
0000
0000
0000
0030
3000
0000
0000
0000
0101
0000
0000
0000
0000
0000
0000
1000
,
0200
0000
0000
0010
0000
0000
0310
0000
0000
0000
0000
0000
0000
0000
0000
0000
;

//---------------dance-single - ----------------
#NOTEDATA:;
#CHARTNAME:;
#STEPSTYPE:dance-single;
#DESCRIPTION:;
#CHARTSTYLE:;
#DIFFICULTY:Easy;
#METER:4;
#RADARVALUES:0.337258,0.323362,0.118040,0.090800,0.000000,237.000000,13.000000,10.000000,0.000000,0.000000,0.000000,0.000000,0.000000,0.337258,0.323362,0.118040,0.090800,0.000000,237.000000,13.000000,10.000000,0.000000,0.000000,0.000000,0.000000,0.000000;
#CREDIT:;
#NOTES:
0000
0000
0000
0000
,
0000
0000
0000
0000
,
0000
0000
0000
0000
,
0000
0000
0000
0000
,
2000
3000
0001
0100
,
0020
0030
1000
0100
,
0001
1000
1000
0000
,
0011
0000
0100
0000
1000
0001
1000
0000
,
0001
0100
0010
0100
,
0001
1000
0100
0010
,
0001
0100
0010
0100
,
1000
0000
0100
0000
1000
0001
1000
0000
,
0010
0100
0001
0100
,
0010
1000
0100
0010
,
0001
1000
0010
0100
,
1000
0000
0010
0000
0100
0001
0100
0000
,
1000
0001
0100
0001
,
1000
0100
1000
0001
,
0010
0001
0100
0001
,
1000
0100
0010
0100
,
1000
0001
0100
0010
,
1000
0001
0010
0001
,
0010
1000
0001
0100
,
0010
1000
0100
0010
,
0001
1000
0001
0100
,
0010
1000
0000
0010
0000
1000
0000
0010
,
1000
0100
0010
0100
,
1000
0001
0000
1000
0000
0001
0000
1000
,
0100
1000
0010
0100
,
0010
1000
0100
1000
,
0010
0100
0001
1000
,
1001
0000
0100
0000
0010
0100
0010
0000
,
1000
0001
0100
0001
,
1000
0100
0010
0100
,
1000
0010
0001
0010
,
1000
0001
1000
0100
,
0001
1000
0100
1000
,
0001
0100
0010
0100
,
0001
0100
1000
0010
,
1001
0000
1000
0000
0100
1000
0100
0000
,
1010
0010
0100
0001
,
1000
1000
0001
0100
,
0010
1000
0010
0100
,
0001
1000
0100
0010
,
0001
1000
0010
1000
,
0001
0001
1000
1000
,
0100
0010
0001
0100
,
0010
1000
0001
0010
,
0011
0001
1000
0100
,
1000
1000
0001
0100
,
0010
1000
0010
0100
,
0001
0001
1000
1000
,
0100
0010
0001
0100
,
1000
0100
0001
0010
,
0100
0000
1000
0000
0100
0000
0010
0001
,
1000
0000
0010
1000
0001
0000
1001
0000
,
0010
0000
0000
0100
0000
0000
2002
0000
,
0000
0000
3003
0000
0100
0000
0000
1000
,
0001
0000
0000
0100
0000
0000
2020
0000
,
0000
3030
0100
1000
,
0100
0000
0000
0010
0000
0000
0202
0000
,
0000
0000
0303
0000
0010
1000
0010
0000
,
1001
0000
0000
1010
0000
0000
0022
0000
,
0000
0000
0030
0000
0003
0000
0000
1000
,
0100
0000
0000
0100
0000
0000
0110
0000
;

//---------------dance-single - ----------------
#NOTEDATA:;
#CHARTNAME:;
#STEPSTYPE:dance-single;
#DESCRIPTION:;
#CHARTSTYLE:;
#DIFFICULTY:Beginner;
#METER:2;
#RADARVALUES:0.166035,0.172293,0.163440,0.054480,0.000000,104.000000,18.000000,6.000000,0.000000,0.000000,0.000000,0.000000,0.000000,0.166035,0.172293,0.163440,0.054480,0.000000,104.000000,18.000000,6.000000,0.000000,0.000000,0.000000,0.000000,0.000000;
#CREDIT:;
#NOTES:
0000
0000
0000
0000
,
0000
0000
0000
0000
,
0000
0000
0000
0000
,
0000
0000
0000
0000
,
1100
0000
0000
0000
,
0010
0000
0000
0000
,
0100
0000
0000
0000
,
1001
0000
0100
0000
,
1010
0000
0100
0000
,
0001
0000
1000
0000
,
0100
0000
1000
0000
,
0010
0000
0001
0000
,
0010
0000
0100
0000
,
1000
0000
0001
0000
,
0100
0000
1000
0000
,
0010
0000
0001
0000
,
1000
1000
0000
0000
,
0001
0001
0000
0000
,
0010
0010
0000
0000
,
0100
0100
0000
0000
,
1000
1000
0000
0000
,
0100
0000
0000
0000
,
0001
0001
0000
0000
,
0110
0000
1001
0000
,
2000
0000
0000
0000
,
3000
0001
0000
0001
,
0020
0000
0000
0000
,
0030
0001
0000
0001
,
0200
0000
0000
0000
,
0310
0000
0010
0000
,
0002
0000
0000
0000
,
1003
0000
0100
0100
,
0010
0000
0000
1000
,
0010
0000
0000
0001
,
0010
0000
0100
0000
,
0010
0000
0000
0000
,
1000
0000
0000
0100
,
0001
0000
0000
0100
,
0010
0000
0010
0000
,
0110
0000
0100
0000
,
1001
0000
1000
0000
,
0100
0000
0100
0000
,
0010
0000
0010
0000
,
1000
0000
1000
0000
,
0001
0000
0001
0000
,
0010
0000
0010
0000
,
0100
0000
0100
0000
,
0010
0000
1001
0000
,
0110
0000
0100
0000
,
0001
0000
0001
0000
,
1000
0000
1000
0000
,
0100
0000
0100
0000
,
0010
0000
0010
0000
,
0001
0000
1000
0000
,
0010
0000
0010
0000
,
0110
0000
0100
0000
,
1001
0000
0000
1010
,
0000
0000
0000
0000
,
1001
0000
0000
0011
,
0000
0000
0000
0000
,
1001
0000
0000
0110
,
0000
0000
0000
0000
,
1010
0000
0000
0202
,
0000
0303
0000
0000
;
