#TITLE:いじわるなハロー;
#SUBTITLE:;
#ARTIST:Perfume;
#TITLETRANSLIT:Ijiwaru na Hello;
#SUBTITLETRANSLIT:;
#ARTISTTRANSLIT:;
#GENRE:;
#CREDIT:;
#BANNER:banner.png;
#BACKGROUND:bg.png;
#LYRICSPATH:;
#CDTITLE:;
#MUSIC:[Round 3] - Ijiwaru na Hello.mp3;
#OFFSET:-0.028000;
#SAMPLESTART:36.962864;
#SAMPLELENGTH:14.769230;
#SELECTABLE:YES;
#BPMS:0.000000=130.000000
;
#STOPS:
;
#BGCHANGES:;
#KEYSOUNDS:;
#ATTACKS:;

//---------------dance-single - ----------------
#NOTES:
     dance-single:
     :
     Beginner:
     1:
     0.083391,0.076140,0.008460,0.000000,0.000000,68.000000,1.000000,0.000000,0.000000,0.000000,0.000000,0.083391,0.076140,0.008460,0.000000,0.000000,68.000000,1.000000,0.000000,0.000000,0.000000,0.000000:
// measure 0
0000
0000
0000
0000
,  // measure 1
0000
0000
0000
0000
,  // measure 2
0000
0000
0000
0000
,  // measure 3
0000
0000
0000
0000
,  // measure 4
0100
0000
0000
0000
,  // measure 5
0001
0000
0000
0000
,  // measure 6
0100
0000
0000
0000
,  // measure 7
0010
0000
0000
0000
,  // measure 8
0100
0000
0000
0000
,  // measure 9
1000
0000
0000
0000
,  // measure 10
0010
0000
0000
0000
,  // measure 11
0010
0000
0000
0000
,  // measure 12
0001
0000
0001
0000
,  // measure 13
0001
0000
0000
0000
,  // measure 14
1000
0000
1000
0000
,  // measure 15
1000
0000
0000
0000
,  // measure 16
0010
0000
0010
0000
,  // measure 17
0010
0000
0000
0000
,  // measure 18
1000
0000
0000
0000
,  // measure 19
0001
0000
0000
0000
,  // measure 20
0010
0000
0010
0000
,  // measure 21
0010
0000
0000
0000
,  // measure 22
0100
0000
0000
0000
,  // measure 23
0001
0000
0000
0000
,  // measure 24
0010
0000
0010
0000
,  // measure 25
0010
0000
0000
0000
,  // measure 26
0100
0000
0000
0000
,  // measure 27
1000
0000
0000
0000
,  // measure 28
0001
0000
0000
0000
,  // measure 29
0001
0000
0000
0000
,  // measure 30
1000
0000
0000
0000
,  // measure 31
1000
0000
0000
0000
,  // measure 32
0010
0000
0000
0000
,  // measure 33
0010
0000
0000
0000
,  // measure 34
0100
0000
0000
0000
,  // measure 35
0100
0000
0000
0000
,  // measure 36
0001
0000
0001
0000
,  // measure 37
0001
0000
0000
0000
,  // measure 38
0100
0000
0000
0000
,  // measure 39
0010
0000
0000
0000
,  // measure 40
1000
0000
1000
0000
,  // measure 41
1000
0000
0000
0000
,  // measure 42
0100
0000
0000
0000
,  // measure 43
0010
0000
0000
0000
,  // measure 44
0001
0000
0001
0000
,  // measure 45
0001
0000
0000
0000
,  // measure 46
0100
0000
0000
0000
,  // measure 47
0001
0000
0000
0000
,  // measure 48
1000
0000
1000
0000
,  // measure 49
1000
0000
0000
0000
,  // measure 50
0100
0000
0000
0000
,  // measure 51
1000
0000
0000
0000
,  // measure 52
0010
0000
0010
0000
,  // measure 53
0010
0000
0000
0000
,  // measure 54
0100
0000
0000
0000
,  // measure 55
1000
0000
0000
0000
,  // measure 56
0010
0000
0010
0000
,  // measure 57
0010
0000
0000
0000
,  // measure 58
0100
0000
0000
0000
,  // measure 59
0001
0000
0000
0000
,  // measure 60
0110
0000
0000
0000
;

//---------------dance-single - ----------------
#NOTES:
     dance-single:
     :
     Easy:
     4:
     0.263467,0.228419,0.101519,0.329938,0.000000,167.000000,12.000000,39.000000,0.000000,0.000000,0.000000,0.263467,0.228419,0.101519,0.329938,0.000000,167.000000,12.000000,39.000000,0.000000,0.000000,0.000000:
// measure 0
0000
0000
0000
0000
,  // measure 1
0000
0000
0000
0000
,  // measure 2
0000
0000
0000
0000
,  // measure 3
0000
0000
0000
0000
,  // measure 4
1001
0000
0010
0000
,  // measure 5
1000
0100
1000
0000
,  // measure 6
1001
0000
0010
0000
,  // measure 7
0001
0100
0001
0000
,  // measure 8
1001
0000
1000
0000
,  // measure 9
0100
0010
0100
0000
,  // measure 10
2000
0000
3001
0000
,  // measure 11
0010
0010
0010
0000
,  // measure 12
0010
1000
0000
1001
,  // measure 13
0010
0001
0000
1001
,  // measure 14
0100
1000
0000
0110
,  // measure 15
0100
0001
0000
0110
,  // measure 16
0001
1000
0000
0110
,  // measure 17
1000
0001
0000
0110
,  // measure 18
2002
0000
3003
0000
,  // measure 19
1000
0001
0100
0110
,  // measure 20
0001
1000
0001
2000
,  // measure 21
0000
3200
0000
0302
,  // measure 22
0000
2003
0000
3010
,  // measure 23
0002
0000
0000
0103
0000
0000
0010
0000
,  // measure 24
1000
0100
1000
0020
,  // measure 25
0000
0032
0000
0023
,  // measure 26
0000
2030
0000
3100
,  // measure 27
0020
0000
0000
0031
0000
0000
0100
0000
,  // measure 28
0010
0010
1000
1000
,  // measure 29
0100
0100
1000
1000
,  // measure 30
0001
0001
0100
0100
,  // measure 31
0010
0010
0100
0001
,  // measure 32
0010
0010
0100
0100
,  // measure 33
1000
1000
0010
0010
,  // measure 34
0100
0100
0001
0001
,  // measure 35
0020
0100
0130
0000
,  // measure 36
1000
0001
0100
0020
,  // measure 37
0000
2030
0000
3002
,  // measure 38
0000
0023
0000
1030
,  // measure 39
0020
0000
0000
0130
0000
0000
1000
0000
,  // measure 40
0010
0100
0001
0020
,  // measure 41
0000
2030
0000
3020
,  // measure 42
0000
0032
0000
0103
,  // measure 43
0020
0000
0000
1030
0000
0000
0001
0000
,  // measure 44
1000
0100
0010
0002
,  // measure 45
0000
0203
0000
2300
,  // measure 46
0000
3020
0000
0031
,  // measure 47
0200
0000
0000
0310
0000
0000
0010
0000
,  // measure 48
1000
0100
0010
0002
,  // measure 49
0000
0023
0000
2030
,  // measure 50
0000
3200
0000
0301
,  // measure 51
0020
0000
0000
0130
0000
0000
0010
0000
,  // measure 52
0001
1000
0001
1000
,  // measure 53
0020
0000
0000
0130
0000
0000
0100
0000
,  // measure 54
0001
1000
0001
1000
,  // measure 55
0200
0000
0000
0310
0000
0000
0100
0000
,  // measure 56
2000
0000
0100
0000
,  // measure 57
0010
0000
3002
0000
,  // measure 58
0103
0010
1000
0100
,  // measure 59
0020
0100
0100
0031
,  // measure 60
1001
0000
0000
0000
;

//---------------dance-single - ----------------
#NOTES:
     dance-single:
     :
     Medium:
     6:
     0.338398,0.355318,0.253799,0.431457,0.016920,199.000000,30.000000,51.000000,0.000000,0.000000,0.000000,0.338398,0.355318,0.253799,0.431457,0.016920,199.000000,30.000000,51.000000,0.000000,0.000000,0.000000:
// measure 0
0000
0000
0000
0000
,  // measure 1
0000
0000
0000
0000
,  // measure 2
0000
0000
0000
0000
,  // measure 3
0000
0000
0000
0000
,  // measure 4
1000
0100
1000
0010
,  // measure 5
0200
0301
0010
1100
,  // measure 6
0001
0000
0100
0000
0010
0000
1000
0100
,  // measure 7
0000
0100
0000
0200
0000
1000
0000
1300
,  // measure 8
0001
0010
0100
0010
,  // measure 9
0001
0001
1000
0001
,  // measure 10
0200
0000
0002
0303
,  // measure 11
1100
0010
0100
0101
,  // measure 12
0001
0010
0100
1000
,  // measure 13
0020
0001
0001
1030
,  // measure 14
0100
0000
0010
0000
0001
0000
0100
0010
,  // measure 15
0000
0010
0000
0020
0000
0000
0031
0000
,  // measure 16
0010
1000
0100
1000
,  // measure 17
0020
0001
0100
2030
,  // measure 18
0002
0000
3003
0000
,  // measure 19
0110
0000
0101
0000
1000
0001
1000
0000
,  // measure 20
1000
0010
0002
2000
,  // measure 21
0003
0200
3000
0002
,  // measure 22
0300
0020
0033
1100
,  // measure 23
0010
0010
0100
1000
,  // measure 24
0001
0010
2000
0200
,  // measure 25
3000
0002
0300
0020
,  // measure 26
0003
0200
0330
1001
,  // measure 27
0010
0100
0001
1000
,  // measure 28
1100
0000
0000
0000
1100
0000
0000
0000
0010
0000
0000
0001
0100
0000
0000
0000
,  // measure 29
0101
0000
0000
0000
0101
0000
0000
0000
0010
0000
0000
1000
0100
0000
0000
0000
,  // measure 30
1100
0000
0000
0000
0101
0000
0000
0000
0010
0000
0000
1000
0010
0000
0000
0000
,  // measure 31
1100
0000
0000
0000
0101
0000
0000
0000
0010
0000
0000
0001
0010
0000
0000
0000
,  // measure 32
0200
0001
1000
0320
,  // measure 33
0032
0100
1000
0010
,  // measure 34
0203
0010
1000
0301
,  // measure 35
1000
0001
1000
0110
,  // measure 36
1000
0001
0020
2000
,  // measure 37
0030
0002
3000
0200
,  // measure 38
0003
0020
0330
0110
,  // measure 39
1001
0010
0100
0001
,  // measure 40
0010
0100
2000
0020
,  // measure 41
3000
0002
0030
0200
,  // measure 42
0003
2000
0300
3001
,  // measure 43
0100
0010
0100
1001
,  // measure 44
1000
0100
0001
0200
,  // measure 45
0000
2000
3000
0002
,  // measure 46
0003
2000
3300
0010
,  // measure 47
0101
0010
1100
0010
,  // measure 48
0100
0001
0020
2000
,  // measure 49
3000
0002
0003
2000
,  // measure 50
3000
0002
0033
0100
,  // measure 51
0010
1000
0100
0110
,  // measure 52
0001
1100
1010
1100
,  // measure 53
0002
0000
0000
0100
0000
0000
0103
0000
,  // measure 54
0010
1100
0101
0011
,  // measure 55
2010
0000
0000
0010
0000
0000
3100
0000
,  // measure 56
0200
0010
0001
0310
,  // measure 57
0200
0000
0000
0002
0300
0000
0203
0000
,  // measure 58
1300
0010
0001
0010
,  // measure 59
2000
3200
0302
0013
,  // measure 60
1001
0000
0000
0000
;

//---------------dance-single - ----------------
#NOTES:
     dance-single:
     :
     Hard:
     7:
     0.454420,0.406078,0.422998,0.634496,0.000000,251.000000,50.000000,75.000000,0.000000,0.000000,0.000000,0.454420,0.406078,0.422998,0.634496,0.000000,251.000000,50.000000,75.000000,0.000000,0.000000,0.000000:
// measure 0
0000
0000
0000
0000
,  // measure 1
0000
0000
0000
0000
,  // measure 2
0000
0000
0000
0000
,  // measure 3
0000
0000
0000
0000
,  // measure 4
1000
0000
0002
0100
0000
0100
0000
0013
,  // measure 5
0000
0100
1000
0020
0000
0130
0000
0100
,  // measure 6
0001
0000
2000
0100
0000
3100
0000
0101
,  // measure 7
0000
1100
0000
0110
0000
2002
0000
3003
,  // measure 8
0010
0000
0200
0001
0000
0001
0000
1300
,  // measure 9
0000
0001
0010
1000
0000
0010
0002
2000
,  // measure 10
0000
0000
0000
3003
1001
0000
0100
0010
,  // measure 11
0000
1000
0100
0010
0001
0100
0110
0000
,  // measure 12
1001
0000
1000
0010
0100
0010
1000
0100
,  // measure 13
0000
0001
0100
2000
0000
3010
0100
0000
,  // measure 14
1001
0000
0001
0010
0100
0010
0001
1000
,  // measure 15
0000
0010
0001
2000
0000
3100
0001
0010
,  // measure 16
0100
0000
1000
0010
0100
0010
1000
0100
,  // measure 17
0000
0001
1000
0001
0000
0100
1000
0020
,  // measure 18
0000
0000
0100
0000
0200
0000
0330
1001
,  // measure 19
0000
1100
0101
1100
,  // measure 20
0021
1000
0031
2100
,  // measure 21
3020
0032
0203
2300
,  // measure 22
3020
0032
0203
2300
,  // measure 23
3002
0000
0013
1000
0000
0001
0100
0000
,  // measure 24
1020
0001
1030
0102
,  // measure 25
0023
2030
3200
0302
,  // measure 26
0203
2300
3020
0032
,  // measure 27
0103
0000
0010
1000
0000
0100
0010
0000
,  // measure 28
1001
1200
0010
0301
,  // measure 29
1001
0021
0100
1030
,  // measure 30
1001
2000
3200
0302
,  // measure 31
2003
3200
0302
1003
,  // measure 32
1001
1020
0100
0031
,  // measure 33
1001
0201
0010
1300
,  // measure 34
1020
0001
0100
1030
,  // measure 35
1001
0110
1001
0110
,  // measure 36
2010
0100
3010
0102
,  // measure 37
0023
2030
3200
0302
,  // measure 38
0023
2030
3200
0301
,  // measure 39
0010
0000
0100
1000
0000
1000
0010
0000
,  // measure 40
0102
0010
0103
0021
,  // measure 41
2030
3200
0302
0023
,  // measure 42
0032
0203
2300
3020
,  // measure 43
0031
0000
0100
0010
0000
0010
1000
0000
,  // measure 44
0101
1100
0101
2000
,  // measure 45
0100
3020
0001
0230
,  // measure 46
1000
0302
0023
1030
,  // measure 47
0010
0000
0001
0100
0000
0100
0001
0000
,  // measure 48
0011
1010
0011
2000
,  // measure 49
0001
3200
0001
0320
,  // measure 50
1000
0032
0100
0013
,  // measure 51
1100
0000
0010
0001
0000
0001
0100
0000
,  // measure 52
0210
1000
0001
1300
,  // measure 53
0101
0000
0001
0010
0000
0010
0100
0000
,  // measure 54
0120
0001
1000
0031
,  // measure 55
1100
0000
0010
0100
0000
0100
0001
0000
,  // measure 56
0011
1100
1010
0101
,  // measure 57
0020
0000
0000
1000
0000
0000
0031
0000
,  // measure 58
0001
0100
0010
0001
,  // measure 59
0100
0000
1000
0001
0000
0010
0100
0000
,  // measure 60
1001
0000
0000
0000
;
