#TITLE:Gourmet Race (dj-Jo Remix);
#SUBTITLE:;
#ARTIST:dj-Jo;
#TITLETRANSLIT:;
#SUBTITLETRANSLIT:;
#ARTISTTRANSLIT:;
#GENRE:;
#CREDIT:brunobg24;
#BANNER:[Round 3] - Gourmet Race (dj-Jo Remix).png;
#BACKGROUND:[Round 3] - Gourmet Race (dj-Jo Remix)-bg.png;
#JACKET:[Round 3] - Gourmet Race (dj-Jo Remix)-jacket.png;
#LYRICSPATH:;
#CDTITLE:;
#MUSIC:[Round 3] - Gourmet Race (dj-Jo Remix).ogg;
#OFFSET:-1.300;
#SAMPLESTART:3.490;
#SAMPLELENGTH:10.207;
#SELECTABLE:YES;
#BPMS:0.000=187.000,200.000=93.500,204.000=187.000,344.000=93.500;
#STOPS:;
#BGCHANGES:;

//---------------dance-single - ----------------
#NOTES:
     dance-single:
     :
     Hard:
     9:
     0.743,0.849,0.337,0.320,0.215:
0000
0000
0000
0000
,
0000
0000
0001
1001
,
0201
0000
0000
0310
1000
0000
0001
1000
,
0020
0230
0301
1000
,
1200
0000
0000
0320
0000
0000
0031
0000
1000
0000
0001
0000
,
0010
0010
1001
0000
,
0002
0000
0000
1003
0100
0000
0010
0100
,
2000
0000
3020
0000
0230
0000
0301
0010
,
0001
1000
0000
1000
0010
0000
0100
0001
,
0100
0000
1010
0000
0101
0000
0020
0030
,
1002
0000
0000
0103
0010
0000
1000
0001
,
0200
0320
2030
3100
,
0120
0000
0000
0032
0000
0000
1003
0000
0010
0000
1000
0000
,
0010
0010
1001
0000
,
0012
0000
0000
0013
0100
0000
1000
0010
,
2000
0000
3002
0000
0023
0000
0130
1000
,
0100
0010
0000
0010
0001
0000
1000
0001
,
1000
0000
0000
0000
0101
0000
0000
0000
1010
0000
0000
0000
0001
1000
0001
1000
,
0001
0100
1000
0100
0010
0100
1000
0100
,
0001
0010
1000
0010
0100
0010
1000
0010
,
0001
0100
1000
0100
0010
0100
1000
0100
,
0001
0010
0100
1000
0001
0000
1001
0000
,
1000
0000
0000
1000
0010
0000
0100
0001
,
0100
1010
0101
0000
,
0001
0000
0000
0001
1000
0000
0010
0000
0100
0000
0000
0000
0001
0000
1000
0000
,
0100
1100
0011
0001
,
1000
0100
0001
0100
0010
0100
0001
0100
,
1000
0010
0001
0010
0100
0010
0001
0010
,
1000
0100
0001
0100
0010
0100
0001
0100
,
1000
0010
0100
0001
0010
0001
0010
0100
,
1001
0000
0000
0000
0000
0000
0001
0000
0100
0000
0000
0100
0010
0000
1000
0000
,
0010
1100
0011
0001
,
1000
0000
0000
1000
0010
0000
0100
0000
0001
0000
0000
0001
0010
0000
0100
0000
,
2000
0000
0000
3000
0001
0010
0100
0000
,
1001
0000
1000
0010
1000
0000
0001
0000
0100
0000
0010
0100
0010
0000
1000
0010
,
1000
0000
0100
0010
0100
0000
0010
0000
0002
0000
0000
0000
1003
0000
0010
0100
,
0010
0000
1000
0001
1000
0000
0001
0000
0100
0000
0010
1000
0010
0000
0100
0010
,
0100
0000
0001
0100
0001
0000
0010
0000
0200
0000
0000
0000
1300
0000
0001
0010
,
0001
0000
1000
0001
1000
0000
0010
0000
0100
0000
0001
0100
0001
0000
0010
0000
,
0100
0000
1000
0100
1000
0000
0001
0000
0020
0000
0000
0000
0130
0000
0000
0000
,
1000
0000
0001
0010
0001
0000
1000
0000
0001
0000
1000
0100
1000
0000
0001
0000
,
0100
0000
0010
0100
0010
0000
1000
0000
0001
0000
0001
0000
0100
0000
0100
0000
,
0110
0000
0010
1000
0010
0000
0100
0000
0001
0000
0010
0001
0010
0000
0001
0100
,
0001
0000
0100
0010
0100
0000
1000
0000
0200
0000
0000
0000
0301
0000
1000
0010
,
1000
0000
0001
0100
0001
0000
0010
0000
0100
0000
1000
0010
1000
0000
0001
1000
,
0001
0000
1000
0100
1000
0000
0100
0000
0020
0000
0000
0000
0031
0000
1000
0100
,
1000
0000
0001
1000
0001
0000
0100
0000
0001
0000
0010
0100
0010
0000
0100
0000
,
1000
0000
0001
0100
0001
0000
0010
0000
0100
0000
1000
0000
0010
0000
0100
0000
,
0001
0010
0100
0010
0001
0100
0010
0100
,
0001
1000
0010
0100
0001
0000
1001
0000
,
1000
0000
0001
0010
0100
0010
0001
0000
1000
0010
0100
0010
1000
0000
0001
0000
,
1001
0000
0100
0000
0010
1000
0000
0000
,
0001
0100
0001
0000
1000
0010
0000
0000
,
1000
0100
0010
0100
0001
0100
0010
0100
,
1000
0010
0100
0010
0001
0010
0100
0010
,
1000
0000
0001
0000
0010
0100
0000
0000
,
1000
0001
1000
0000
0001
0100
0000
0000
,
0001
0100
0010
0100
1000
0100
0010
0100
,
0001
0010
0100
0010
1000
0010
0200
0000
,
0310
0000
0001
0000
1000
0001
0000
0000
,
1000
0010
0000
0010
0100
0000
0001
0000
,
0010
0100
1000
0000
0100
0010
0000
0001
,
1000
0001
0100
0000
0010
1000
0000
1000
,
0001
0000
1000
0000
0100
0010
0000
0000
,
0001
1000
0000
1000
0010
0000
0100
0000
,
0001
0010
0100
0010
0001
1000
0000
1000
,
0010
0000
0000
0000
0100
0000
0001
0100
0001
0000
1000
0000
0000
0000
0000
0000
,
0001
0000
1001
0000
0100
0010
0100
0000
,
0010
0000
0000
0000
1010
0000
0000
1000
0000
0000
0110
0000
0000
0000
0000
0000
,
1000
0000
1001
0000
0001
0100
0010
0000
,
0100
0010
0100
0001
0000
1001
0000
0000
,
0100
0000
0110
0000
0010
1000
0001
0000
,
0010
0000
0000
0000
1001
0000
0000
0000
1000
0000
0001
0100
0001
0000
0000
0000
,
1000
0000
1001
0000
0001
0010
0100
1000
,
0001
0000
1001
0000
1000
0010
0000
0000
,
1000
0000
1001
0000
0001
0100
0010
1000
,
0001
0000
1001
0000
1000
0020
0000
0000
,
0000
0000
0000
1030
,
1002
0000
0000
1003
0100
0000
0010
0001
,
0020
0230
2300
3001
,
0201
0000
0000
0320
0000
0000
1030
0000
0100
0000
0010
0000
,
0001
0001
0101
0000
,
2000
0000
0000
3010
0100
0000
0001
0100
,
0002
0000
2003
0000
3020
0000
0130
0001
,
1000
0010
0000
0010
0100
0000
0001
1000
,
0001
0000
0000
0000
0101
0000
0000
0000
1010
0000
0000
0000
1000
0001
1000
0001
,
1000
0000
0000
0000
0001
0000
0000
0000
0010
0000
0100
0000
1000
0000
0001
1000
,
0001
0100
0010
1000
0100
0010
0001
0000
;

//---------------dance-single - ----------------
#NOTES:
     dance-single:
     :
     Medium:
     7:
     0.559,0.664,0.084,0.623,0.025:
0000
0000
0000
0000
,
0000
0000
0000
0001
,
1002
0000
0203
0000
,
0320
2030
3200
0300
,
0020
0032
2003
3002
,
0023
0230
0320
0030
,
2001
0000
3020
0000
,
0230
0000
0302
0000
0023
0000
0130
1000
,
0200
2300
3002
0203
,
0302
0023
0230
0300
,
1020
0000
0230
0000
,
0302
2003
3200
0300
,
0020
0032
0203
0320
,
2030
3200
0320
0030
,
0201
0000
0320
0000
,
2030
3002
0023
0230
,
2300
3002
0203
0320
,
2030
3020
0230
0300
,
0001
0100
1000
0100
,
0001
0100
1000
0100
,
0001
0010
1000
0010
,
0001
0010
0100
0000
,
1001
0000
0000
1000
0010
0000
0100
0010
,
0100
0001
0010
0000
,
0001
0000
1000
0001
1000
0000
0010
0100
,
0010
1000
0010
0000
,
1000
0100
0001
0100
,
1000
0100
0001
0100
,
1000
0010
0001
0010
,
1000
0000
0010
0000
0100
0001
0100
0001
,
0010
0000
0000
0100
1000
0000
0001
1000
,
0001
0100
0001
0010
,
0001
0000
1000
0010
1000
0000
0010
0100
,
0010
0100
0001
1000
,
1010
0000
0010
0100
0001
0000
1000
0010
,
1000
0000
0001
0100
0010
0000
0000
0000
,
1000
0000
0100
0010
0100
0000
1000
0001
,
0100
0000
0010
0100
0010
0000
0000
0000
,
0100
0000
0001
0010
0001
0000
1000
0001
,
1000
0000
0010
1000
0010
0000
0100
0000
,
0001
0000
0010
0001
0010
0000
0100
1000
,
0001
0000
1000
0001
1000
0010
1000
0010
,
0100
0000
0001
0010
0001
0000
1000
0001
,
1000
0000
0010
1000
0100
0000
0000
0000
,
0010
0000
0001
0100
0010
0000
1000
0001
,
0010
0000
0100
1000
0001
0000
0000
0000
,
1000
0000
0010
0100
0010
0000
0100
0001
,
0010
0000
0001
1000
0010
0000
0100
0000
,
0001
0010
0001
0010
0100
1000
0100
1000
,
0001
0100
0001
0100
0010
0000
0000
0000
,
1000
0000
1000
0001
1000
0001
1000
0000
0010
0100
0010
0100
0010
0000
0100
0000
,
1001
0000
0001
0000
0100
0001
0000
0000
,
1000
0000
0010
0000
1000
0100
0000
0000
,
0010
0000
0001
0000
1000
0001
1000
0000
,
0010
0000
0100
0000
0001
0010
0001
0000
,
0100
0000
0010
0000
1000
0100
0000
0000
,
1000
0000
0001
0000
0010
0100
0000
0000
,
1000
0000
0001
0000
0010
0100
0010
0000
,
0001
0100
0001
0100
0010
1000
0010
0000
,
1000
0000
0001
0000
0100
0001
0000
0000
,
0010
0000
0100
0000
1000
0010
0000
0000
,
0100
0000
0001
0000
0010
0001
0000
0000
,
1000
0000
0001
0000
1000
0100
0000
1000
,
0001
0000
0100
0000
0010
1000
0000
0000
,
0001
0000
0010
0000
0100
1000
0000
0000
,
0001
0000
1000
0000
0100
0010
0000
0000
,
0001
0000
0100
0000
0001
0010
0000
0000
,
0100
0000
1000
0000
0001
1000
0001
0000
,
1000
0000
0000
0000
0010
0000
0000
0010
0000
0000
0100
0000
0000
0000
0000
0000
,
0001
0000
0100
0000
0010
0100
0010
0000
,
1000
0001
1000
0001
0000
0110
0000
0000
,
0001
0000
0100
0000
0010
0100
0001
0000
,
1000
0000
0100
0000
0010
0100
1000
0000
,
0010
0000
1000
0000
0001
0100
0001
0100
,
0010
0000
1000
0000
0010
1000
0000
0000
,
0001
0000
0100
0000
0010
1000
0010
1000
,
0100
0000
0010
0000
0001
0100
0000
0000
,
0000
0000
0000
0001
,
2001
0000
3020
0000
,
0230
0302
0023
0030
,
0200
2300
3002
0203
,
0320
0230
0302
0003
,
1020
0000
0230
0000
,
0302
0023
0230
2300
,
3002
0203
0320
2030
,
3200
0320
0032
0003
,
1000
0000
0000
0000
0001
0000
0000
0000
0100
0000
0010
0000
0100
0000
0001
0010
,
0001
0010
0100
1000
0001
0100
0001
0000
;

//---------------dance-single - ----------------
#NOTES:
     dance-single:
     :
     Easy:
     3:
     0.313,0.443,0.000,0.050,0.000:
0000
0000
0000
0000
,
0000
0000
0000
0010
,
2000
0000
3010
0000
,
0100
0001
0100
0000
,
0001
0010
0001
0010
,
0100
1000
0100
0000
,
0020
0000
0031
0000
,
1000
0001
1000
0100
,
0010
0001
0010
0001
,
1000
0001
1000
0000
,
0002
0000
0103
0000
,
0010
1000
0010
0000
,
1000
0010
0100
0001
,
0100
0001
0010
0000
,
0200
0000
1300
0000
,
0001
1000
0001
0010
,
0100
1000
0010
0100
,
0001
1000
0001
0000
,
1000
1000
0001
0001
,
1000
1000
0001
0001
,
0100
0100
0010
0010
,
0100
0100
0010
0000
,
1000
0000
0010
0000
,
0100
0001
0100
0000
,
0001
0000
1000
0001
,
1000
0000
0001
0000
,
0100
0100
0010
0010
,
0100
0100
0010
0010
,
1000
1000
0001
0001
,
1000
1000
0001
0000
,
0010
0000
0100
0000
,
1000
0010
1000
0000
,
0001
0000
0100
0000
,
0001
1000
0001
0000
,
1000
0001
0000
0100
,
0010
0100
0000
0010
,
1000
0010
0000
1000
,
0100
1000
0000
0001
,
0100
0001
0000
1000
,
0001
1000
0000
0010
,
0100
0000
0001
0000
,
1000
0000
0001
0100
,
0001
0010
0000
0001
,
1000
0001
0000
1000
,
0010
1000
0000
0100
,
1000
0100
0000
0010
,
0001
0010
0000
0001
,
1000
0001
0000
0100
,
0010
0010
0010
0010
,
1000
1000
1000
0000
,
0001
0000
0000
0000
1000
0100
0010
0000
,
0001
0000
1000
0000
,
0010
0000
0100
0000
,
0001
0000
0010
0000
,
0100
0000
1000
0000
,
0001
0000
0100
0000
,
0001
0000
0100
0000
,
0010
0000
1000
0000
,
0100
0000
1000
0000
,
0001
0000
0001
0000
,
1000
0000
1000
0000
,
0001
0000
1000
0000
,
0010
0000
0100
0000
,
0010
0000
0010
0000
,
1000
0000
1000
0000
,
0001
0000
0100
0000
,
0010
0000
0100
0000
,
0001
0001
0000
1000
,
0010
0010
0000
0000
,
1000
1000
0000
0001
,
0100
0000
0100
0000
0000
0010
0000
0000
,
0001
0001
0000
1000
,
0010
0010
0000
0100
,
0001
0001
1000
0010
,
1000
0001
0010
0000
,
0100
0100
1000
0001
,
0100
0010
0100
0000
,
0000
0000
0000
0001
,
2000
0000
3010
0000
,
0100
0001
0100
0000
,
0001
0010
0001
0100
,
0010
1000
0010
0000
,
2000
0000
3100
0000
,
0010
0001
0010
0001
,
1000
0010
0100
0001
,
0010
0100
1000
0000
,
0001
0000
1000
0000
0001
0100
0001
0000
,
1000
0010
1000
0010
0100
0001
0100
0000
;

//---------------dance-single - ----------------
#NOTES:
     dance-single:
     :
     Beginner:
     1:
     0.149,0.185,0.000,0.000,0.000: // measure 1
0000
0000
0000
0000
,  // measure 2
0000
0000
0000
0000
,  // measure 3
1000
0000
1000
0000
,  // measure 4
0001
0000
0001
0000
,  // measure 5
1000
0000
0001
0000
,  // measure 6
1000
0000
0001
0000
,  // measure 7
0100
0000
0100
0000
,  // measure 8
0010
0000
0010
0000
,  // measure 9
0100
0000
0010
0000
,  // measure 10
0100
0000
0010
0000
,  // measure 11
1000
0000
1000
0000
,  // measure 12
0001
0000
0001
0000
,  // measure 13
1000
0000
0001
0000
,  // measure 14
1000
0000
0001
0000
,  // measure 15
0100
0000
0100
0000
,  // measure 16
0010
0000
0010
0000
,  // measure 17
0100
0000
0010
0000
,  // measure 18
0100
0000
0010
0000
,  // measure 19
1000
0000
0000
0000
,  // measure 20
0001
0000
0000
0000
,  // measure 21
1000
0000
0000
0000
,  // measure 22
0001
0000
0000
0000
,  // measure 23
0100
0000
0000
0000
,  // measure 24
0010
0000
0000
0000
,  // measure 25
0100
0000
0000
0000
,  // measure 26
0010
0000
0000
0000
,  // measure 27
1000
0000
0000
0000
,  // measure 28
1000
0000
0000
0000
,  // measure 29
0001
0000
0000
0000
,  // measure 30
0001
0000
0000
0000
,  // measure 31
0100
0000
0000
0000
,  // measure 32
0100
0000
0000
0000
,  // measure 33
0010
0000
0000
0000
,  // measure 34
0010
0000
0000
0000
,  // measure 35
1000
0000
1000
0000
,  // measure 36
0010
0000
0010
0000
,  // measure 37
0100
0000
0100
0000
,  // measure 38
0001
0000
0001
0000
,  // measure 39
1000
0000
1000
0000
,  // measure 40
0001
0000
0001
0000
,  // measure 41
0100
0000
0000
0000
,  // measure 42
0010
0000
0000
0000
,  // measure 43
1000
0000
1000
0000
,  // measure 44
0010
0000
0010
0000
,  // measure 45
1000
0000
1000
0000
,  // measure 46
0001
0000
0001
0000
,  // measure 47
0100
0000
0100
0000
,  // measure 48
0010
0000
0010
0000
,  // measure 49
1000
0000
0000
0000
,  // measure 50
0001
0000
0000
0000
,  // measure 51
0100
0000
0000
0000
,  // measure 52
0001
0000
0000
0000
,  // measure 53
1000
0000
0000
0000
,  // measure 54
0001
0000
0000
0000
,  // measure 55
1000
0000
0000
0000
,  // measure 56
0001
0000
0000
0000
,  // measure 57
1000
0000
0000
0000
,  // measure 58
0010
0000
0000
0000
,  // measure 59
1000
0000
0000
0000
,  // measure 60
0010
0000
0000
0000
,  // measure 61
0100
0000
0000
0000
,  // measure 62
0001
0000
0000
0000
,  // measure 63
0100
0000
0000
0000
,  // measure 64
0001
0000
0000
0000
,  // measure 65
1000
0000
0000
0000
,  // measure 66
0010
0000
0000
0000
,  // measure 67
1000
0000
0000
0000
,  // measure 68
0001
0000
0000
0000
,  // measure 69
1000
0000
0000
0000
,  // measure 70
0100
0000
0000
0000
,  // measure 71
0010
0000
0000
0000
,  // measure 72
0001
0000
0000
0000
,  // measure 73
0001
0000
0000
0000
,  // measure 74
1000
0000
0000
0000
,  // measure 75
1000
0000
0000
0000
,  // measure 76
0001
0000
0000
0000
,  // measure 77
1000
0000
0000
0000
,  // measure 78
0000
0000
0000
0000
,  // measure 79
0001
0000
0001
0000
,  // measure 80
1000
0000
1000
0000
,  // measure 81
0001
0000
1000
0000
,  // measure 82
0001
0000
1000
0000
,  // measure 83
0010
0000
0010
0000
,  // measure 84
0100
0000
0100
0000
,  // measure 85
0010
0000
0100
0000
,  // measure 86
0010
0000
0100
0000
,  // measure 87
0001
0000
1000
0000
,  // measure 88
0010
0000
0100
0100
;
