#TITLE:Cytokinesis;
#SUBTITLE:;
#ARTIST:Hommarju;
#TITLETRANSLIT:;
#SUBTITLETRANSLIT:;
#ARTISTTRANSLIT:;
#GENRE:;
#CREDIT:;
#BANNER:[Round 3] - Cytokinesis.png;
#BACKGROUND:[Round 3] - Cytokinesis-bg.png;
#LYRICSPATH:;
#CDTITLE:cdtitle.png;
#MUSIC:[Round 3] - Cytokinesis.mp3;
#OFFSET:-0.560998;
#SAMPLESTART:16.443289;
#SAMPLELENGTH:12.467533;
#SELECTABLE:YES;
#DISPLAYBPM:*;
#BPMS:0.000000=111.000000
,16.000000=57.750000
,17.000000=28.875000
,17.500000=14.438000
,18.000000=38.500000
,19.000000=77.000000
,21.000000=154.000000
,61.000000=160.000000
,62.000000=165.000000
,63.000000=170.000000
,67.000000=175.000000
,71.000000=180.000000
,73.000000=190.000000
,77.000000=199.000000
,81.000000=182.000000
,133.000000=91.000000
,165.000000=95.500000
,167.000000=102.500000
,169.000000=106.000000
,171.000000=112.500000
,173.000000=116.500000
,175.000000=124.999992
,177.000000=127.500000
,179.000000=133.500000
,181.000000=134.000000
,182.000000=144.000000
,183.000000=155.000000
,184.000000=160.000000
,185.000000=164.000000
,187.000000=172.000000
,189.000000=180.000000
,191.000000=192.000000
,193.000000=213.000000
,197.000000=215.000000
,199.000000=220.000000
,201.000000=226.000000
,203.000000=232.000000
,205.000000=249.999985
,206.000000=253.999985
,207.000000=258.000000
,208.000000=264.000000
,209.000000=111.000000
,211.000000=222.000000
,283.000000=111.000000
,285.000000=55.500000
;
#STOPS:
;
#BGCHANGES:;
#KEYSOUNDS:;
#ATTACKS:;

//---------------dance-single - ----------------
#NOTES:
     dance-single:
     :
     Challenge:
     12:
     0.873110,1.000000,0.461108,0.285048,0.775499,640.000000,55.000000,34.000000,0.000000,0.000000,2.000000,0.873110,1.000000,0.461108,0.285048,0.775499,640.000000,55.000000,34.000000,0.000000,0.000000,2.000000:
0000
0000
0000
0000
,
0000
0000
0000
0000
,
2000
0000
3001
0200
0300
0001
0020
0000
,
0130
1000
0010
0200
0300
0001
2000
3000
,
2002
0000
3000
0003
0000
0000
1100
0101
,
0001
0100
0010
1000
1001
0000
0001
0000
0100
0000
0010
0000
0010
0000
1000
0001
,
0010
0000
0100
0000
1000
0000
1000
0000
0001
0000
0100
0000
0100
0000
1000
0100
,
0010
0100
0001
0000
1000
0000
1000
0000
0100
0000
0010
0000
0010
0000
0001
1000
,
0010
0000
1000
0000
0202
0000
0000
0000
0003
0000
0000
0000
0301
0000
0001
0100
,
0010
1000
0001
0000
0010
0000
0010
0000
0100
0000
1000
0000
1000
0000
0010
0100
,
0001
0000
1000
0000
0001
0000
0001
0000
0100
0000
0010
0000
0010
0000
0001
0010
,
0100
0010
1000
0000
0001
0000
0001
0000
0010
0000
0100
0000
0100
0000
1000
0001
,
0010
0001
2200
0000
3000
0000
0301
0100
,
1000
0010
0102
0000
0013
0001
1000
0001
,
0200
0000
0000
0000
1300
0000
0100
0000
0010
0000
1000
0000
0001
0000
1000
0100
,
1000
0010
0201
0000
0310
1000
0001
1000
,
0200
0000
0301
0100
1000
0010
0001
0010
,
1000
0100
1100
0000
0011
0001
1001
0000
,
1010
1000
1001
0000
0101
0001
1001
0000
,
1100
0000
1000
0000
1001
0000
0001
0010
0001
0000
1000
0100
1000
0000
0010
1000
,
0010
0100
2002
0000
0000
0000
0000
0000
,
3003
0000
0000
0000
1001
0000
0001
0000
0100
0000
0010
1000
0010
1000
0001
0000
,
1000
0000
1100
0000
0000
0000
0010
0000
0001
0000
1000
0010
1000
0010
0100
0001
,
1000
0100
0010
0001
1000
0000
0001
0000
0100
0000
0001
1000
0001
1000
0100
0000
,
0010
0000
0110
0000
0000
0000
1001
0000
1001
0000
0000
1001
0000
0001
0100
0000
,
1000
0000
0100
0000
0120
0000
0100
0000
1030
0000
0010
0000
1001
0000
1000
0001
,
1000
0000
0001
0000
0000
0000
1000
0000
0100
0000
0010
0001
0010
0001
1000
0010
,
0100
0001
1000
0001
0010
0000
0001
0000
0100
0000
0000
0000
1001
0000
0001
1000
,
0001
0000
1000
0000
0000
0000
1010
0000
1010
0000
0000
0101
0000
0001
0010
0000
,
1000
0000
0010
0000
0001
0000
0100
0000
0110
0000
0000
0110
0000
0010
0100
0000
,
0010
0000
0100
0000
0001
0000
1000
0000
1100
0000
0000
0011
0000
0001
0100
0000
,
0010
0000
1000
0000
1001
0000
0001
0000
0010
0000
0100
1000
0001
1000
0010
1000
,
0100
0000
0010
0001
1000
0001
0100
0010
1000
0100
0010
0001
0100
0001
0010
0100
,
1000
0010
1000
0001
0200
0010
0010
0000
0010
0310
0000
0100
0000
0001
0100
0000
,
0100
0010
0000
1000
0000
0100
0010
0000
0100
0010
0000
0001
0000
0100
1000
0000
,
1000
0100
0000
0001
1001
1000
0100
0000
1000
0100
0000
0010
0000
0001
0100
0000
,
0100
0010
0000
1000
0000
0001
0010
0000
0001
0010
0000
0100
0000
0001
0100
0000
,
1000
0000
0010
0000
0000
0000
0100
0000
0101
0000
0001
0000
1000
0000
0000
0000
0001
0000
1000
0100
1000
0000
0010
0000
0000
0000
0010
0000
0100
0000
0000
0000
,
0100
0000
0001
1000
0001
0000
1000
0000
0000
0000
0100
0000
0010
0000
0000
0000
0010
0000
0001
1000
0001
0000
0100
0000
0000
0000
1000
0000
0100
0000
0000
0000
,
0100
0000
0001
0010
0001
0000
1000
0000
1001
0000
0001
0000
0100
0000
0000
0000
0010
0000
1000
0001
1000
0000
0100
0000
0000
0000
0010
0000
0001
0000
0000
0000
,
0100
0000
0010
1000
0010
0000
0100
0000
0000
0000
0001
0000
1000
0000
0000
0000
0100
0000
1000
0001
1000
0000
0010
0000
0000
0000
0001
0000
0010
0000
0000
0000
,
1000
0000
0100
0010
0001
0000
0100
0000
2002
0000
0000
0000
0003
0000
0000
0000
3001
0000
0100
0010
0100
0000
0001
0000
2000
0000
0000
0000
0000
0000
0000
0000
,
3001
0000
0010
0100
0010
0100
0010
0000
0002
0000
0000
0000
0000
0000
0000
0000
0103
0000
0010
1000
0010
0000
0100
0000
0002
0000
0000
0000
0000
0000
0000
0000
,
0013
0000
0100
1000
0100
1000
0100
0000
0020
0000
0001
0000
0000
0000
0031
0000
0100
0000
0001
1000
0001
1000
0001
0000
0200
0000
0010
0000
0000
0000
0310
0000
,
1000
0000
0001
1000
0001
1000
0001
0000
0020
0000
0100
0000
0000
0000
0130
0000
1000
0000
0001
0100
0001
0100
0001
0000
0010
0000
0100
0000
1000
0000
0010
0000
,
0100
0000
0001
1000
0001
0000
0000
0000
1001
0000
0000
0000
1000
0000
0000
0000
0010
0000
0000
0000
0100
0000
0000
0000
0101
0000
0000
0000
0001
0000
0000
0000
,
0010
0100
1100
1000
0001
0100
0110
0010
,
1000
0001
1001
1000
0100
0010
0110
0100
,
0010
0001
1001
1000
0001
0100
0110
0010
,
1000
0000
0001
0000
1000
0001
1000
0001
1000
0001
1000
0001
1000
0001
1000
0001
,
1000
0001
1000
0001
1000
0001
1000
0001
1000
0001
1000
0001
1000
0001
1000
0001
,
1000
0001
1000
0001
4000
0004
0000
0000
0000
0000
0000
0000
0000
0000
0000
0000
,
3003
0000
2002
0000
0000
3003
1000
0010
,
0100
0010
0001
1000
0100
0001
1000
0010
,
0100
0000
0010
0000
0001
0000
1000
0000
0100
0000
0001
0010
0001
0000
0010
0000
,
0100
0010
1000
0001
0100
1000
0001
0010
,
0001
0010
0100
1000
0001
0000
1000
0000
0001
0100
0010
1000
0001
0000
1000
0000
,
0001
0100
1000
0001
0010
0100
0010
1000
,
0001
0000
0100
0000
1000
0000
0001
0000
0010
0000
1000
0001
1000
0000
0100
0000
,
0001
1000
0010
0100
0010
0001
1000
0100
,
0010
0001
1000
0001
0100
0000
0202
0000
0303
0000
1100
0000
0000
0000
1000
0000
,
0001
0010
1000
0001
0100
0010
0001
1000
,
0001
0000
0010
0000
1000
0000
0001
0000
0100
0000
1000
0001
1000
0000
0010
0000
,
0100
0000
1000
0000
0001
0000
0010
0000
0100
0000
0001
0000
1000
0000
0100
0010
,
0100
0000
1000
0000
0010
0100
0001
0000
0201
0000
0000
0000
0301
0000
1000
0001
,
1000
0000
0100
0000
0001
0000
0100
0000
1000
0000
1000
0010
0100
0000
0010
0000
,
1000
0000
0001
1000
0001
1000
0010
0000
1000
0000
0001
1000
0001
0000
0100
0000
,
1000
0000
0100
0000
0001
0000
0010
0000
1000
0000
0010
0000
0001
0100
0001
0100
,
0010
1000
0010
1000
0001
1000
0100
0010
0100
0010
0001
1000
0010
0000
0000
0000
,
0000
0101
0000
1010
,
0000
0101
0000
2002
,
0000
0000
3003
0000
;

//---------------dance-single - ----------------
#NOTES:
     dance-single:
     :
     Hard:
     10:
     0.748551,0.959104,0.326967,0.293432,0.469491,551.000000,39.000000,35.000000,0.000000,0.000000,2.000000,0.748551,0.959104,0.326967,0.293432,0.469491,551.000000,39.000000,35.000000,0.000000,0.000000,2.000000:
0000
0000
0000
0000
,
0000
0000
0000
0000
,
2000
0000
3001
0020
0030
0100
2000
0000
,
3010
0100
0001
2000
3000
0100
0020
0030
,
2002
0000
3000
0003
0000
0000
0011
1100
,
0001
1000
0001
1000
1001
0000
0001
0000
0000
0000
1000
0000
0001
0000
0010
0100
,
0010
0000
0001
0000
0100
0000
0010
0000
0000
0000
0100
0000
0010
0000
1000
0100
,
0010
0001
1000
0000
0010
0000
0100
0000
0000
0000
0010
0000
0100
0000
0001
1000
,
0001
0000
0010
0000
0220
0000
0000
0000
0030
0000
0000
0000
1300
0000
0100
0010
,
0001
1000
0100
0000
0010
0000
0001
0000
0000
0000
0001
0000
0100
0000
0010
1000
,
0010
0000
0100
0000
0001
0000
0010
0000
0000
0000
0010
0000
0100
0000
1000
0001
,
0100
0010
1000
0000
0001
0000
0100
0000
0000
0000
0010
0000
1000
0000
0100
0010
,
0001
0100
0220
0000
0300
0000
0031
0010
,
1000
0100
1200
0000
0310
0001
0000
0001
,
0200
0000
0301
0100
0010
1000
0001
1000
,
0100
0100
2001
0000
3010
1000
0001
1000
,
0200
0000
0310
0001
0100
0010
1000
0100
,
0010
0001
1100
0000
0010
0001
0101
0000
,
0010
1000
1100
0000
0010
0001
1001
0000
,
0010
1000
1001
0001
0100
0100
0010
0010
,
1000
0001
2002
0000
0000
0000
0000
0000
,
3003
0000
0000
0000
1000
0000
0001
0000
0011
0000
0000
0001
0000
0001
0100
0000
,
0010
0000
1000
0000
0000
0000
0001
0000
1001
0000
0000
1000
0000
1000
0100
0000
,
0010
0001
1000
0000
0010
0000
0100
0000
0101
0000
0000
0010
0000
0010
1000
0000
,
0100
0000
0010
0000
0000
0000
1001
0000
1001
0000
0000
1001
0000
0001
0100
0000
,
0010
0000
1000
0000
0200
0000
0010
0000
0310
0000
0000
0000
0001
0000
0001
1000
,
0001
0000
0100
0000
0000
0000
0010
0000
1010
0000
0000
0000
0100
0001
0100
0001
,
1000
0100
1000
0100
0010
0000
0001
0000
0001
0000
0000
0000
0001
0000
0001
1000
,
0001
0000
0100
0000
0000
0000
1001
0000
1001
0000
0000
1001
0000
1000
0010
0000
,
0100
0000
0001
0000
1000
0000
0100
0000
1001
0000
0000
0001
0000
1000
0001
0000
,
1000
0000
0001
0000
0100
0000
1000
0000
0100
0000
0001
0100
0000
0001
0100
0000
,
1000
0000
0100
0000
0001
0000
0010
0000
0100
0000
1000
0000
0001
0000
0100
0010
,
0100
0001
1000
0100
0001
0100
1000
0010
,
0001
0000
0010
0000
2010
0000
0001
0000
0001
3001
0000
1000
0000
0100
0010
0000
,
0010
0100
0000
1000
0000
0001
1000
0000
0001
1000
0000
0100
0000
1000
0001
0000
,
1000
0001
0000
0100
0110
0000
0001
0000
1000
0001
0000
0010
0000
0001
1000
0000
,
0001
1000
0000
0010
0000
0100
0001
0000
0100
0001
0000
0010
0000
0100
1000
0000
,
0010
0100
0000
0001
1001
0000
1000
0000
0100
0010
0000
0100
1000
0000
0001
0000
,
0100
0010
0000
0100
0001
0000
0010
0000
0100
1000
0000
0010
1000
0000
0001
0000
,
0100
0001
0000
0010
0011
0000
0100
0000
1000
0010
0000
0100
0001
0000
1000
0000
,
0001
0010
0000
0100
1000
0000
0010
0000
0100
0001
0000
1000
0100
0000
0010
0000
,
0001
0100
0010
1000
2002
0000
0003
0000
3001
0100
0001
0100
2002
0000
3000
0000
,
1003
0100
1000
0100
2002
0000
3000
0000
1003
0010
1000
0010
2002
0000
0003
0000
,
3001
0010
0001
0010
0002
1000
0000
1003
0001
0100
0010
1000
0200
0010
0000
0310
,
0100
1000
0010
0100
0002
0010
0000
0013
0001
0100
0010
1000
0001
0010
0100
1000
,
0010
1000
0001
0000
1000
0000
0010
0000
0100
0000
0010
0000
1000
0000
0100
0000
,
0010
0100
1000
0001
0100
0010
0100
0001
,
0010
0100
0010
0001
0100
0010
1000
0100
,
0010
0001
1000
0010
0100
0001
0010
0001
,
0100
0010
1000
0100
0001
0100
1000
0100
,
0001
0100
1000
0100
0001
0100
1000
0100
,
0001
0000
0100
0000
4000
0400
0000
0000
0000
0000
0000
0000
0000
0000
0000
0000
,
3300
0000
2002
0000
0000
3003
1000
0001
,
0100
0001
0010
0100
1000
0010
1000
0001
,
0100
0001
0010
0001
0100
1000
0100
0001
,
0010
0100
1000
0010
0100
0001
1000
0100
,
0010
0001
0010
0001
0010
0000
0000
0000
0001
0010
0001
0010
0001
0000
0100
0000
,
0010
1000
0100
0010
0001
0100
0010
0100
,
0001
1000
0100
0010
0100
0001
0100
1000
,
0010
0100
0001
0010
0001
0100
0010
1000
,
0001
1000
0001
1000
0001
0000
0010
0000
0000
0000
1001
0000
0000
0000
0001
0000
,
1000
0100
1000
0010
0100
0001
1000
0100
,
0010
0001
0100
0001
0010
1000
0010
0001
,
0100
0010
1000
0001
0010
0001
0100
1000
,
0100
0000
0001
0000
0010
0100
0010
0100
0020
0000
0000
0000
0031
0000
0100
0000
,
1000
0100
0001
0100
0010
0010
1000
0100
,
0010
1000
0010
0001
0100
1000
0100
0001
,
0010
0000
0100
0000
1000
0000
0010
0000
0100
0000
0001
0000
1000
0001
1000
0001
,
1000
0001
1000
0001
1000
0001
1000
0001
1000
0001
1000
0001
1000
0000
0000
0000
,
0000
0101
0000
1010
,
0000
0101
0000
2002
,
0000
0000
3003
0000
;

//---------------dance-single - ----------------
#NOTES:
     dance-single:
     :
     Medium:
     8:
     0.572492,0.599440,0.259897,0.293432,0.129949,412.000000,31.000000,35.000000,0.000000,0.000000,2.000000,0.572492,0.599440,0.259897,0.293432,0.129949,412.000000,31.000000,35.000000,0.000000,0.000000,2.000000:
0000
0000
0000
0000
,
0000
0000
0000
0000
,
2000
0000
3001
0200
0300
0010
2000
0000
,
3100
0010
0001
0200
0300
0010
2000
3000
,
2002
0000
3000
0003
0000
0000
0001
1000
,
0100
0010
0001
1000
0001
0000
0100
0000
0010
0000
0100
0000
0001
0000
0000
0000
,
1001
0000
1000
0100
0010
0100
1000
0010
,
0100
0100
0001
0010
0100
0010
0001
0000
,
0110
0000
2002
0000
0003
0000
0010
0010
,
3010
0010
1000
0010
0001
0010
1000
0000
,
1100
0000
0001
0010
1000
0010
0001
0100
,
0100
0010
1000
0100
0001
0100
1000
0000
,
0110
0000
2002
0000
3000
0000
0103
0100
,
0001
1000
2001
0000
3010
1000
0000
1000
,
0200
0000
0310
0001
0100
0010
0000
1000
,
0100
0000
1002
0000
0013
0001
0000
0001
,
0200
0000
0310
1000
0100
0010
0001
0100
,
0010
1000
0002
0000
0013
0001
0200
0000
,
0310
1000
0200
0000
0310
0001
2000
0000
,
3010
1000
0001
0010
0100
1000
0100
0010
,
0001
2002
0000
0000
,
3003
0000
0000
0000
1000
0000
0010
0000
0100
0000
0000
0001
0000
0000
1000
0000
,
0100
0000
0000
0000
0010
0000
0001
0000
1000
0000
0000
0010
0000
0000
0100
0000
,
0001
0000
0010
0000
0000
0000
0001
0000
0100
0000
0000
0010
0000
0000
1000
0000
,
0001
1000
0000
0010
1000
0000
1100
0000
,
0101
0000
0001
1000
0010
0000
1000
1000
,
1000
0000
0000
0000
0001
0000
0010
0000
0001
0000
0000
1000
0000
0000
0010
0000
,
0100
0001
0000
1000
0001
0000
1000
1000
,
1000
0001
0000
0010
0001
0000
0101
0000
,
1100
0000
0000
0000
0010
0000
0001
0000
0100
0000
0000
0100
0000
0000
1000
0000
,
0100
0001
0100
0000
0110
0000
1001
0000
,
0110
0000
0001
1000
0001
1000
0100
0010
,
0100
0000
1000
0010
0100
0001
0100
0010
,
1000
0000
0000
0000
1002
0000
0000
0000
1003
0000
0000
0001
0000
0000
0100
0000
,
0100
0000
0000
0001
0000
0000
0010
0000
0010
0000
0000
0100
0000
0000
1000
0000
,
1000
0000
0000
0001
1000
0000
0001
0000
0001
0000
0000
0100
0000
0000
0010
0000
,
0010
0000
0000
1000
0000
0000
0001
0000
0001
0000
0000
1000
0000
0000
0100
0000
,
0010
0000
0000
0100
1000
0000
0001
0000
0100
0010
0000
0100
0000
0000
0001
0000
,
1000
0100
0000
1000
0000
0000
0010
0000
0100
0010
0000
1000
0000
0000
0001
0000
,
0010
0100
0000
1000
0001
0000
1000
0000
0010
0100
0000
0001
0000
0000
0100
0000
,
0010
1000
0000
0001
0000
0000
0010
0000
0001
1000
0000
0001
0000
0000
0100
0000
,
0010
1000
0000
0000
1002
0000
0000
0000
0013
0000
0001
0000
2001
0000
0000
0000
,
3010
1000
1002
0000
0103
0001
2001
0000
,
3100
1000
1002
0000
0103
0010
0210
0000
,
0310
1000
2001
0000
3100
0010
0012
0000
,
0103
0010
1000
0001
1000
0001
1000
0100
,
1000
0100
0010
0001
0010
0001
0100
0001
,
0100
0001
1000
0010
1000
0010
0100
0001
,
0100
0001
1000
0001
1000
0001
0010
0100
,
0010
0100
1000
0001
1000
0001
1000
0001
,
1000
0001
1000
0001
1000
0001
1000
0001
,
1000
0000
0001
0000
4000
0004
0000
0000
0000
0000
0000
0000
0000
0000
0000
0000
,
3003
0000
2002
0000
0000
3003
1000
0001
,
0100
0000
0001
0100
0000
0010
0000
1000
,
0100
0000
1000
0100
0000
0010
0100
1000
,
0010
0000
1000
0010
0000
0100
0000
0010
,
1000
0001
0010
0000
0010
0001
1000
0001
,
0100
0000
0001
0100
0000
0010
0000
1000
,
0001
0000
1000
0001
0000
0010
0100
0010
,
0001
0000
0010
0001
0000
0100
0000
0010
,
1000
0001
0010
0200
0000
0310
0000
0001
,
1000
0000
1000
0010
0000
0100
0000
0010
,
1000
0000
1000
0100
0000
0010
0001
1000
,
0010
0000
0010
1000
0000
0100
0000
0010
,
0001
0100
0010
0100
0001
0000
1000
0100
,
1000
0000
0010
0000
0100
0001
0100
0000
,
0010
0000
1000
0001
1000
0000
0100
0000
,
0010
0000
0001
0000
0100
0000
0001
1000
,
0001
1000
0001
1000
0001
1000
0001
0000
,
0000
1100
0000
0011
,
0000
1100
0000
2002
,
0000
0000
3003
0000
;

//---------------dance-single - ----------------
#NOTES:
     dance-single:
     :
     Easy:
     6:
     0.444340,0.479552,0.251513,0.293432,0.000000,306.000000,30.000000,35.000000,0.000000,0.000000,1.000000,0.444340,0.479552,0.251513,0.293432,0.000000,306.000000,30.000000,35.000000,0.000000,0.000000,1.000000:
0000
0000
0000
0000
,
0000
0000
0000
0000
,
2000
0000
3010
0200
0300
0010
0200
0000
,
0301
1000
0200
0310
0000
0100
0020
0030
,
2002
0000
3000
0003
0000
0000
0100
0010
,
1001
0110
1001
0000
0001
0000
0100
0001
,
0010
0000
0100
0000
1000
0000
0010
1000
,
0100
1000
0001
0000
0100
0000
0010
1000
,
0100
0000
0220
0000
0030
0000
0010
0010
,
0310
0000
0100
0000
1000
0000
0010
0100
,
0001
0000
0010
0000
0100
0000
1000
0010
,
0100
0001
0010
0000
0100
0000
1000
0010
,
0100
0000
0220
0000
0300
0000
0100
0100
,
0130
0010
1000
0000
0001
1000
0000
0001
,
2000
0000
3000
0001
1000
0001
0000
1000
,
0002
0000
0103
0000
0010
0100
0000
0010
,
0200
0000
0000
0310
0100
0010
0000
0100
,
0020
2030
3010
0002
,
0013
2000
3100
0002
,
0103
0000
1000
0001
1000
0001
1000
0001
,
1000
2002
0000
0000
,
3003
0000
1010
0000
0101
0000
0010
1000
,
0100
0000
0010
0000
0011
0000
0100
1000
,
0001
0100
0110
0001
,
1001
0000
0000
1000
0001
0000
0010
0001
,
1000
0000
0010
0000
1001
0000
1000
0100
,
0010
0000
0001
0000
1000
0000
0001
0100
,
0001
0000
1000
0001
1000
0000
1000
0100
,
0010
0000
0000
0001
1000
0000
0010
1000
,
0001
0100
0110
1001
,
1001
0001
0101
1100
,
0101
1000
0100
0010
,
0001
0000
1000
0001
1000
0001
1000
0001
,
1000
1002
1000
0100
,
0103
0001
0001
0010
,
0010
1001
0001
0100
,
0100
0010
0010
1000
,
0100
0000
1001
0000
0001
0000
0100
0001
,
1000
0000
0100
0000
0010
0000
0100
0010
,
0001
0000
1001
0000
1000
0000
0010
0100
,
0001
0000
0010
0000
0100
0000
0010
0100
,
1000
0000
1002
0000
0013
0001
2000
0000
,
3010
1000
0002
0000
0103
0001
2000
0000
,
3100
1000
0020
0000
0130
0001
0020
0000
,
0031
0100
0020
0000
1030
0100
0020
0000
,
0031
0100
0001
0000
1000
0000
0100
0000
,
0010
0001
0100
0010
,
1000
0100
0010
0001
,
1000
0001
0100
0010
,
1000
0001
0100
1000
,
0100
0001
0100
0010
,
1000
0004
0000
0000
,
0003
0000
2002
0000
0000
3003
1000
0000
,
0100
0010
0001
0010
,
0100
1000
0001
1000
,
0010
0100
0001
0100
,
1000
0100
1000
0100
,
0001
0010
0100
1000
,
0010
0100
0001
1000
,
0010
1000
0001
0010
,
1000
0000
0020
0000
0000
0031
0000
0000
,
0100
0010
1000
0010
,
0100
0001
1000
0001
,
0010
0100
1000
0100
,
0001
0100
1000
0010
,
1000
0001
0001
0010
,
0001
1000
1000
0010
,
0100
0001
0010
0001
,
1000
0001
1000
1001
,
0000
0110
0000
1001
,
0000
0110
0000
2002
,
0000
0000
3003
0000
;

//---------------dance-single - ----------------
#NOTES:
     dance-single:
     :
     Beginner:
     4:
     0.285048,0.479552,0.243129,0.251513,0.000000,179.000000,29.000000,30.000000,0.000000,0.000000,0.000000,0.285048,0.479552,0.243129,0.251513,0.000000,179.000000,29.000000,30.000000,0.000000,0.000000,0.000000:
// measure 0
0000
0000
0000
0000
,  // measure 1
0000
0000
0000
0000
,  // measure 2
1000
0000
0000
1000
0000
0000
1000
0000
,  // measure 3
0000
0001
0000
0001
0000
0000
0001
0000
,  // measure 4
2002
0000
3000
0003
0000
0000
1000
0001
,  // measure 5
1000
0001
1000
0000
1000
0000
0100
0000
,  // measure 6
0010
0001
0001
0100
,  // measure 7
0010
0100
0100
0001
,  // measure 8
1000
2002
3000
1000
,  // measure 9
1003
0001
0001
0100
,  // measure 10
0010
0100
0100
1000
,  // measure 11
0100
0001
0001
0010
,  // measure 12
0001
2002
0003
0001
,  // measure 13
3001
1000
0000
0010
,  // measure 14
0000
0100
0000
0001
,  // measure 15
0000
1000
0000
0100
,  // measure 16
0000
0010
0000
0001
,  // measure 17
0000
1000
1000
0001
,  // measure 18
0001
0010
0010
0100
,  // measure 19
0100
1000
0001
1000
,  // measure 20
0001
2002
0000
0000
,  // measure 21
3003
1000
0001
1000
,  // measure 22
0001
0000
0010
0001
,  // measure 23
1000
0000
0010
0100
,  // measure 24
0001
0000
1001
0000
,  // measure 25
0110
0000
0001
1000
,  // measure 26
1000
0000
0010
1000
,  // measure 27
0001
0000
1000
1000
,  // measure 28
1000
0000
1001
0000
,  // measure 29
0110
0000
1000
0001
,  // measure 30
1000
0000
1001
0110
,  // measure 31
1001
0000
0001
0010
,  // measure 32
0100
1000
0001
1000
,  // measure 33
0000
2002
0000
0000
,  // measure 34
3003
0100
0000
0100
,  // measure 35
0000
1001
0000
0010
,  // measure 36
0000
0010
0000
0010
,  // measure 37
0000
1001
1000
0001
,  // measure 38
0001
0010
0010
0001
,  // measure 39
0001
0100
0100
0010
,  // measure 40
0010
1000
1000
0100
,  // measure 41
0010
2002
3003
0202
,  // measure 42
0303
2002
3003
2200
,  // measure 43
3300
2002
3003
0022
,  // measure 44
0033
2002
3003
2020
,  // measure 45
3030
1001
0000
1000
,  // measure 46
0000
0001
0000
1000
,  // measure 47
0000
0001
0000
1000
,  // measure 48
0000
0001
0000
1000
,  // measure 49
0000
0001
0000
1000
,  // measure 50
0000
0001
0000
1000
,  // measure 51
0000
0002
0000
0000
,  // measure 52
0000
0000
2000
0000
0000
3003
1000
0000
,  // measure 53
0000
0100
0000
0010
,  // measure 54
0000
0001
0000
0100
,  // measure 55
0000
0010
0000
0100
,  // measure 56
0000
0001
0000
1000
,  // measure 57
0000
0100
0000
0010
,  // measure 58
0000
0100
0000
1000
,  // measure 59
0000
0010
0000
0100
,  // measure 60
0000
1001
0000
0001
,  // measure 61
0000
1000
0000
0100
,  // measure 62
0000
0001
0000
0100
,  // measure 63
0000
1000
0000
0001
,  // measure 64
0000
0100
0000
0010
,  // measure 65
0000
0010
0000
1000
,  // measure 66
0000
1000
0000
0001
,  // measure 67
0000
0010
0000
0100
,  // measure 68
0000
1000
0000
1001
,  // measure 69
0000
1001
0000
1001
,  // measure 70
0000
1001
0000
2002
,  // measure 71
0000
0000
3003
0000
;
