#TITLE:Conflict (Vocaloid Ver);
#SUBTITLE:;
#ARTIST:siromaru + cranky;
#TITLETRANSLIT:;
#SUBTITLETRANSLIT:;
#ARTISTTRANSLIT:;
#CREDIT:poyomon;
#BANNER:[Round 3] - Conflict (Vocaloid Ver).png;
#BACKGROUND:[Round 3] - Conflict (Vocaloid Ver)-bg.png;
#LYRICSPATH:;
#CDTITLE:;
#MUSIC:[Round 3] - Conflict (Vocaloid Ver).ogg;
#OFFSET:-1.500;
#SAMPLESTART:98.420;
#SAMPLELENGTH:12.000;
#SELECTABLE:YES;
#BPMS:0.000=160.000;
#STOPS:;
#BGCHANGES:;

//---------------dance-single - ----------------
#NOTES:
     dance-single:
     :
     Hard:
     9:
     0.586,0.740,0.376,0.318,0.383: // measure 1
0000
0000
0000
0000
,  // measure 2
1000
0100
1000
0001
,  // measure 3
0100
0001
1000
0100
,  // measure 4
1000
0001
0100
0001
,  // measure 5
1000
0000
0000
0000
0100
0000
0000
0000
1000
0000
0000
0000
0100
1000
0100
1000
,  // measure 6
0001
0010
0001
1000
,  // measure 7
0010
1000
0001
0010
,  // measure 8
0001
1000
0010
1000
,  // measure 9
0002
1003
1001
1100
,  // measure 10
0101
0000
0000
0000
1000
0000
0000
0000
1000
0000
0000
0000
0100
0000
0000
0010
,  // measure 11
0001
0000
0200
0000
0300
0001
0100
0010
,  // measure 12
1000
0000
0000
0000
0001
0000
0000
0000
0100
0000
0000
0000
1000
0000
0000
0100
,  // measure 13
0001
0000
0020
0030
0000
0000
0200
0000
,  // measure 14
1300
0000
0000
0000
0001
0000
0000
1000
0100
0000
0000
0001
0100
0000
0000
1000
,  // measure 15
0100
2000
3000
1000
,  // measure 16
0010
0000
0000
0000
0001
0000
0000
0000
0010
0000
0000
1000
0010
0000
0000
0001
,  // measure 17
0010
0000
0000
1000
0010
0000
0000
0000
0000
0000
1000
0000
0001
0000
1000
0000
,  // measure 18
1001
0000
0000
0000
1000
0000
0000
0000
0100
0000
0000
0000
1000
0000
0000
0001
,  // measure 19
0100
0000
0000
0001
0200
0000
0300
0000
0000
0000
1000
0000
0100
0000
0001
0000
,  // measure 20
0011
0000
0000
0000
1100
0000
0000
0000
1001
0000
0000
0001
0100
0000
0000
0010
,  // measure 21
1000
0000
0000
0001
0020
0000
0030
0000
0000
0000
0000
0000
1000
0000
0000
0000
,  // measure 22
0001
0000
0000
0000
1000
0001
1000
0001
1000
0000
0000
0100
1000
0000
0000
0001
,  // measure 23
0100
0000
0000
0010
1000
0000
0000
0001
1000
0000
0000
0000
0010
0000
0000
1000
,  // measure 24
0100
0000
0000
0000
0010
0000
0000
0001
0100
0000
0000
0000
0001
0000
0000
1000
,  // measure 25
0001
0000
2002
0000
0000
0000
0000
3003
,  // measure 26
1001
0000
0000
0000
0001
0000
1000
0000
0001
0100
0001
0000
0100
0000
0001
1000
,  // measure 27
0001
0000
1000
0000
0001
0010
0001
0000
1000
0001
1000
0000
0010
0100
0010
0000
,  // measure 28
1001
0000
0000
0000
1000
0000
0001
0000
1000
0100
1000
0000
0100
0000
1000
0001
,  // measure 29
1000
0000
0001
0000
1000
0010
1000
0000
0001
1000
0001
0000
1000
0000
0001
0000
,  // measure 30
1001
0000
0000
0000
0001
0000
0100
0000
0010
0100
0010
0000
1000
0000
0100
0010
,  // measure 31
0100
0000
1000
0000
0010
0100
0010
0000
1000
0000
0001
0000
0010
0000
0100
0000
,  // measure 32
0010
0000
0000
0000
0001
0000
1000
0000
0001
1000
0001
0000
1000
0000
0000
0000
,  // measure 33
0000
0000
0001
0000
1000
0000
0001
0000
1000
0100
1000
0000
0001
0100
0001
0000
,  // measure 34
1001
0000
0010
0000
0100
0000
0001
0000
1001
0000
0000
1100
0000
0000
1001
0000
,  // measure 35
0000
0101
0000
0000
1000
0000
0000
0000
1000
0100
1000
0000
0001
0100
0001
0000
,  // measure 36
0000
0000
0100
0000
0010
0000
1000
0000
1001
0000
0000
0101
0000
0000
1001
0000
,  // measure 37
0000
1100
0000
0000
0001
0000
0000
0000
0001
0100
0001
0000
1000
0100
1000
0000
,  // measure 38
0000
0000
1000
0000
0001
0000
0100
0000
0110
0000
0000
0011
0000
0000
0110
0000
,  // measure 39
0000
1010
0000
0000
0100
0000
0000
0000
0010
0001
0010
0000
0010
1000
0010
0000
,  // measure 40
0000
0000
1000
0000
0100
0000
0001
0000
0110
0000
0000
1100
0000
0000
1001
0000
,  // measure 41
1100
0000
0000
0011
0000
0000
0101
0000
0000
1010
0000
0000
1001
0000
0000
0000
,  // measure 42
2000
0000
0000
0000
0200
3000
0000
0000
,  // measure 43
0002
0300
0000
0000
2000
0003
0000
0000
,  // measure 44
0200
3000
0000
0000
0002
0300
0000
0000
,  // measure 45
2000
0003
0000
0000
0200
3000
0000
0000
,  // measure 46
0020
0300
0000
0000
0002
0030
0000
0000
,  // measure 47
2000
0003
0000
0000
0020
3000
0000
0000
,  // measure 48
0002
0030
0000
0000
2000
0003
0000
0000
,  // measure 49
0020
3000
0000
0000
0000
0030
0000
0000
,  // measure 50
2000
0000
0010
0000
0200
3000
0010
0000
,  // measure 51
0002
0300
0010
0000
2000
0003
0010
0000
,  // measure 52
0200
3000
0010
0000
0002
0300
0010
0000
,  // measure 53
2000
0003
0010
0000
0200
3000
0010
0000
,  // measure 54
0020
0300
0100
0000
0002
0030
0100
0000
,  // measure 55
2000
0003
0100
0000
0020
3000
0100
0000
,  // measure 56
0002
0030
0100
0000
2000
0003
0100
0000
,  // measure 57
0020
3000
0100
0000
0002
0030
1003
0000
,  // measure 58
0110
0000
0000
1001
0000
0000
1100
0000
,  // measure 59
0000
0101
0000
0000
1100
1001
1010
0000
,  // measure 60
0000
1001
0000
0000
0011
0000
0000
1010
,  // measure 61
0000
0000
0011
1001
0101
0000
0000
0011
,  // measure 62
0000
0000
1100
0000
0000
1010
0000
0000
,  // measure 63
0101
0000
1001
0000
1100
0000
0000
0000
0000
0000
0001
1000
0001
0000
1000
0000
,  // measure 64
0010
0100
0010
0000
1000
0100
1000
0000
0100
0000
0010
0000
0001
1000
0001
1000
,  // measure 65
0001
0001
1000
0100
,  // measure 66
1000
0000
0001
0000
0100
0010
1000
0000
,  // measure 67
0010
1000
0001
0010
,  // measure 68
0001
0000
1000
0100
1000
0000
0001
0000
,  // measure 69
0100
0001
1000
0100
,  // measure 70
1000
0010
0100
0000
0010
0000
1000
0000
,  // measure 71
0001
0100
0001
1000
,  // measure 72
0100
1000
0001
0100
0000
0000
0100
0000
0000
0100
0000
0000
0100
0000
0000
0100
,  // measure 73
0000
0000
0100
0000
0000
0100
0000
0000
0100
0010
1000
0001
1000
0000
0000
1000
,  // measure 74
0000
0000
1000
0000
0000
1000
0000
0000
1000
0000
0000
1000
0000
0000
1000
0000
,  // measure 75
0000
1000
0000
0000
1000
0100
0010
0001
0010
0000
0000
0010
0000
0000
0010
0000
,  // measure 76
0000
0010
0000
0000
0010
0000
0000
0010
0000
0000
0010
0000
0000
0010
0000
0000
,  // measure 77
0010
0001
0010
0001
2000
0000
0000
0000
0000
0000
0000
0000
3010
0100
0010
0100
,  // measure 78
0010
0000
1000
0000
0100
0000
0000
0010
0000
0000
0001
0000
1001
0000
0000
0000
,  // measure 79
1100
0101
1000
0001
,  // measure 80
0100
0000
0000
0010
1000
0000
0000
0000
0200
0000
0000
0000
0300
0000
0010
0000
,  // measure 81
0100
0010
0001
0000
0100
0000
0010
0000
,  // measure 82
1000
0000
0000
0100
0010
0000
0000
0000
0002
0000
0003
0000
0000
0000
0000
0000
,  // measure 83
0200
0000
0000
0000
0310
0000
0000
0000
1000
0000
0000
0001
0010
0000
0000
0100
,  // measure 84
1000
0000
0000
0001
0100
0000
0000
0000
0020
0000
0000
0000
0030
0000
0000
0000
,  // measure 85
1000
0000
0000
0000
0010
0000
0000
0000
0001
0000
0000
0000
0010
0000
0000
1000
,  // measure 86
0010
0000
0000
0100
0001
0000
0000
1000
0100
0000
0000
0000
0000
0000
1000
0000
,  // measure 87
0001
1000
1001
0000
0001
0000
0100
0000
,  // measure 88
0001
0000
0000
1000
0100
0000
0000
1000
0200
0000
0300
0000
0000
0000
0001
0000
,  // measure 89
0100
0000
1000
0000
1010
0000
0000
0000
0101
0000
0000
0000
1001
0000
0000
0001
,  // measure 90
1000
0000
0000
0010
1000
0000
0000
0001
2000
0000
3000
0000
0000
0000
0000
0000
,  // measure 91
0100
0000
0000
0000
0010
0000
0000
0000
0100
0010
0100
0010
0100
0000
0000
0001
,  // measure 92
0100
0000
0000
0010
0100
0000
0000
1000
0010
0000
0000
1000
0001
0000
0000
0000
,  // measure 93
0100
0000
0000
0001
0010
0000
0000
0000
0100
0000
0000
1000
0010
0000
0000
0000
,  // measure 94
1000
0000
0000
0001
1000
0000
0000
0000
0010
0000
0000
1000
0001
0000
0000
1000
,  // measure 95
0001
0000
0000
0100
0010
0000
0000
1000
0001
0000
0000
0001
0100
0000
0000
0100
,  // measure 96
0010
0000
0000
0010
1000
0000
0000
1000
0100
0000
0000
0100
0001
0000
0000
0001
,  // measure 97
0100
0000
0000
0100
1000
0000
0000
1000
0001
0000
0000
0001
0010
0000
0000
0010
,  // measure 98
0001
0000
0000
0002
2000
0000
0000
0000
0000
0000
0000
0000
0000
0000
0000
0000
,  // measure 99
0000
0000
0000
0000
,  // measure 100
0000
3003
0000
0000
;

//---------------dance-single - ----------------
#NOTES:
     dance-single:
     :
     Medium:
     7:
     0.486,0.581,0.603,0.259,0.065:
0000
0000
0000
0000
,
1000
0100
1000
0100
,
1000
0100
1000
0100
,
1000
0100
1000
0100
,
1000
0000
0100
0000
1000
0000
0100
1000
,
0001
0100
0001
0100
,
0001
0100
0001
0100
,
0001
0100
0001
0100
,
0001
1000
1001
0001
,
1000
1001
0001
1001
,
1001
0110
0000
1000
,
1100
0001
0101
1000
,
1001
0110
0000
0001
,
0011
1000
1010
0001
,
1001
0110
0000
0100
,
1100
0010
0011
1000
,
0110
1001
0000
0001
,
1000
1001
0001
1001
,
0110
1001
0000
1000
,
1100
0001
0101
1000
,
1001
0110
0000
0001
,
0011
1000
1010
0001
,
1001
0010
0110
0100
,
1100
0010
0011
1000
,
0110
2002
0000
3003
,
1001
0000
0001
1000
0000
1000
0001
0000
,
0001
0000
0100
0000
0000
0000
0100
0000
0001
1000
0001
0000
1000
0000
0000
0000
,
1001
0000
1000
0001
0000
0001
1000
0000
,
1000
0000
0100
0000
0000
0000
0100
0000
1000
0001
1000
0000
0001
1000
0000
0000
,
1001
0000
1000
0001
0000
0001
1000
0000
,
1000
0100
0000
0100
1000
0001
1000
0001
,
1001
0000
0001
1000
0000
1000
0001
0000
,
1000
0000
0100
0000
1000
0001
1000
0000
,
1001
0000
0001
0000
1000
0100
1000
0000
,
0001
0100
0001
0000
1000
0000
0001
0000
,
1001
0000
1000
0000
0001
0010
0001
0000
,
1000
0010
1000
0000
0010
0000
0100
0000
,
0110
0000
0010
0000
0100
1000
0100
0000
,
0100
0001
0100
0000
0001
0000
1000
0000
,
1001
1100
1001
0101
,
1001
0000
0000
1001
0000
0000
1001
0000
0000
1001
0000
0000
1001
0000
0000
0000
,
2000
0000
3200
0000
,
0302
0000
2003
0000
,
3020
0000
0032
0000
,
2003
0000
3200
0000
,
0320
0000
2030
0000
,
3002
0000
0203
0000
,
2300
0000
3002
0000
,
0023
0000
0030
0000
,
0002
0000
0023
0000
,
2030
0000
3002
0000
,
0203
0000
2300
0000
,
3002
0000
0023
0000
,
0230
0000
0302
0000
,
2003
0000
3020
0000
,
0032
0000
2003
0000
,
3200
0000
1300
0001
,
0110
0000
0000
1001
0000
0000
1100
0000
,
0000
0101
0000
0000
0100
0010
0100
0000
,
0000
1001
0000
0000
0011
0000
0000
1010
,
0000
0000
0010
1000
0100
0000
0000
0011
,
0000
0000
1100
0000
0000
0011
0000
0000
,
0010
0001
0100
0000
0000
0001
0001
1000
,
0010
0010
1000
1000
0100
0010
0001
0001
,
0001
0001
1000
0100
,
1000
0000
0001
0000
0100
0010
1000
0000
,
0010
1000
0001
0010
,
0001
0000
1000
0100
1000
0000
0001
0000
,
0100
0001
1000
0100
,
1000
0010
0100
0000
0010
0000
1000
0000
,
0001
0100
0001
1000
,
0002
0000
0003
0100
0000
0000
0100
0000
0000
0100
0000
0000
0100
0000
0000
0100
,
0000
0000
0100
0000
0000
0100
0000
0000
0100
0000
0002
0000
0000
0003
0000
1000
,
0000
0000
1000
0000
0000
1000
0000
0000
1000
0000
0000
1000
0000
0000
1000
0000
,
0000
1000
0000
0000
1000
0000
0002
0000
0000
0003
0000
0010
0000
0000
0010
0000
,
0000
0010
0000
0000
0010
0000
0000
0010
0000
0000
0010
0000
0000
0010
0000
0000
,
0200
0000
0000
0000
0020
0000
0000
0330
0002
0000
0003
0000
0010
0100
0010
0100
,
0010
0000
0001
0000
0100
0000
0000
0010
0000
0000
1000
0000
1001
0000
0000
0000
,
0100
0010
1001
0001
,
1100
0101
0110
0000
,
0100
1100
0010
0101
,
1000
1001
0110
0000
,
0010
0011
0100
1010
,
0001
1001
0110
0000
,
0100
1001
0001
0110
,
1000
0011
1100
0000
,
0001
0100
1010
0100
,
1001
1100
1100
0000
,
0001
1100
1000
0101
,
0010
1001
0110
0000
,
0001
0011
1000
1010
,
0001
1001
0010
0110
,
0100
1100
0010
0011
,
1000
0110
0100
1001
,
0100
0000
1000
0100
0001
0100
1000
0100
,
0001
0100
1000
0010
0001
0010
1000
0010
,
0001
0010
1000
0100
0001
0100
1000
0100
,
1000
0001
2002
0000
0000
0000
0000
0000
,
0000
0000
0000
0000
,
0000
0000
3003
0000
;

//---------------dance-double - ----------------
#NOTES:
     dance-double:
     :
     Medium:
     1:
     0.000,0.000,0.000,0.000,0.000:
00000000
00000000
00000000
00000000
;

//---------------dance-single - ----------------
#NOTES:
     dance-single:
     :
     Easy:
     4:
     0.362,0.419,0.117,0.208,0.013:
0000
0000
0000
0000
,
1000
0100
1000
0100
,
1000
0100
1000
0100
,
1000
0100
1000
0100
,
1000
0100
1000
0001
,
0100
0001
0100
0001
,
0100
0001
0100
0001
,
0100
0001
0100
0001
,
0100
0001
1001
1001
,
0100
1001
0010
1001
,
0100
1001
0000
1000
,
0100
0010
0001
0010
,
0100
1000
0000
0001
,
0100
0010
1000
0010
,
0100
0001
0000
1000
,
0100
0010
0001
0100
,
0010
1000
0001
1000
,
1001
0010
1001
0100
,
1001
0010
1000
1000
,
0100
0001
0100
1000
,
0010
0001
0010
1000
,
1000
0001
0100
0010
,
1000
0001
0010
0100
,
1000
0100
1000
0010
,
1000
0002
0000
0003
,
1000
1000
0100
0100
,
1000
1000
0001
0001
,
0100
0100
0010
0010
,
1000
1000
0001
0001
,
0010
0010
0001
0001
,
0100
0100
1000
1000
,
0100
0100
0001
0001
,
1001
1001
1000
1000
,
1000
0100
0010
0001
,
0010
0100
1000
0010
,
0100
0001
0100
0010
,
1000
0100
0001
0100
,
1000
0010
0001
0010
,
1000
0100
1000
0010
,
1000
0001
1000
0001
,
1000
0000
0000
1000
0000
0000
1000
0000
0000
1000
0000
0000
1000
0000
0000
0000
,
0002
0000
2003
0000
,
3200
0000
2300
0000
,
3002
0000
0203
0000
,
0302
0000
0003
0000
,
2000
0000
3020
0000
,
2030
0000
3002
0000
,
0023
0000
0032
0000
,
2003
0000
3000
0000
,
2000
0010
0001
0100
,
3002
0010
1000
0100
,
2003
0100
0001
0010
,
3002
0100
1000
0010
,
2003
0100
0010
0001
,
3002
0100
0010
1000
,
2003
0010
0100
0001
,
3002
0010
0100
1000
,
1003
0000
0000
0001
0000
0000
1000
0000
,
0000
0001
0000
0000
1000
0000
0100
0000
,
0000
0010
0000
0000
0100
0000
0000
0010
,
0000
0000
0100
0000
1000
0000
0000
0100
,
0000
0000
1000
0000
0000
0100
0000
0000
,
1000
0001
0100
0001
,
1000
0100
1000
0010
,
1000
0001
1000
0001
,
1000
0001
1000
0100
,
1000
0100
1000
0100
,
1000
0100
0010
0001
,
0010
0001
0010
0001
,
0010
0001
1000
0010
,
1000
0001
0010
0001
,
2000
0000
0000
3200
,
0000
0000
0310
0002
,
0000
0000
0203
0000
,
0000
0310
2000
0000
,
0000
3002
0000
0000
,
1003
0002
0000
0000
,
1003
0000
0000
0000
1000
0000
0000
0100
0000
0000
1000
0000
0000
0001
0000
0000
,
0000
1001
0100
1001
,
0010
1001
0100
1001
,
0000
1000
0100
0010
,
0001
0010
0100
1000
,
0000
0001
0100
0010
,
1000
0010
0100
0001
,
0000
1000
0100
0010
,
0001
0100
0010
1000
,
0001
1000
1001
0010
,
1001
0100
1001
0010
,
1000
1000
0100
0001
,
0100
1000
0010
0001
,
0010
1000
1000
0001
,
0100
0010
1000
0001
,
0010
0100
1000
0100
,
1000
0010
1000
0001
,
0010
0001
1000
1000
,
0100
0100
1000
1000
,
0001
0001
0100
0100
,
0001
2002
0000
0000
,
0000
0000
0000
0000
,
0000
3003
0000
0000
;
