#TITLE:Bounce;
#SUBTITLE:;
#ARTIST:Orbit1 & Milo;
#TITLETRANSLIT:;
#SUBTITLETRANSLIT:;
#ARTISTTRANSLIT:;
#GENRE:;
#CREDIT:;
#BANNER:bounce.png;
#BACKGROUND:bounce-bg.png;
#LYRICSPATH:;
#CDTITLE:;
#MUSIC:Bounce.ogg;
#OFFSET:-0.331345;
#SAMPLESTART:99.713936;
#SAMPLELENGTH:12.000000;
#SELECTABLE:YES;
#BPMS:0.000000=181.080002
,372.000000=189.500000
,373.000000=198.000000
,374.000000=206.500000
,375.000000=215.000000
,376.000000=223.500000
,377.000000=232.000000
,378.000000=240.500000
,379.000000=249.000000
,380.000000=257.500000
,381.000000=266.000000
,382.000000=274.500000
,383.000000=283.000000
,384.000000=200.000000
;
#STOPS:
;
#BGCHANGES:;
#KEYSOUNDS:;
#ATTACKS:;

//---------------dance-single - ----------------
#NOTES:
     dance-single:
     :
     Beginner:
     2:
     0.142252,0.222898,0.122556,0.022979,0.000000,111.000000,16.000000,3.000000,0.000000,0.000000,0.000000,0.142252,0.222898,0.122556,0.022979,0.000000,111.000000,16.000000,3.000000,0.000000,0.000000,0.000000:
0000
0000
0000
0000
,
0000
0000
0000
0000
,
0000
0000
0000
0000
,
0000
0000
0000
0000
,
0000
0000
0000
0000
,
1000
0000
0000
0000
,
0001
0000
0000
0000
,
0100
0000
0000
0000
,
0010
0000
0000
0000
,
1001
0000
0000
0000
,
0000
0000
0000
0000
,
0100
0000
0000
0000
,
0010
0000
0000
0000
,
0001
0000
0000
0000
,
0001
0000
0000
0000
,
1000
0000
1000
0000
,
2000
0000
0000
3000
,
1000
0000
1000
0000
,
1000
0000
0000
0000
,
0010
0000
0010
0000
,
0010
0000
0000
0000
,
0100
0000
0100
0000
,
0100
0000
0000
0000
,
0001
0000
0001
0000
,
0001
0000
0000
0000
,
1001
0000
0100
0000
,
0100
0000
0000
0000
,
0010
0000
0010
0000
,
0010
0000
0000
0000
,
0001
0000
0001
0000
,
0001
0000
0000
0000
,
1000
0000
1000
0000
,
1000
0000
0000
0000
,
1001
0000
0000
0000
,
0010
0000
0000
0000
,
0100
0000
0000
0000
,
0001
0000
0000
0000
,
0010
0000
0000
0000
,
0100
0000
0000
0000
,
1000
0000
0000
0000
,
0001
0000
0000
0000
,
0110
0000
0000
0000
,
0100
0000
0000
0000
,
1000
0000
0000
0000
,
0001
0000
0000
0000
,
0110
0000
0000
0000
,
0100
0000
0000
0000
,
0001
0000
0000
0000
,
1000
0000
0000
0000
,
1001
0000
0000
0000
,
0100
0000
0100
0000
,
0100
0000
0000
0000
,
0010
0000
0010
0000
,
0010
0000
0000
0000
,
0001
0000
0001
0000
,
0001
0000
0000
0000
,
1000
0000
0000
0000
,
1001
0000
0000
0000
,
0010
0000
0010
0000
,
0010
0000
0000
0000
,
0100
0000
0100
0000
,
0100
0000
0000
0000
,
0001
0000
0001
0000
,
0001
0000
0000
0000
,
1001
0000
0000
0000
,
1001
0000
0000
0000
,
0100
0000
0000
0000
,
0010
0000
0000
0000
,
0001
0000
0000
0000
,
0100
0000
0000
0000
,
0010
0000
0000
0000
,
1000
0000
0000
0000
,
0001
0000
0000
0000
,
1001
0000
0000
0000
,
0100
0000
0000
0000
,
0010
0000
0000
0000
,
0001
0000
0000
0000
,
0100
0000
0100
0000
,
0010
0000
0010
0000
,
1000
0000
1000
0000
,
1000
0000
0000
0000
,
0001
0000
1000
0000
,
0001
0000
0000
0000
,
0100
0000
0010
0000
,
0100
0000
0000
0000
,
0010
0000
1000
0000
,
0010
0000
0000
0000
,
0100
0000
0001
0000
,
0100
0000
0000
0000
,
0110
0000
0000
0000
,
0110
0000
0000
0000
,
1001
0000
0000
0000
,
1001
0000
0000
0000
,
0220
0000
0000
0000
,
0000
0000
0000
0000
,
0000
0000
0000
0000
,
0330
0000
0000
0000
,
1001
0000
0000
0000
;

//---------------dance-single - ----------------
#NOTES:
     dance-single:
     :
     Easy:
     5:
     0.352347,0.371497,0.260431,0.245111,0.000000,256.000000,34.000000,32.000000,0.000000,0.000000,0.000000,0.352347,0.371497,0.260431,0.245111,0.000000,256.000000,34.000000,32.000000,0.000000,0.000000,0.000000:
0000
0000
0000
0000
,
0000
0000
0000
0000
,
0000
0000
0000
0000
,
0000
0000
0000
0000
,
0000
0000
0000
0000
,
0001
0000
0100
0000
,
0010
0000
1000
0000
,
0100
0000
0010
0000
,
1001
0000
0000
0000
,
0110
0000
0000
0000
,
0100
0000
0000
0000
,
0001
0000
0000
0000
,
1000
0000
0000
0000
,
0100
0000
0100
0000
,
0010
0000
0010
0000
,
0001
0100
0010
1000
,
0002
0000
0000
0003
,
0100
0100
0010
0010
,
0100
0100
0010
0010
,
1000
1000
0001
0001
,
1000
1000
0001
0001
,
0010
0010
0001
0001
,
0100
0100
0010
0010
,
1000
1000
0100
0100
,
0120
0000
0000
0000
,
0130
0100
1000
1000
,
0010
0010
0100
0100
,
0001
0001
1000
1000
,
0100
0100
0010
0010
,
0001
0001
0100
0100
,
0010
0010
1000
1000
,
0010
0100
0001
1000
,
1001
0000
0000
0000
,
0120
0000
0030
0000
,
0200
0000
0300
0000
,
2000
0000
3000
0000
,
0002
0000
0003
0000
,
0200
0000
0300
0000
,
0020
0000
0030
0000
,
0200
0000
0300
0000
,
0002
0000
0003
0000
,
2000
3100
0000
1100
,
0020
0130
0000
0110
,
0200
0301
0000
0101
,
0002
0013
0000
0011
,
0200
1300
0000
1100
,
1000
0001
1000
0001
,
0100
0010
1000
0001
,
2002
0000
0000
3003
,
0001
0010
0100
0100
,
1000
0010
0100
0100
,
0010
1000
0001
0001
,
0010
0100
0001
0001
,
0100
1000
0010
0010
,
0100
0001
0010
0010
,
0001
0100
1000
1000
,
0001
0010
2000
0000
,
3001
0010
0001
0011
,
0100
1000
0100
1100
,
0010
0100
0010
0110
,
1000
0001
1001
0000
,
0100
0010
0100
0110
,
0010
0001
0010
0011
,
0100
1000
0100
1000
,
2002
0000
0000
3003
,
0120
0000
0031
0000
,
0100
0010
1000
0100
,
0020
0000
0130
0000
,
1000
0010
0100
0001
,
0200
0000
0301
0000
,
1000
0100
0001
0100
,
0020
0000
0130
0000
,
0110
0000
0000
0000
,
1001
0000
0000
0000
,
0110
0000
0000
0000
,
1100
0000
0000
0000
,
0011
0000
0000
0000
,
1001
0000
0110
0000
,
0101
0000
1010
0000
,
0010
0010
0100
0100
,
2002
0000
0000
3003
,
0001
1000
0100
0100
,
0010
0100
1000
1000
,
0010
1000
0001
0001
,
0010
0100
1000
0001
,
0100
0010
1000
1000
,
0010
0100
0001
0001
,
0010
0001
0100
0100
,
0210
0000
0000
0000
,
0310
0100
0010
0100
,
0001
1000
0001
1001
,
0001
0010
0001
0010
,
0100
0010
0100
0110
,
0200
0000
2300
0000
,
3020
0000
0230
0000
,
0302
0000
1003
0000
,
1001
0000
0000
0000
,
0110
0000
0000
0000
;

//---------------dance-single - ----------------
#NOTES:
     dance-single:
     :
     Medium:
     7:
     0.509919,0.594395,0.742993,0.283410,0.000000,332.000000,97.000000,37.000000,0.000000,0.000000,0.000000,0.509919,0.594395,0.742993,0.283410,0.000000,332.000000,97.000000,37.000000,0.000000,0.000000,0.000000:
// measure 0
0000
0000
0000
0000
,  // measure 1
0000
0000
0000
0000
,  // measure 2
0000
0000
0000
0000
,  // measure 3
0000
0000
0000
0000
,  // measure 4
0000
0000
0000
0000
,  // measure 5
0001
0010
0001
0100
,  // measure 6
0010
1000
0100
1000
,  // measure 7
0010
0100
0001
1000
,  // measure 8
0110
0000
0000
0000
,  // measure 9
2001
0000
0000
0000
,  // measure 10
3020
0000
0000
0000
,  // measure 11
0230
0000
0000
0000
,  // measure 12
0302
0000
0000
0000
,  // measure 13
1003
1000
1000
1000
,  // measure 14
0001
0001
0001
0001
,  // measure 15
0010
0001
0010
0000
0100
1000
0100
0000
,  // measure 16
0220
0000
0000
0330
,  // measure 17
0001
0011
0100
1100
,  // measure 18
0001
0011
0100
1100
,  // measure 19
0010
1010
0100
0101
,  // measure 20
0010
1010
0100
0101
,  // measure 21
0001
0110
1000
0110
,  // measure 22
0001
0110
1000
0110
,  // measure 23
0100
1001
0010
1001
,  // measure 24
0020
0000
0000
0000
,  // measure 25
0130
1100
0100
1100
,  // measure 26
0010
0110
0100
0110
,  // measure 27
0010
0011
0010
0011
,  // measure 28
0001
0000
0101
0000
0100
0010
0100
0000
,  // measure 29
0001
0101
0010
1010
,  // measure 30
0100
0101
0001
1001
,  // measure 31
0001
0010
0001
0000
1000
0010
1000
0000
,  // measure 32
2002
0000
0000
3003
,  // measure 33
2001
0001
3002
0000
,  // measure 34
0100
0100
0203
0000
,  // measure 35
0010
0010
0320
0000
,  // measure 36
1000
1000
2030
0000
,  // measure 37
0001
0001
3002
0000
,  // measure 38
0010
0010
0023
0000
,  // measure 39
0100
0100
0200
0330
,  // measure 40
2002
0000
0000
3003
,  // measure 41
0100
0000
1001
0000
0010
0010
1000
0000
,  // measure 42
0001
0000
0101
0000
0010
0010
0100
0000
,  // measure 43
0001
0000
1010
0000
0100
0100
0001
0000
,  // measure 44
1000
0000
0011
0000
0100
0100
1000
0000
,  // measure 45
0001
0000
1001
0000
0010
0010
0100
0000
,  // measure 46
0001
0000
1001
0000
1000
1000
0100
0000
,  // measure 47
0010
0001
0010
0000
0100
1000
0100
0000
,  // measure 48
0220
0000
0000
0330
,  // measure 49
0100
1000
0100
0000
1100
0000
1100
0000
,  // measure 50
1000
0010
1000
0000
1010
0000
1010
0000
,  // measure 51
0010
0100
0010
0000
0110
0000
0110
0000
,  // measure 52
0100
0001
0100
0000
0101
0000
0101
0000
,  // measure 53
0001
1000
0001
0000
1001
0000
1001
0000
,  // measure 54
0001
0010
0001
0000
0011
0000
0011
0000
,  // measure 55
0010
0100
0010
0000
0110
0000
0110
0000
,  // measure 56
0200
1000
1000
1000
,  // measure 57
1300
0000
0100
0000
0010
0001
1000
0000
,  // measure 58
0010
0000
0100
0000
0001
1000
0100
0000
,  // measure 59
0010
0000
0100
0000
1000
0010
0100
0000
,  // measure 60
0001
0010
0110
1001
,  // measure 61
0010
0000
0100
0000
0001
1000
0100
0000
,  // measure 62
0010
0000
0100
0000
1000
0010
0100
0000
,  // measure 63
0001
0010
0001
0000
1000
0000
0100
0000
,  // measure 64
0220
0000
0000
0330
,  // measure 65
0120
0100
0100
0100
,  // measure 66
0230
1000
1000
1000
,  // measure 67
2300
0001
0001
0001
,  // measure 68
3002
0100
0100
0100
,  // measure 69
0203
0010
0010
0010
,  // measure 70
0320
1000
1000
1000
,  // measure 71
2030
0001
0001
0001
,  // measure 72
3002
0000
0000
0003
,  // measure 73
0011
0000
0000
0000
,  // measure 74
1100
0000
0000
0000
,  // measure 75
0110
0000
0000
0000
,  // measure 76
1001
0000
0000
0000
,  // measure 77
1010
0000
0101
0000
,  // measure 78
1001
0000
0110
0000
,  // measure 79
0011
0011
1100
2100
,  // measure 80
0002
0000
0000
3003
,  // measure 81
0001
0010
0001
0000
0011
0000
1100
0000
,  // measure 82
1000
0100
1000
0000
1100
0000
1010
0000
,  // measure 83
0010
0100
0010
0000
0110
0000
1001
0000
,  // measure 84
0001
0100
0001
0000
1000
0100
1000
0000
,  // measure 85
0001
0100
0001
0000
0101
0000
0110
0000
,  // measure 86
0010
1000
0010
0000
1010
0000
0110
0000
,  // measure 87
0100
0001
0100
0000
1001
0000
0110
0000
,  // measure 88
2002
0000
0000
3003
,  // measure 89
0001
0011
0011
0011
,  // measure 90
1100
1100
1100
1100
,  // measure 91
0110
0110
0110
0110
,  // measure 92
1001
1001
1001
1001
,  // measure 93
0001
0100
0010
1000
,  // measure 94
0001
0010
0100
1000
,  // measure 95
0002
0000
0000
0000
,  // measure 96
1003
0000
0000
0000
,  // measure 97
0110
0000
0000
0000
;

//---------------dance-single - ----------------
#NOTES:
     dance-single:
     :
     Hard:
     9:
     0.636851,0.668694,0.421285,0.268090,0.225962,492.000000,55.000000,35.000000,0.000000,0.000000,0.000000,0.636851,0.668694,0.421285,0.268090,0.225962,492.000000,55.000000,35.000000,0.000000,0.000000,0.000000:
// measure 0
0000
0000
0000
0000
,  // measure 1
0000
0000
0000
0000
,  // measure 2
0000
0000
0000
0000
,  // measure 3
0000
0000
0000
0000
,  // measure 4
0000
0000
0000
0000
,  // measure 5
1000
0000
0100
0000
1000
0000
0000
1000
0000
0000
0010
0000
0100
0000
0000
0000
,  // measure 6
0001
0000
0100
0000
0010
0000
0000
0010
0000
0000
0100
0000
0001
0000
0000
0000
,  // measure 7
1000
0000
0100
0000
0010
0000
0000
0100
0000
0000
1000
0000
0001
0000
0000
0000
,  // measure 8
2002
0000
0000
3003
,  // measure 9
0120
0000
0000
0000
,  // measure 10
0230
0000
0302
0000
,  // measure 11
2003
0000
0000
0000
,  // measure 12
3200
0000
0320
0000
,  // measure 13
0031
0010
0001
0010
,  // measure 14
0100
1000
0100
1000
,  // measure 15
0001
0100
0010
0100
0001
1000
0100
1000
,  // measure 16
2002
0000
0000
3003
,  // measure 17
1000
0000
0010
0000
0100
0000
0000
0001
0000
0000
0100
0000
0010
0000
0000
0000
,  // measure 18
1000
0000
0100
0000
0010
0000
0000
0100
0000
0000
1000
0000
0010
0000
0000
0000
,  // measure 19
0100
0000
0001
0000
0010
0000
0000
0001
0000
0000
1000
0000
0100
0000
0000
0000
,  // measure 20
0010
0000
0100
0000
1000
0000
0000
0010
0000
0000
0100
0000
0001
0000
0100
0000
,  // measure 21
0010
0000
1000
0000
0001
0000
0000
0010
0000
0000
0001
0000
0100
0000
0000
0000
,  // measure 22
0010
0000
1000
0000
0100
0000
0000
0010
0000
0000
0100
0000
1000
0000
0000
0000
,  // measure 23
0001
0000
0100
0000
0010
0000
0000
1000
0000
0000
0001
0000
0010
0000
0000
0000
,  // measure 24
0220
0000
0000
0330
,  // measure 25
0100
0000
1000
0000
0010
0000
0000
1000
0000
0000
0001
0000
0100
0000
0000
0000
,  // measure 26
0010
0000
1000
0000
0001
0000
0000
0100
0000
0000
0010
0000
0100
0000
0000
0000
,  // measure 27
0001
0000
1000
0000
0100
0000
0000
0010
0000
0000
0100
0000
1000
0000
0000
0000
,  // measure 28
0010
0000
0100
0000
0001
0000
0000
1000
0000
0000
0100
0000
1000
0000
0000
0000
,  // measure 29
0010
0000
0100
0000
0001
0000
0000
0010
0000
0000
0001
0000
0100
0000
0000
0000
,  // measure 30
0010
0000
1000
0000
0100
0000
0000
0010
0000
0000
0100
0000
1000
0000
0000
0000
,  // measure 31
0010
0100
0001
0100
0010
1000
0001
0010
,  // measure 32
0200
0000
0000
0000
0000
0000
0000
0000
0000
1300
0100
1000
,  // measure 33
0002
0100
0200
0003
,  // measure 34
0010
0010
0020
0300
,  // measure 35
1000
1000
2000
0030
,  // measure 36
0001
0000
0001
0000
0001
0000
3001
1000
,  // measure 37
0020
0100
0100
0100
,  // measure 38
0230
0001
0001
0001
,  // measure 39
0302
1000
1000
1000
,  // measure 40
2003
0100
0002
3003
,  // measure 41
0001
0100
1000
0000
0001
0010
1000
0000
,  // measure 42
0100
0010
1000
0000
0010
0001
0100
0000
,  // measure 43
0010
1000
0100
0000
0001
0100
0010
0000
,  // measure 44
0001
0010
1000
0000
0010
0100
1000
0000
,  // measure 45
0001
0100
0001
0000
0110
0000
1010
0000
,  // measure 46
0110
0101
1001
1100
,  // measure 47
0001
0010
0001
0010
0100
1000
0100
1000
,  // measure 48
0020
0000
0000
0030
,  // measure 49
0100
0000
0001
0000
0100
0000
0010
0000
0100
0000
0001
0100
0000
0000
0010
0000
,  // measure 50
1000
0000
0100
0000
0010
0000
0100
0000
1000
0000
0010
0100
0000
0010
0100
0000
,  // measure 51
0001
0000
1000
0000
0010
0000
1000
0000
0001
0000
1000
0010
0000
0000
1000
0000
,  // measure 52
0010
0000
0100
0000
0001
0000
0100
0000
0010
0000
0000
0110
0000
0000
0100
0000
,  // measure 53
0001
0000
0010
0000
0100
0000
1000
0000
0010
0000
0100
0001
0000
0000
0010
0000
,  // measure 54
0001
0000
0100
0000
0010
0000
0100
0000
0001
0000
1000
0100
0000
1000
0100
0000
,  // measure 55
0010
0000
0100
0000
1000
0000
0010
0000
0100
0000
0001
0010
0000
0000
0100
0000
,  // measure 56
2001
0001
0001
3001
,  // measure 57
0001
0000
0100
0000
0010
0000
0100
0000
0001
0000
0000
0011
0000
0000
0100
0000
,  // measure 58
1000
0000
0010
0000
0100
0000
0001
0000
1000
0000
0100
0010
0000
0100
0010
0000
,  // measure 59
0100
0000
1000
0000
0010
0000
0100
0000
0001
0000
0000
0101
0000
0000
0100
0000
,  // measure 60
0010
0000
1000
0000
0100
0000
1000
0000
0001
0000
0000
1001
0000
0000
1000
0000
,  // measure 61
0010
0000
0100
0000
0001
0000
1000
0000
1100
0000
0000
1100
0000
0000
1000
0000
,  // measure 62
0001
0000
0100
0000
0010
0000
0100
0000
0101
0000
0001
1000
0000
0001
1000
0000
,  // measure 63
1002
0100
1000
0013
,  // measure 64
0220
0000
0000
0330
,  // measure 65
0010
0000
0100
0000
1000
0000
0000
1000
0000
0000
0001
0000
0100
0000
0010
0000
,  // measure 66
0100
0000
0001
0000
0010
0001
0000
0001
0100
0000
0010
0000
1000
0000
0100
0000
,  // measure 67
1000
0000
0010
0000
0100
0000
0000
0001
0000
0000
0100
0000
0010
0000
1000
0000
,  // measure 68
0001
0000
0010
0000
0100
0000
0000
1000
0000
0000
0010
0000
0100
0000
0001
0000
,  // measure 69
0010
0000
0001
0000
0010
0000
0000
0100
0000
0000
1000
0000
0010
0000
0100
0000
,  // measure 70
0001
0000
0010
0000
0001
0100
0000
0100
0001
0000
1000
0000
0100
0000
0010
0000
,  // measure 71
0100
0000
1000
0000
0010
0000
0000
0100
0000
0000
0001
0000
1000
0000
0000
0000
,  // measure 72
2002
0000
3003
0000
,  // measure 73
0110
0000
0000
0000
0100
0000
0000
1000
0000
0000
0010
0000
0100
0000
0000
0000
,  // measure 74
0101
0000
0000
0000
0001
0000
0000
0010
0000
0000
0100
0000
1000
0000
0000
0000
,  // measure 75
1001
0000
0010
0000
0100
0000
0000
0001
0000
0000
0010
0000
0001
0000
0000
0000
,  // measure 76
0011
0000
0100
0000
1000
0000
0000
0010
0000
0000
0100
0000
0001
0000
0000
0000
,  // measure 77
0101
0000
1010
0000
,  // measure 78
1100
0000
0011
0000
,  // measure 79
0110
1001
0110
0002
,  // measure 80
2000
0000
0000
3003
,  // measure 81
0001
0000
0100
0000
0010
0000
0000
1000
0000
0000
0100
0000
1000
0000
0001
0000
,  // measure 82
0100
0000
0010
0000
0100
0001
0000
0100
0001
0000
0010
0000
0100
0000
1000
0000
,  // measure 83
0001
0000
0100
0000
0010
0000
0000
1000
0000
0000
0010
0000
0100
0000
0001
0000
,  // measure 84
1000
0000
0100
0000
0010
0000
0000
0011
0000
0000
0001
0000
0100
0000
0010
0000
,  // measure 85
1000
0000
0100
0000
1100
0000
0000
1001
0000
0000
0001
0000
0100
0000
0010
0000
,  // measure 86
0100
0000
0001
0000
0010
0001
0000
0010
0001
0000
0100
0000
0010
0000
1000
0000
,  // measure 87
0100
0000
1000
0000
1010
0000
0000
0110
0000
0000
0100
0000
0001
0000
1000
0000
,  // measure 88
2002
0000
0000
3003
,  // measure 89
1100
1100
0011
0011
,  // measure 90
0110
0110
1001
1001
,  // measure 91
0101
0101
1010
1010
,  // measure 92
0110
0110
1001
1001
,  // measure 93
0001
0000
0010
0000
0100
1000
0010
0000
,  // measure 94
0100
0000
0001
0000
0010
0100
1000
0000
,  // measure 95
0010
1000
0100
0000
0010
0001
0100
0000
,  // measure 96
0220
0000
0000
0000
0000
0000
0330
0000
0000
0010
1000
0001
,  // measure 97
0100
0000
0000
0000
;
