#TITLE:ra'am;
#SUBTITLE:;
#ARTIST:雷龍;
#TITLETRANSLIT:;
#SUBTITLETRANSLIT:;
#ARTISTTRANSLIT:Rairyu;
#GENRE:;
#CREDIT:;
#BANNER:ra'am-bn.png;
#BACKGROUND:ra'am-bg.png;
#LYRICSPATH:;
#CDTITLE:;
#MUSIC:ra'am.ogg;
#OFFSET:-2.797000;
#SAMPLESTART:13.652276;
#SAMPLELENGTH:12.000000;
#SELECTABLE:YES;
#BPMS:0.000000=222.000000
,35.000000=333.000000
,38.000000=444.000000
,107.000000=222.000000
,123.000000=444.000000
,283.000000=222.000000
,299.000000=444.000000
,331.000000=222.000000
,363.000000=444.000000
,369.000000=222.000000
,370.000000=444.000000
,376.000000=222.000000
,377.000000=444.000000
,378.000000=222.000000
,379.000000=444.000000
,380.000000=222.000000
,381.000000=444.000000
,382.000000=222.000000
,383.500000=444.000000
,385.500000=222.000000
,387.500000=444.000000
,388.500000=222.000000
,389.500000=444.000000
,390.500000=222.000000
,391.500000=444.000000
,392.500000=222.000000
,393.000000=444.000000
,394.000000=222.000000
,395.000000=444.000000
,396.000000=222.000000
,397.000000=444.000000
,398.000000=222.000000
,398.500000=444.000000
,399.500000=222.000000
,400.500000=444.000000
,401.500000=222.000000
,402.500000=444.000000
,403.500000=222.000000
,405.000000=444.000000
,407.000000=222.000000
,425.500000=111.000000
,425.750000=222.000000
,426.250000=111.000000
,426.500000=222.000000
,427.000000=111.000000
,427.250000=555.000000
,428.500000=222.000000
,429.000000=444.000000
,573.000000=222.000000
,577.000000=444.000000
,579.000000=666.000000
,582.000000=888.000000
,586.000000=222.000000
;
#STOPS:31.000000=0.405000,
32.500000=0.405000,
44.000000=0.135000,
105.000000=0.270000
;
#BGCHANGES:;
#KEYSOUNDS:;
#ATTACKS:;

//---------------dance-single - ----------------
#NOTES:
     dance-single:
     :
     Challenge:
     13:
     0.944358,1.000000,0.959435,0.191887,0.105538,569.000000,100.000000,20.000000,8.000000,0.000000,0.000000,0.944358,1.000000,0.959435,0.191887,0.105538,569.000000,100.000000,20.000000,8.000000,0.000000,0.000000:
0000
0000
0000
0000
,
0000
0000
0000
0000
,
0000
0000
0000
0000
,
0000
0000
0000
0000
,
0000
0000
0000
0000
,
1000
0100
0010
0100
1000
0000
0001
0100
0010
0100
0001
0000
2002
0000
3003
0000
,
1000
0010
0100
0010
1000
0000
0001
0010
0100
0010
0001
0000
2002
0000
3003
0000
,
0010
1000
0100
1000
0010
0000
0100
0001
0010
0001
0100
0000
0010
0000
1001
0000
,
1010
0101
0020
0000
0000
0000
0000
0000
,
0000
0000
0030
0000
1000
0001
1000
0001
,
1000
0001
1000
0001
1000
0001
1000
0000
,
0110
1000
0010
0100
,
0001
0100
0010
0000
,
1001
0000
0001
0100
,
0010
1000
0100
0010
,
0001
1000
0001
0010
,
0100
0010
0001
0100
,
0010
0000
0000
0010
,
0100
0000
0101
0000
0000
0000
0001
0100
,
0001
0100
0001
0000
1000
0000
0010
0000
,
1000
0100
0010
0000
,
1001
0000
0100
1000
,
0001
0010
0100
1000
,
0100
0010
0001
1000
,
0010
1000
0100
0010
,
0000
0000
0000
0011
,
1100
1001
0000
0100
,
0100
0100
0100
0011
,
0011
1001
0110
0100
,
0100
0001
0001
0100
,
0100
0000
0000
0000
1000
0001
1000
0001
0010
0000
0000
0000
0001
0000
0000
0000
,
0010
0100
0010
0001
,
1000
0100
1000
0010
,
1000
0001
0010
0100
,
1000
0001
0000
0101
,
0000
1001
0000
0000
0110
0000
1010
0000
,
0000
1001
0000
0000
0110
0000
0010
0100
,
0010
0100
0010
0000
0110
0000
1000
0000
,
0001
1001
0000
1000
,
0000
1000
0000
0000
1000
0000
0001
0000
,
0100
0010
0100
0001
,
0000
0001
0000
0000
0001
0000
1000
0000
,
0100
0010
0100
1000
,
0000
1000
0000
0000
1000
0000
0010
0000
,
0100
0001
0100
0010
,
0000
0010
0000
0000
0010
0000
1000
0000
,
0001
0000
0100
0010
0100
0010
0100
0000
,
0000
0100
0000
0000
0100
0000
0001
0000
,
0100
0010
1000
0100
,
0000
0100
0000
0000
0100
0000
0010
0000
,
0010
0100
0100
1100
,
0000
1010
0000
0000
1001
0000
0101
0000
,
0000
0011
0000
0000
1001
0000
0001
1000
,
0001
1000
0100
0010
,
0010
0000
0100
1000
0001
1000
0100
0000
,
0010
0000
0110
0000
0000
0000
1000
0100
,
1000
0001
0100
0000
0001
0000
0101
0000
,
0000
0000
0110
0000
0000
0000
0010
1000
,
0001
0010
0100
0000
0000
0000
1000
0000
,
0010
0000
1010
0000
0000
0000
0100
0001
,
0100
0010
1000
0000
0000
0000
1100
0000
,
0000
0110
0000
0000
0101
0000
0000
0110
,
0000
0100
0100
1001
,
1000
0000
0100
0000
0000
0000
0010
0100
,
0010
0100
0010
0000
0000
0000
1001
0000
,
0001
0000
0100
0000
0000
0000
0010
0100
,
0010
0100
0010
0000
0000
0000
1001
0000
,
1000
0000
0010
0000
0000
0000
0100
0001
,
0100
0001
0100
0000
0010
0000
1010
0000
,
0000
0100
0000
0000
0011
0000
0100
0000
,
0000
0000
0000
0000
1001
0000
0000
0000
0000
0000
0000
0000
1000
0010
1000
0000
,
0001
0000
0010
0000
0100
1000
0100
1000
0100
0000
0010
0000
0200
0000
1000
0000
,
0000
0000
0001
0000
0000
0000
0010
0000
0010
0000
0310
0000
0001
0100
0001
0000
,
1000
0000
0100
0000
0010
0100
0010
0100
0010
0000
0100
0000
0002
0000
0010
0000
,
0000
1000
0010
0010
0103
0000
1000
0000
,
0010
0100
0001
0010
,
0100
1000
0001
0100
,
0110
0000
0011
0000
,
1100
0000
1100
0000
1100
0000
0001
1000
,
0001
1000
0100
1000
0100
1000
0100
0010
,
0100
0010
0001
0010
0001
0000
0000
0000
,
0110
0000
0000
0000
1001
0000
0010
1000
,
0010
0100
0001
0000
0000
0000
2000
0000
,
0001
0100
3100
0002
,
0100
0100
0013
2000
,
3010
0002
0013
2000
,
0100
0001
3100
0020
,
0100
1000
1030
0200
,
0001
0001
0310
2000
,
3100
0000
0002
0000
0103
0110
0000
0110
,
0000
0000
1001
0000
1001
0000
0000
0010
,
0001
0000
0001
0100
0000
0100
0010
0000
,
0010
0000
1000
0000
0000
1000
0100
0000
0000
0000
0010
0000
1000
0000
0000
0000
,
1000
0100
0000
0100
0010
0000
0010
0001
,
0000
0001
1000
0000
1100
0000
0000
0000
1000
0000
0001
0000
0101
0000
0000
0000
,
0100
0010
0110
0000
0000
0000
0000
1010
,
0000
0101
0000
1100
0000
0000
0000
1010
,
0000
1000
0100
0110
0000
0001
1000
1100
,
0000
0000
0011
0000
0001
1000
1010
0000
,
1000
0010
0110
0000
0000
1001
0000
1000
,
0100
0110
0000
0001
0100
0110
0000
0000
,
0000
1001
0110
1001
,
0000
0000
0000
0000
,
0000
0220
0000
0000
,
0000
0000
0000
0000
,
0000
0000
0000
0000
,
0000
0000
0000
0000
,
0000
0330
1000
0000
0010
0000
0100
0000
,
0001
0100
0010
0100
,
0001
0010
0100
1000
,
0100
0010
0100
1000
,
0001
0100
0001
0010
,
0001
0100
0001
0010
,
0100
1000
0100
0010
,
0100
1000
0100
0001
,
0100
1000
0010
0100
,
0010
1000
0100
0010
,
0100
1000
0001
0100
,
0001
1000
0001
0010
,
0001
0000
1001
0000
0000
0101
0000
0000
,
0011
0000
1001
0000
0000
1100
0000
0000
,
1010
0000
0100
0010
0100
0000
0110
0000
,
1000
0100
0000
0000
0000
0000
MMMM
0000
,
0000
0000
0001
0000
0000
0001
0000
0000
,
0001
1000
1000
0010
,
0100
0000
0001
0000
0000
0001
0000
0000
,
0001
1000
0010
0001
,
0010
0000
1000
0000
0000
1000
0000
0000
,
1000
0001
0001
0010
,
0100
1000
1100
0000
,
1000
1100
1100
1001
,
0000
0000
0001
0000
0000
0001
0000
0000
,
0001
0100
0100
0010
,
1000
0000
0001
0000
0000
0001
0000
0000
,
0001
0010
0100
1000
,
0100
0000
0110
0000
0000
1001
0000
0000
,
0110
0000
1010
0000
0000
0101
0000
0000
,
1010
0000
1100
0000
0000
0011
0000
0000
,
1100
0000
1001
0000
0000
0110
0000
0000
,
1001
0000
1000
0100
1000
0100
1000
0100
,
1000
0100
0010
0100
0010
0100
0010
0100
,
0010
0100
0010
0000
0001
0000
0001
0000
,
0001
0000
0101
0000
0110
0000
1000
0100
,
0010
0001
0202
0000
0000
0000
0000
0000
,
0000
0000
0000
0000
,
0000
0000
0000
0000
,
0000
0303
MMMM
0000
;

//---------------dance-single - ----------------
#NOTES:
     dance-single:
     :
     Hard:
     12:
     0.919687,1.000000,0.412557,0.383774,0.115132,588.000000,43.000000,40.000000,0.000000,0.000000,0.000000,0.919687,1.000000,0.412557,0.383774,0.115132,588.000000,43.000000,40.000000,0.000000,0.000000,0.000000:
0000
0000
0000
0000
,
0000
0000
0000
0000
,
0000
0000
0000
0000
,
0000
0000
0000
0000
,
0000
0000
0000
0000
,
1000
0100
1000
0100
1000
0000
0001
0100
0001
0100
0001
0000
0010
0000
0000
0000
,
0001
0010
0001
0010
0001
0000
1000
0010
1000
0010
1000
0000
0100
0000
0000
0000
,
1000
0001
1000
0001
1000
0000
0010
0100
0010
0100
0010
0000
1000
0000
0001
0000
,
0100
1000
0200
0000
0000
0000
0000
0000
,
0000
0000
0300
0000
0001
1000
0001
1000
,
0001
1000
0001
1000
0001
1000
0001
0000
,
1001
1000
0100
0010
,
0100
1000
0001
0000
,
0010
0000
0001
0100
,
0001
1000
0010
0100
,
0010
1000
0100
0010
,
0001
0100
0010
1000
,
0001
0000
0000
0010
,
0001
0000
1000
0000
0000
0000
0100
1000
,
0100
1000
0100
0000
1000
0000
0001
0000
,
0100
0010
1000
0000
,
0001
0000
0001
0100
,
0010
0100
0001
1000
,
0100
0010
0001
0100
,
1000
0100
0001
0010
,
0000
0000
0000
1010
,
0010
0000
0000
0000
0110
0000
0000
0000
0000
0000
0000
0000
1000
0000
0000
1000
,
0000
0000
1100
0000
0000
0000
0100
0000
0000
0000
0100
0000
0010
0000
0000
0010
,
0000
0000
0010
0000
0100
0000
0100
0000
0110
0000
0000
0000
0001
0000
0000
0001
,
0000
0000
0101
0000
0000
0000
0100
0000
0000
0000
0100
0000
0010
0000
0000
0010
,
0000
0000
0010
0000
1000
0001
1000
0001
0010
0000
0000
0000
0100
0000
0000
0000
,
1000
0100
1000
0001
,
0100
0001
0100
0010
,
1000
0000
0010
0000
1000
0000
0001
0010
,
0001
0010
0001
0000
0100
0000
0001
0000
,
0000
0001
0000
0000
0100
0000
1000
0000
,
0000
1000
0000
0000
0100
0000
0010
0100
,
0010
0000
1000
0000
0001
0010
0001
1000
,
0001
1000
0010
0000
0000
0000
1000
0000
,
0000
0100
0000
0000
1000
0000
0001
0000
,
0001
0100
0100
0010
,
0000
0100
0000
0000
0010
0000
1000
0100
,
1000
0010
1000
0001
,
0000
0100
0000
0000
0001
0000
1000
0000
,
1000
0100
0100
1000
,
0000
0001
0000
0000
1000
0000
0010
0000
,
0100
0000
0010
1000
0010
1000
0001
0000
,
0000
0001
0000
0000
0001
0000
1000
0000
,
0100
0010
0100
1000
,
0000
1000
0000
0000
1000
0000
0001
0100
,
0001
0010
0100
0010
,
0000
0010
0000
0000
0010
0000
0100
0000
,
0000
0100
0000
0000
0100
0000
1000
0100
,
1000
0100
0100
0010
,
0100
0000
1000
0001
1000
0001
0100
0000
,
0000
0000
0110
0000
0000
0000
1000
0010
,
1000
0010
0100
0000
0000
0000
1001
0000
,
0000
0000
0110
0000
0000
0000
0001
0010
,
0001
0010
0100
0000
0000
0000
1000
0000
,
0000
0000
1010
0000
0000
0000
0100
0001
,
0100
0001
0100
0000
0000
0000
0110
0000
,
0000
1010
0000
0000
0110
0000
0000
0101
,
0000
1100
1000
0001
,
0000
0000
0010
0000
0000
0000
0001
0100
,
0001
0100
0001
0000
0000
0000
0010
0000
,
0000
0000
0100
0000
0000
0000
1000
0001
,
1000
0001
1000
0000
0000
0000
0100
0000
,
0000
0000
0010
0000
0000
0000
1000
0100
,
1000
0100
1000
0000
0000
0000
1010
0000
,
0000
0100
0000
0000
0011
0000
0000
0100
,
0000
0000
1001
0000
0000
0000
1000
0001
,
0100
0000
0001
0000
1000
0100
1000
0100
1000
0000
0100
0000
0010
0000
0100
0000
,
1000
0001
0100
0001
0001
0001
0010
0001
,
0100
0000
0001
0000
0010
0100
0010
0100
0010
0000
0001
0000
1000
0000
0100
0000
,
0000
1000
0100
0100
0110
0000
1000
0000
,
0100
0001
1000
0001
,
0100
1000
0001
1000
,
0010
0001
1000
0100
,
1000
0000
1000
0000
1000
0000
0001
0100
,
0001
0100
0010
0100
0010
0100
0010
1000
,
0010
1000
0001
1000
0001
1000
0000
0000
,
1001
0000
1001
0010
,
0100
0110
0000
2000
,
3100
0000
0002
0000
0103
0010
0000
0100
,
0000
0001
1000
0000
0100
1000
0020
0000
,
0130
0000
0002
0000
1003
0100
0000
0010
,
0100
1000
0001
0000
0100
0010
1010
0000
,
0100
0000
1000
0000
0100
0010
0000
0001
,
0000
0010
0001
0000
1000
0010
0110
0000
,
0100
0000
0010
0000
0100
0001
0000
0001
,
0000
0000
0100
0000
0010
0000
0000
1000
,
0010
0000
1000
0010
0000
0100
0001
0000
,
0100
0000
0001
0000
0000
1000
0001
0000
0000
0000
1000
0000
0100
0000
0000
0000
,
1000
0100
0000
1000
0001
0000
1000
0001
,
0000
0100
0001
0000
2020
0000
0000
0000
3030
0000
0000
0000
0022
0000
0000
0000
,
0033
0000
2002
0000
3003
0000
0000
0010
,
0000
1000
0000
2002
0000
0000
3003
2200
,
0000
3300
0000
2020
0000
3030
0000
0202
,
0000
0303
0022
0000
0033
0000
2200
0000
,
3300
0000
2002
0000
3003
2020
0000
3030
,
0000
0202
0000
0303
0000
2200
0000
3300
,
0000
0010
0100
0002
,
0000
0000
0000
0000
,
0003
2002
0000
0000
,
0000
0000
0000
0000
,
0000
0000
0000
0000
,
0000
0000
0000
0000
,
0000
3003
1000
0000
0100
0010
0100
0000
,
1000
0001
0100
0010
,
1000
0000
0001
0000
0010
0100
0010
0000
,
0001
0000
1000
0000
0010
0100
0010
0000
,
1000
0000
0001
0000
1000
0100
1000
0000
,
0010
1000
0010
0100
,
0001
0000
1000
0000
0100
0010
0100
0000
,
1000
0000
0001
0000
0100
0010
0100
0000
,
0001
0000
1000
0000
0010
1000
0010
0000
,
0100
0001
1000
0100
,
0010
0000
0001
0000
1000
0100
1000
0000
,
0010
0000
1000
0000
0001
0100
0001
0000
,
1000
0000
0100
0000
0000
0100
0000
0000
,
0100
0000
0010
0000
0000
0010
0000
0000
,
0010
0000
0100
1000
0100
0000
1000
0000
,
0001
0010
0000
0000
0000
0000
1001
0000
,
0000
0000
1000
0000
0000
1000
0000
0000
,
1000
0000
0001
0100
0001
0000
1000
0000
,
0100
0000
1000
0000
0000
1000
0000
0000
,
1000
0000
0001
0010
0001
0000
1000
0000
,
1000
0000
0001
0000
0000
0001
0000
0000
,
0001
0000
1000
0100
1000
0000
0010
0000
,
0100
0000
0001
0000
0000
0001
0000
0000
,
0001
0000
0100
0000
0100
0000
0010
1000
,
0001
1000
0010
0000
0000
0010
0000
0000
,
0010
0000
1000
0100
1000
0000
0001
0100
,
0001
0000
0010
0000
0000
0010
0000
0000
,
0010
0000
0001
1000
0001
0000
0100
0001
,
0100
0000
1020
0000
0000
1000
0000
0000
,
1030
0000
0201
0000
0000
0001
0000
0000
,
0301
0000
0012
0000
0000
0010
0000
0000
,
0013
0000
2100
0000
0000
0100
0000
0000
,
3100
0000
0001
0100
0001
0100
0001
0100
,
0001
0100
0001
1000
0001
1000
0001
1000
,
0001
1000
0001
0010
0001
0000
1000
0000
,
0001
0000
0010
0000
0001
0000
1000
0100
,
0010
0001
0200
0000
0000
0000
0000
0000
,
0000
0002
0000
0000
,
0000
0000
0000
0000
,
0000
0000
0303
0000
;

//---------------dance-single - ----------------
#NOTES:
     dance-single:
     :
     Medium:
     10:
     0.681199,1.000000,0.057566,0.095944,0.028783,481.000000,6.000000,10.000000,0.000000,0.000000,0.000000,0.681199,1.000000,0.057566,0.095944,0.028783,481.000000,6.000000,10.000000,0.000000,0.000000,0.000000:
0000
0000
0000
0000
,
0000
0000
0000
0000
,
0000
0000
0000
0000
,
0000
0000
0000
0000
,
0000
0000
0000
0000
,
0010
1000
0100
0010
0001
0100
0010
0000
,
1000
0001
0010
0100
1000
0010
0100
0000
,
0001
1000
0100
0010
0001
0100
0010
1000
,
0001
0100
0020
0000
0000
0000
0000
0000
,
0000
0000
0200
0000
,
0000
0000
0000
0000
,
0330
1000
0100
0010
,
0100
1000
0001
0000
,
0010
0000
0010
0001
,
1000
0010
0100
0001
,
1000
0010
1000
0100
,
1000
0010
0100
0001
,
0100
0000
0000
0010
,
1000
0100
0000
2000
,
0000
3010
0100
0001
,
1000
0100
0010
0000
,
0001
0000
0001
0100
,
0010
1000
0001
0010
,
0100
1000
0001
0100
,
0001
1000
0100
0010
,
0000
0000
0000
0001
,
0010
0000
0000
0000
0100
0000
0000
0000
0000
0000
0000
0000
1000
0000
0000
0100
,
0000
0000
1000
0000
0000
0000
0001
0000
0000
0000
0100
0000
0010
0000
0000
1000
,
0000
0000
0010
0000
0100
0000
0000
0001
0000
0000
1000
0000
0001
0000
0000
0100
,
0000
0000
0001
0000
0000
0000
1000
0000
0000
0000
0100
0000
0010
0000
0000
0100
,
0000
0000
0010
0000
0001
0000
0000
1000
0000
0000
0001
0000
1000
0000
0000
0000
,
0000
0100
0000
0000
1000
0000
0000
0000
,
0001
0000
0010
0001
,
0000
0010
0000
0000
0001
0000
1000
0000
,
0000
0100
0000
0000
1000
0000
0010
0000
,
0000
0010
0000
0000
0010
0000
0100
0000
,
0000
0100
0000
0000
0100
0000
0001
0000
,
1000
0001
1000
0100
,
1000
0010
0000
0100
,
0000
0001
0000
0000
0100
0000
0000
0001
,
0000
0010
0001
0100
,
0000
0001
0000
0000
0100
0000
0001
0000
,
1000
0010
1000
0100
,
0000
1000
0000
0000
0100
0000
0000
1000
,
0000
0010
1000
0100
,
0000
1000
0000
0000
0100
0000
0010
0000
,
0001
1000
0010
0100
,
0000
0010
0000
0000
0100
0000
0000
0010
,
0000
1000
0001
0010
,
0000
0100
0000
0000
0010
0000
0001
0000
,
0010
0100
1000
0001
,
0000
0100
0000
0000
0001
0000
1000
0000
,
0000
0100
0000
0000
1000
0000
0001
0000
,
0010
0100
0010
0001
,
0100
0010
1000
0100
,
0000
0010
0000
0001
,
0100
0001
0000
0010
,
0000
0100
0000
1000
,
0010
0100
0000
0001
,
0000
0010
0000
0001
,
0100
0001
0000
0010
,
0000
0001
0000
0000
0010
0000
0000
0001
,
0000
1000
0100
0010
,
0000
0001
0000
0200
,
0000
0310
0000
1000
,
0000
0001
0000
0020
,
0000
0130
0000
1000
,
0000
0001
0000
0020
,
0000
0000
0000
0130
,
0000
1000
0000
0000
0001
0000
0100
0000
,
0000
0110
0000
1000
,
1010
0000
0001
0100
0001
0000
1000
0010
,
1000
0100
1000
0010
0100
0010
1000
0000
,
0011
0000
0100
0010
0100
0000
0010
0100
,
1000
0010
0100
0100
0010
0000
1000
0000
,
0010
0100
0010
1000
,
0001
0010
0001
0100
,
0010
1000
0010
0100
,
0001
0010
0001
1000
,
1000
0010
0010
0100
,
0100
0001
0001
0000
,
1001
0000
1000
0100
,
1000
0010
0000
0100
,
0001
0000
1000
0000
0100
0010
0000
0010
,
0000
0001
1000
0010
,
0100
0000
0010
0000
1000
0100
0000
0100
,
0000
0010
0001
1000
,
0100
0000
0010
0000
0100
1000
0000
1000
,
0000
0001
0100
0010
,
1000
0000
0010
0000
0100
0001
0000
1000
,
0000
0010
0100
0000
,
0001
0000
0000
0001
0000
0000
0100
0000
,
0000
0100
0000
0100
0000
0000
1000
0000
,
0000
1000
0000
0000
0010
0000
0000
0010
,
0000
0010
0001
0000
0100
0001
1000
0000
,
0100
1000
0010
0000
0000
0000
0000
1000
,
0000
0001
0000
0100
0000
0000
0000
0001
,
0000
0010
0001
1000
0000
0010
1000
0100
,
0000
0000
1000
0000
0010
1000
0001
0000
,
0010
0001
0100
0000
0000
0010
0000
1000
,
0100
0010
0000
0001
0100
0010
0000
0000
,
0000
1000
0001
0200
,
0000
0000
0000
0000
,
0000
0020
0000
0000
,
0000
0000
0000
0000
,
0000
0000
0000
0000
,
0000
0000
0000
0000
,
0000
0330
1000
0000
0001
0000
0100
0000
,
0001
1000
0001
0100
,
0001
0010
0100
0010
,
0001
1000
0100
1000
,
0001
0100
0010
0100
,
0001
0100
0010
0100
,
0001
1000
0100
1000
,
0010
0100
0001
0010
,
0001
0100
0001
0100
,
0001
1000
0010
1000
,
0010
1000
0100
1000
,
0100
0010
0001
0010
,
0001
0000
1000
0000
0000
0100
0000
0000
,
1000
0000
0001
0000
0000
0100
0000
0000
,
0001
0000
1000
0100
1000
0000
0001
0000
,
0100
0010
0000
0000
0000
0000
1001
0000
,
0000
1000
0100
1000
,
0100
1000
0100
0010
,
0100
1000
0010
1000
,
0010
1000
0010
0100
,
0001
1000
0100
1000
,
0100
1000
0100
0010
,
0100
1000
0010
1000
,
0001
0010
0010
0100
,
0000
1000
0100
1000
,
0100
0001
0100
0001
,
0100
1000
0010
1000
,
0010
0001
0010
0001
,
0010
0000
1000
0000
0000
0100
0000
0000
,
1000
0000
0001
0000
0000
0100
0000
0000
,
0001
0000
1000
0000
0000
0010
0000
0000
,
1000
0000
0001
0000
0000
0010
0000
0000
,
0001
1000
0100
0001
,
0100
1000
0010
0001
,
0010
1000
0100
0010
,
0100
0000
1000
0000
0010
0000
0100
0001
,
0100
2002
0000
0000
,
0000
0000
0000
0000
,
0000
0000
0000
0000
,
0000
0000
3003
0000
;

//---------------dance-single - ----------------
#NOTES:
     dance-single:
     :
     Easy:
     6:
     0.492053,0.632508,0.095944,0.393368,0.000000,308.000000,10.000000,41.000000,0.000000,0.000000,0.000000,0.492053,0.632508,0.095944,0.393368,0.000000,308.000000,10.000000,41.000000,0.000000,0.000000,0.000000:
// measure 0
0000
0000
0000
0000
,  // measure 1
0000
0000
0000
0000
,  // measure 2
0000
0000
0000
0000
,  // measure 3
0000
0000
0000
0000
,  // measure 4
0000
0000
0000
0000
,  // measure 5
1000
0100
1000
0100
,  // measure 6
0010
0100
0010
0100
,  // measure 7
1000
0000
0001
0000
1000
0000
0010
1000
,  // measure 8
0000
0001
0200
0000
0000
0000
0000
0000
,  // measure 9
0000
0000
0000
0000
,  // measure 10
0000
0000
0000
0000
,  // measure 11
0310
1000
0000
0100
,  // measure 12
0000
1000
0000
0100
,  // measure 13
0000
0001
0000
0100
,  // measure 14
0000
0001
0000
0010
,  // measure 15
0000
0001
0000
0100
,  // measure 16
0000
0010
0000
1000
,  // measure 17
0100
0000
0000
0010
,  // measure 18
0100
0010
0000
0000
,  // measure 19
0000
0001
0000
1000
,  // measure 20
0000
0100
0000
1000
,  // measure 21
0000
0010
0000
0100
,  // measure 22
0000
0001
0000
0100
,  // measure 23
0000
0010
0000
1000
,  // measure 24
0000
0100
0000
0001
,  // measure 25
0000
0000
0000
1000
,  // measure 26
0001
1000
0000
2000
,  // measure 27
0100
0100
3100
0001
,  // measure 28
0100
0010
0100
0002
,  // measure 29
0100
0100
0103
1000
,  // measure 30
0010
0100
0001
1000
,  // measure 31
0000
0100
0000
1000
,  // measure 32
0000
0001
0000
0100
,  // measure 33
0000
0001
0000
1000
,  // measure 34
0000
0001
0000
1001
,  // measure 35
0000
0000
0000
0110
,  // measure 36
0000
0000
0000
1001
,  // measure 37
0000
1000
0001
0200
,  // measure 38
0000
0300
0000
0010
,  // measure 39
0000
1000
0000
0010
,  // measure 40
0000
0100
0000
0010
,  // measure 41
0000
1000
0000
0100
,  // measure 42
1000
0001
0000
0010
,  // measure 43
0000
0001
0000
0010
,  // measure 44
0000
0100
0000
0010
,  // measure 45
0000
0001
0000
1000
,  // measure 46
0010
0200
0300
0001
,  // measure 47
0000
0100
0000
0001
,  // measure 48
0000
0001
0000
1000
,  // measure 49
0000
0100
0000
1000
,  // measure 50
0000
1000
0000
0110
,  // measure 51
0000
0000
0000
1001
,  // measure 52
0000
0000
0000
1000
,  // measure 53
0000
0001
0000
0100
,  // measure 54
0000
0010
0100
0002
,  // measure 55
0000
0013
0000
2000
,  // measure 56
0000
3100
0000
0001
,  // measure 57
0000
0100
0000
1000
,  // measure 58
0000
0100
0000
0002
,  // measure 59
0000
0013
0000
2000
,  // measure 60
0000
3010
0000
0100
,  // measure 61
0000
0000
0010
0000
,  // measure 62
0000
0100
0000
0001
,  // measure 63
0000
0010
0000
0200
,  // measure 64
0000
0300
0000
1000
,  // measure 65
0000
0010
0000
0200
,  // measure 66
0000
0300
0000
0001
,  // measure 67
0000
1000
0000
0200
,  // measure 68
0000
0300
0000
0010
,  // measure 69
0000
0000
0010
0000
,  // measure 70
0000
0110
0000
1000
,  // measure 71
0001
0100
0010
1000
,  // measure 72
0100
1000
0100
0010
,  // measure 73
0001
1000
0010
0100
,  // measure 74
0001
0100
0001
1000
,  // measure 75
0010
1000
0010
1000
,  // measure 76
0010
1000
0010
1000
,  // measure 77
0001
0010
0001
0010
,  // measure 78
0001
0010
0001
0200
,  // measure 79
0000
0320
0000
2030
,  // measure 80
0000
3002
0000
0003
,  // measure 81
0101
0000
0000
0010
,  // measure 82
0000
1100
0000
1000
,  // measure 83
0100
0010
0010
0100
,  // measure 84
1000
0010
0010
0100
,  // measure 85
0001
0010
0010
0001
,  // measure 86
0100
0010
0010
1000
,  // measure 87
0100
0010
0010
0001
,  // measure 88
0100
0010
0010
0100
,  // measure 89
0001
0000
0010
0000
0010
0100
0000
0100
,  // measure 90
0000
0010
0010
0002
,  // measure 91
0000
0000
0000
0000
,  // measure 92
0000
0103
2000
0000
,  // measure 93
0000
0000
0000
0000
,  // measure 94
3100
0002
0003
0020
,  // measure 95
0030
0000
0200
0000
0300
0000
0000
1000
,  // measure 96
0000
0001
0000
1000
0000
0000
0000
0002
,  // measure 97
0000
0003
0000
0200
0000
0300
0000
0020
,  // measure 98
0000
0030
2000
0000
3000
0000
0200
0000
,  // measure 99
0300
0000
0020
0000
0030
0002
0000
0003
,  // measure 100
0000
2000
0000
3000
0000
0020
0000
0030
,  // measure 101
0000
1000
0001
1000
,  // measure 102
0000
0000
0000
0000
,  // measure 103
0000
2002
0000
0000
,  // measure 104
0000
0000
0000
0000
,  // measure 105
0000
0000
0000
0000
,  // measure 106
0000
0000
0000
0000
,  // measure 107
0000
3003
0000
0000
0000
0000
1000
0000
,  // measure 108
0000
0001
0000
0100
,  // measure 109
0000
0010
0000
1000
,  // measure 110
0000
0010
0000
0100
,  // measure 111
0000
0001
0000
1000
,  // measure 112
0000
0100
0000
1000
,  // measure 113
0000
0010
0000
1000
,  // measure 114
0000
0001
0000
0010
,  // measure 115
0000
0100
0000
1000
,  // measure 116
0000
0100
0000
1000
,  // measure 117
0000
0001
0000
0010
,  // measure 118
0000
0001
0000
0100
,  // measure 119
0000
0010
0000
0000
,  // measure 120
0010
0100
0000
0000
,  // measure 121
0100
0010
0000
1000
,  // measure 122
0000
0001
0000
1001
,  // measure 123
0000
1000
0000
1000
,  // measure 124
0000
0100
0000
0010
,  // measure 125
0000
0001
0000
0001
,  // measure 126
0000
0100
0000
0010
,  // measure 127
0000
1000
0000
1000
,  // measure 128
0000
0100
0000
0010
,  // measure 129
0000
0001
0000
0100
,  // measure 130
0000
0001
1000
0001
,  // measure 131
0000
0100
0000
0010
,  // measure 132
0000
0100
0000
0001
,  // measure 133
0000
0010
0000
0100
,  // measure 134
0000
0010
0000
0001
,  // measure 135
0000
0000
2000
0000
0000
3000
0000
0000
,  // measure 136
1000
0000
0002
0000
0000
0003
0000
0000
,  // measure 137
0001
0000
2000
0000
0000
3000
0000
0000
,  // measure 138
1000
0000
0002
0000
0000
0003
0000
0000
,  // measure 139
0001
0200
0000
0320
,  // measure 140
0000
0230
0000
0302
,  // measure 141
0000
1003
0001
1000
,  // measure 142
0001
1000
0010
0100
,  // measure 143
0001
2000
0000
0000
,  // measure 144
0000
0000
0000
0000
,  // measure 145
0000
0000
0000
0000
,  // measure 146
0000
0000
3000
0000
;
