#VERSION:0.81;
#TITLE:Timeless;
#SUBTITLE:;
#ARTIST:PrototypeRaptor;
#TITLETRANSLIT:;
#SUBTITLETRANSLIT:;
#ARTISTTRANSLIT:;
#GENRE:;
#ORIGIN:;
#CREDIT:;
#BANNER:banner.png;
#BACKGROUND:bg.png;
#PREVIEWVID:;
#JACKET:;
#CDIMAGE:;
#DISCIMAGE:;
#LYRICSPATH:;
#CDTITLE:;
#MUSIC:Timeless.ogg;
#OFFSET:-0.023000;
#SAMPLESTART:38.924000;
#SAMPLELENGTH:22.000000;
#SELECTABLE:YES;
#BPMS:0.000=128.000,
209.000=64.000,
212.000=128.000;
#STOPS:80.000=1.406;
#DELAYS:;
#WARPS:;
#TIMESIGNATURES:0.000=4=4;
#TICKCOUNTS:0.000=4;
#COMBOS:0.000=1;
#SPEEDS:0.000=1.000=0.000=0;
#SCROLLS:0.000=1.000;
#FAKES:;
#LABELS:0.000=Song Start;
#BGCHANGES:;
#KEYSOUNDS:;
#ATTACKS:
;

//---------------dance-single - ----------------
#NOTEDATA:;
#CHARTNAME:;
#STEPSTYPE:dance-single;
#DESCRIPTION:;
#CHARTSTYLE:Are you actually looking at this?!;
#DIFFICULTY:Beginner;
#METER:1;
#RADARVALUES:0.154049,0.177234,0.029144,0.000000,0.000000,144.000000,4.000000,0.000000,0.000000,0.000000,0.000000,0.000000,0.000000,0.154049,0.177234,0.029144,0.000000,0.000000,144.000000,4.000000,0.000000,0.000000,0.000000,0.000000,0.000000,0.000000;
#CREDIT:MRace2010;
#NOTES:
0000
0000
0000
0000
,
0000
0000
0000
0000
,
0000
0000
0000
0000
,
0000
0000
0000
0000
,
0010
0000
0000
0100
,
0100
0000
1000
0000
,
0010
0000
0000
0100
,
0100
0000
0001
0000
,
0010
0000
0000
1000
,
1000
0000
0100
0000
,
0010
0000
0000
0001
,
0001
0000
0100
0000
,
0010
0010
0000
1000
,
0000
0010
0000
0100
,
0000
1000
0000
0100
,
0000
1000
0000
0010
,
0000
0100
0000
0001
,
0000
0010
0000
0001
,
0001
0000
1000
0000
,
0010
0000
0100
0000
,
0000
0100
0000
0001
,
0000
1000
0000
0100
,
0000
0010
0000
0010
,
0000
1000
1000
1000
,
0000
0100
0000
0001
,
0000
1000
0000
0001
,
0000
1000
0000
0100
,
0000
0010
0000
1001
,
0000
0100
0000
0100
,
0000
1000
0000
1000
,
0000
0010
0000
0010
,
0000
0001
0000
0001
,
0000
0100
0000
0010
,
0000
1000
0000
0001
,
0000
0110
0000
1001
,
0000
0100
0100
0100
,
0100
0100
0000
1000
,
0000
0010
0000
0010
,
0000
0100
0000
0001
,
0000
0010
0000
0010
,
0000
1000
0000
0100
,
0000
0001
0000
0001
,
0000
1000
0000
0010
,
0000
0001
0000
0001
,
0000
1000
1000
1000
,
1000
1000
0000
0010
,
0000
0001
0001
0001
,
0001
0001
0000
0100
,
0000
0010
0010
0010
,
0010
0010
0000
1000
,
0000
0100
0100
0100
,
0100
0100
0000
0001
,
0000
0010
0000
0000
,
0010
0000
0100
0000
,
0001
0000
0100
0000
,
0010
0000
0100
0000
,
1000
0000
0001
0000
,
0010
0000
0100
0000
,
1000
0000
0100
0000
,
0010
0000
0100
0000
,
0001
0000
1000
0000
,
0010
0000
0100
0100
,
0000
0001
0000
1000
,
0000
0001
0000
0100
,
0000
0010
0000
1000
,
0000
0001
0000
0100
,
0000
0010
0000
1000
,
0000
0010
0000
0100
,
0000
0100
0000
0001
,
0001
0000
1001
0000
;

//---------------dance-single - ----------------
#NOTEDATA:;
#CHARTNAME:;
#STEPSTYPE:dance-single;
#DESCRIPTION:;
#CHARTSTYLE:Pad;
#DIFFICULTY:Easy;
#METER:4;
#RADARVALUES:0.335160,0.329149,0.211296,0.291443,0.000000,253.000000,29.000000,40.000000,0.000000,0.000000,0.000000,0.000000,0.000000,0.335160,0.329149,0.211296,0.291443,0.000000,253.000000,29.000000,40.000000,0.000000,0.000000,0.000000,0.000000,0.000000;
#CREDIT:MRace2010;
#NOTES:
0000
0000
0000
0000
,
0000
0000
0000
0000
,
0000
0000
0000
0000
,
0000
0000
0000
0000
,
0010
1000
0000
0100
,
0010
0001
0000
0100
,
0010
0100
0000
0001
,
0010
0100
0000
1000
,
0001
0100
0000
0010
,
1000
0100
0000
0010
,
0001
1000
0100
1000
,
0001
0100
0001
1001
,
0010
0010
2000
3100
,
0002
0103
2000
3100
,
0010
0010
0200
0301
,
0002
1003
2000
3100
,
0010
0010
2000
3100
,
0002
0103
2000
3100
,
0010
1000
0001
1000
,
0100
0100
0010
1001
,
0010
0210
0301
2001
,
3100
0010
0001
0100
,
0010
2100
3010
0210
,
0301
0010
1000
0100
,
1000
0120
0031
2001
,
3001
0010
1000
0100
,
1000
0210
0301
0021
,
0130
1000
0001
1000
,
1001
1200
1000
0001
,
1300
1000
0100
0010
,
0001
0201
0001
1000
,
0301
1000
0010
1000
,
0100
0021
0001
0100
,
0031
1000
0100
1000
,
0010
0201
0001
0010
,
0301
0010
0100
0001
,
1001
0110
0000
1000
,
0100
0010
0010
0100
,
0010
1001
0000
0001
,
0100
0010
0010
0100
,
0010
1001
0000
1000
,
0001
0100
0100
0010
,
0100
1001
0000
0001
,
1000
0100
0100
0010
,
0100
1001
2100
0010
,
0100
3002
0100
2003
,
3100
1001
0102
0010
,
0100
0023
1000
0032
,
0100
0103
2100
0010
,
0010
3020
0100
0230
,
0301
1001
1000
0001
,
1000
0100
0100
0010
,
0100
2001
0100
0100
,
3020
0130
0001
1000
,
0001
0001
0100
0010
,
0010
1000
0100
0010
,
0100
0100
0001
0001
,
1000
0010
0100
0001
,
0010
0010
0100
1000
,
0010
0010
1000
0100
,
1000
0001
0100
0001
,
1000
1001
0200
1300
,
0002
0103
0010
0010
,
1000
0100
0020
0031
,
2000
3010
0100
0001
,
0010
0010
0200
1300
,
0002
0103
0020
1030
,
0002
0013
0100
0010
,
0100
0010
0001
1000
,
0001
0100
0110
0000
;

//---------------dance-single - ----------------
#NOTEDATA:;
#CHARTNAME:;
#STEPSTYPE:dance-single;
#DESCRIPTION:;
#CHARTSTYLE:Pad;
#DIFFICULTY:Hard;
#METER:8;
#RADARVALUES:0.580805,0.759574,0.459023,0.240441,0.342446,462.000000,63.000000,33.000000,0.000000,0.000000,0.000000,0.000000,0.000000,0.580805,0.759574,0.459023,0.240441,0.342446,462.000000,63.000000,33.000000,0.000000,0.000000,0.000000,0.000000,0.000000;
#CREDIT:MRace2010;
#NOTES:
0000
0000
0000
0000
,
0000
0000
0000
0000
,
0000
0000
0000
0000
,
0000
0000
0000
0000
,
1000
0001
0100
0000
0010
1000
0100
0010
,
0000
0010
0001
0100
0001
1000
0010
0000
,
0001
1000
0100
0000
0001
0010
0001
0100
,
0000
0000
0100
0000
0010
0000
1000
0000
0100
0000
0000
0100
0000
0000
0100
0000
,
1000
0000
0001
0000
0100
0000
0000
0000
1000
0010
1000
0010
1000
0000
0100
0000
,
0000
0100
1000
0010
0100
0000
0001
1000
,
0001
0010
1000
0001
0100
1000
0010
0002
,
0000
0013
1000
0100
0010
0000
1001
0000
,
0101
1000
0100
0000
0010
0001
0100
0020
,
0000
1030
0001
0100
0010
1000
0100
0000
,
1100
0001
0100
0000
0010
1000
0100
0010
,
0000
0000
0100
0000
1000
0000
0010
0000
0001
0000
0000
0010
0000
0000
0100
0000
,
0110
0001
1000
0000
1000
0100
0010
1000
,
0000
1000
0010
0100
2000
0000
3010
0100
,
0001
0010
1000
0001
0100
1000
0010
0002
,
0000
0013
1000
0100
0020
0000
0130
0000
,
1001
1200
0301
1020
,
0031
0000
0000
0000
0010
0000
1000
0100
1000
0100
0000
0010
0000
1000
0000
0010
,
0000
0001
0100
0000
0201
0000
0000
0000
1300
0000
0000
0000
0021
0000
0000
0000
,
1030
0000
0000
0000
0010
0000
0001
0100
0001
0100
0000
1000
0000
0100
0000
0001
,
0000
0010
0100
0000
1020
0000
0000
0000
0130
0000
0000
0000
0021
0000
0000
0000
,
0130
0000
0000
0000
1000
0000
0010
0100
0010
0100
0000
0001
0000
0010
0000
1000
,
0000
0010
0001
0000
0210
0000
0000
0000
1300
0000
0000
0000
1200
0000
0000
0000
,
0301
0000
0000
0000
1001
0000
1000
0100
1000
0010
0000
0100
0000
0001
0000
0010
,
0000
0100
1000
0000
2010
0000
0000
0000
3100
0000
0000
0000
0102
0000
0000
0000
,
0013
0000
0000
0000
0110
0000
0010
0100
0001
0010
0000
1000
0000
0010
0000
0001
,
0000
0100
0010
0000
1100
0000
0010
0000
0101
0000
0000
0000
2100
0000
0000
0000
,
3010
0000
0000
0000
0101
0000
0001
0010
0100
1000
0000
0010
0000
0001
0000
0010
,
0000
1000
0100
0000
0021
0000
0000
0000
0130
0000
0000
0000
1020
0000
0000
0000
,
0130
0000
0000
0000
1001
0000
1000
0001
1000
0100
0000
0001
0000
0100
0000
1000
,
0000
0010
0100
0000
0001
1000
0001
1000
0100
1000
0001
1000
0001
0100
0001
0100
,
0010
0100
0010
1000
0010
1000
0100
1000
0100
0010
0100
0010
0001
0010
0001
0100
,
0001
0100
0010
1000
0200
0000
0000
0000
1300
0000
0010
0000
0001
0000
0010
0000
,
1000
0100
0010
0000
0110
0000
1001
0000
,
0110
0000
0201
0000
0301
0100
1000
0100
,
0001
0010
0100
0000
0110
0000
1001
0000
,
0110
0000
2100
0000
3010
0100
0001
0010
,
0100
0010
0002
0000
1003
0010
0001
0000
,
1001
0000
1200
0000
1300
0100
0001
0100
,
1000
0010
0001
0000
0101
0000
0110
0000
,
1100
0000
1001
0000
2100
0000
0010
0010
,
3001
0101
0011
1100
,
1010
0000
1001
0000
0102
0000
0010
0010
,
1003
1100
1100
0101
,
1100
0000
0110
0000
0012
0000
0100
0100
,
0013
0000
1100
0000
0001
0100
1000
0000
,
1001
0000
0110
0000
0102
0000
1000
1000
,
0013
1100
0020
0031
,
0200
0000
0000
0000
0310
0010
0010
0000
0100
0001
0010
0100
0000
0100
0000
1000
,
0001
1000
0001
1000
0001
1000
0001
0000
0010
0000
0000
0001
0010
0000
0100
0000
,
1000
0000
0000
0010
1000
0000
0010
0000
0100
0000
0000
0001
0100
0000
0010
0000
,
1000
0000
0000
0100
1000
0000
0100
0000
0010
0000
0000
0001
0100
0000
0010
0000
,
0100
0000
0000
0010
1000
0000
0100
0000
0010
0000
0000
0001
0010
0000
0100
0000
,
1000
0000
0000
0010
1000
0000
0010
0000
0001
0000
0000
0010
0100
0000
0001
0000
,
1000
0000
0000
0100
0010
0000
0100
0000
0001
0000
0000
0100
1000
0000
0010
0000
,
0100
0000
0000
0001
0010
0000
0100
0000
1000
0100
1000
0100
0010
0100
0010
0100
,
1000
0000
0010
0000
0100
0000
0001
0000
0010
0000
1000
0000
0010
0001
0010
0001
,
0010
0001
0000
0100
0000
0100
0010
0000
0101
0000
1000
0000
0110
0000
0000
0000
,
0010
0001
0100
0020
0000
1030
0001
0100
,
0010
1000
0100
0000
1100
0001
0110
0000
,
0010
1000
0100
0010
0000
0100
1000
0010
,
0001
0000
0000
0010
0000
0000
0100
0000
0110
0000
0001
0000
1001
0000
0000
0000
,
1000
0100
1000
0100
0010
0000
1000
0000
0000
0000
1000
0000
0010
0000
0100
0000
,
2000
0000
3010
0100
0001
0010
1000
0001
,
0100
1000
0010
0002
0000
0013
1000
0100
,
0020
0130
1001
0000
;

//---------------dance-single - ----------------
#NOTEDATA:;
#CHARTNAME:;
#STEPSTYPE:dance-single;
#DESCRIPTION:;
#CHARTSTYLE:;
#DIFFICULTY:Medium;
#METER:6;
#RADARVALUES:0.478800,0.455744,0.517312,0.524598,0.018215,317.000000,71.000000,72.000000,0.000000,0.000000,0.000000,0.000000,0.000000,0.478800,0.455744,0.517312,0.524598,0.018215,317.000000,71.000000,72.000000,0.000000,0.000000,0.000000,0.000000,0.000000;
#CREDIT:;
#NOTES:
// measure 0
0000
0000
0000
0000
,  // measure 1
0000
0000
0000
0000
,  // measure 2
0000
0000
0000
0000
,  // measure 3
0000
0000
0000
0000
,  // measure 4
0001
1000
0001
0000
2000
0000
3100
0000
,  // measure 5
2000
3010
0200
0301
,  // measure 6
1000
0100
1000
0000
0002
0000
0103
0000
,  // measure 7
0020
1030
0200
0310
,  // measure 8
0001
1000
0001
0000
0200
0000
1300
0000
,  // measure 9
0002
0013
2000
3100
,  // measure 10
0010
0001
0100
0010
1000
0100
0010
0001
,  // measure 11
0000
0001
0100
0010
1000
0000
1001
0000
,  // measure 12
0110
1001
2100
3010
,  // measure 13
0102
0013
1100
0101
,  // measure 14
0010
0100
0010
0000
2100
0000
3001
0000
,  // measure 15
1002
0103
0210
0301
,  // measure 16
1000
0001
1000
0000
2100
0000
3010
0000
,  // measure 17
0102
0013
2100
3001
,  // measure 18
1000
0010
0100
0001
0010
0100
1000
0010
,  // measure 19
0000
0010
0100
0001
0020
0000
0130
0000
,  // measure 20
1001
1200
0310
0201
,  // measure 21
0310
1200
0001
1300
,  // measure 22
1001
0021
0130
1020
,  // measure 23
0130
2001
0100
0100
,  // measure 24
3001
0201
0310
1200
,  // measure 25
0310
0201
1000
0301
,  // measure 26
1001
1020
0130
0021
,  // measure 27
0130
1002
0100
0013
,  // measure 28
0110
2001
3100
1002
,  // measure 29
0103
0120
2030
3200
,  // measure 30
0302
0023
1030
1002
,  // measure 31
0103
0120
0032
0203
,  // measure 32
2300
3020
0130
2001
,  // measure 33
3100
0201
0010
1000
,  // measure 34
0010
0302
0013
2000
,  // measure 35
3010
0101
1100
0110
,  // measure 36
1001
0000
0200
0000
1300
0010
1000
0100
,  // measure 37
1000
0010
0100
0000
0100
0000
0010
0000
,  // measure 38
0100
0000
1001
0000
0010
0001
0100
0001
,  // measure 39
0010
0100
0010
0000
0010
0000
0100
0000
,  // measure 40
0010
0000
1001
0000
0010
1000
0100
1000
,  // measure 41
0010
0100
0001
0000
0010
0100
0010
0000
,  // measure 42
0100
0000
1001
0000
0001
0100
0010
1000
,  // measure 43
0100
0010
0001
0000
1000
0000
0001
0000
,  // measure 44
0110
0000
1001
0000
1000
0100
1000
0010
,  // measure 45
0100
0001
0020
0000
1000
0000
1000
0000
,  // measure 46
0031
0000
0110
0000
1000
0100
0010
1000
,  // measure 47
0010
0100
2000
0000
0010
0000
0001
0000
,  // measure 48
3100
0000
1100
0000
0001
0010
0001
0100
,  // measure 49
0010
1000
0200
0000
0001
0000
0001
0000
,  // measure 50
1300
0000
0110
0000
0010
0001
0100
0001
,  // measure 51
0010
0100
2000
0000
3020
0000
0032
0000
,  // measure 52
0023
0000
0000
0000
1030
0100
1000
0000
0001
0100
0001
0010
0000
0010
0000
0100
,  // measure 53
2000
3001
1100
0101
,  // measure 54
1100
0101
0020
0031
,  // measure 55
0200
1300
0101
0011
,  // measure 56
0101
0110
2000
3010
,  // measure 57
0200
0301
0011
1010
,  // measure 58
0011
1010
0200
1300
,  // measure 59
2000
3010
0101
1100
,  // measure 60
0101
1100
0020
2030
,  // measure 61
3100
0000
0110
0000
0001
1000
0001
0000
,  // measure 62
0020
2030
3200
0001
,  // measure 63
0001
0000
1300
0000
0010
0100
0010
0000
,  // measure 64
2000
3200
0302
0010
,  // measure 65
0010
0000
1003
0000
0010
0100
0001
0000
,  // measure 66
2100
3010
0102
0013
,  // measure 67
1001
0000
1001
0000
1000
0010
0100
0001
,  // measure 68
0010
0100
1000
0010
0000
0010
0100
0001
,  // measure 69
0010
0110
1001
0000
;
