#TITLE:Shark (Fistfight Mix);
#SUBTITLE:;
#ARTIST:Boyinaband + Andrew Huang;
#TITLETRANSLIT:;
#SUBTITLETRANSLIT:;
#ARTISTTRANSLIT:;
#GENRE:;
#CREDIT:;
#BANNER:;
#BACKGROUND:;
#LYRICSPATH:;
#CDTITLE:;
#MUSIC:[Round 2] - Shark (Fistfight Mix).mp3;
#OFFSET:-0.008000;
#SAMPLESTART:36.009483;
#SAMPLELENGTH:14.398201;
#SELECTABLE:YES;
#BPMS:0.000000=133.350006
;
#STOPS:
;
#BGCHANGES:;
#KEYSOUNDS:;
#ATTACKS:;

//---------------dance-single - ----------------
#NOTES:
     dance-single:
     :
     Hard:
     9:
     0.614743,0.566819,0.316185,0.277626,0.327753,481.000000,41.000000,36.000000,0.000000,0.000000,0.000000,0.614743,0.566819,0.316185,0.277626,0.327753,481.000000,41.000000,36.000000,0.000000,0.000000,0.000000:
0000
0000
0000
0000
,
0000
0000
0000
0000
,
0000
0000
0000
0000
,
0000
0000
0000
0000
0000
0000
0000
0010
,
0200
0000
0000
0000
0301
0000
0010
0001
0000
0100
0000
0010
0000
0000
1000
0000
,
0002
0000
0000
0000
0013
0000
0001
0100
0000
0010
0000
1000
0000
0000
0100
0000
,
0020
0000
0000
0000
0130
0000
1000
0010
0000
1000
0000
0001
0000
0000
0010
0000
,
0200
0000
0000
0000
1300
0000
0001
0100
0000
0010
0000
0100
0000
0000
0001
0000
,
0021
0000
0000
0000
0130
0000
1000
0010
0000
0100
0000
0001
0000
0000
0010
0000
,
1200
0000
0000
0000
0310
0000
0001
0100
0000
0010
0000
1000
0000
0000
0001
0000
,
0201
0000
0000
0000
0310
0000
1000
0100
0000
1000
0000
0010
0000
0000
0100
0000
,
0102
0000
0000
0000
1003
0000
0100
0010
0000
0100
0000
1000
0000
0001
0000
0000
,
0201
0000
0310
1000
0001
1000
0100
0010
,
0012
0000
0103
0010
0100
0001
0010
0100
,
0120
0000
0031
0100
1000
0100
0001
1000
,
1200
0000
0310
0001
0010
1000
0010
0100
,
2100
0000
3010
0100
0001
0010
0100
1000
,
2001
0000
3010
0100
0001
0010
0001
0100
,
0201
0000
0310
1000
0001
0010
0100
1000
,
2002
0000
0000
3003
,
2001
0000
0000
0000
3010
0000
0010
0000
0100
0001
0000
1000
0100
1000
0100
1000
,
0001
0000
0100
0000
0010
0100
0000
0001
0010
0000
0000
0010
0001
0000
0100
0000
,
0020
0000
0000
0000
0130
0000
0100
0000
0001
0010
0000
0000
0010
0100
0010
0000
,
0100
0000
1000
0100
1000
0000
0010
0000
0100
0000
0001
0000
0010
0000
0100
0000
,
2100
0000
0000
0000
3001
0000
0001
0000
0100
0010
0100
0010
1000
0001
1000
0001
,
0010
0100
1000
0001
0100
0010
0100
0001
,
0021
0000
0000
0000
0130
0000
0100
0000
1000
0100
0000
0100
1000
0000
0001
0000
,
0010
0000
0001
0100
0001
0000
1000
0000
0100
0000
0001
0000
0100
0000
0010
0000
,
0011
0000
0000
0000
1100
0000
0000
0000
0010
0000
0100
0000
0001
1000
0001
1000
,
0100
0000
0110
0002
0000
0103
0101
0010
,
1000
0000
0100
1000
0000
0001
0100
0000
0010
0000
0010
1000
0010
0000
0100
0000
,
0001
0000
1001
0200
0000
0310
0011
0100
,
1000
0000
0001
0000
0200
0000
0000
0000
0310
0000
1000
0100
1000
0000
0001
0000
,
0010
0000
0011
0100
1000
0001
0101
0200
,
0000
0000
0310
0000
1000
0100
2000
0000
0000
0000
3001
0100
0001
0000
0010
0000
,
0100
0000
2100
0000
0000
3010
0000
0100
0000
0001
1000
0000
0100
1000
0000
0100
,
1000
0010
0100
1000
0100
0001
0010
0000
,
0100
1000
0010
1000
0002
0000
0103
0010
,
0100
1000
0100
0001
1000
0100
0010
0000
,
0001
0010
0100
1000
0020
0000
0130
0001
,
0010
0001
0010
1000
0010
0100
1000
0001
,
0100
0000
0000
0010
0000
0000
1000
0000
0001
0000
0000
0000
0011
0000
0100
0000
,
1000
0010
0100
0001
0100
1000
0100
0001
,
0010
0000
0000
0100
0000
0000
1000
0000
0001
0000
0000
0000
1001
0000
0000
0000
,
0001
0010
1000
0010
0100
1000
0010
0000
,
0100
0001
0010
0100
1100
0000
0011
0001
,
0100
1000
0100
0001
0010
0100
1000
0000
,
0010
0100
0001
1000
1001
0000
0110
0100
,
1000
0010
1000
0001
0010
0100
1000
0000
,
0010
1000
0001
0010
0011
0000
1100
0000
,
1000
0100
0001
0100
0010
0001
1000
0010
,
0100
0000
0000
0001
0000
0000
2000
0000
0000
0000
0000
0000
3000
0000
0000
0000
,
1002
0000
0000
0000
0013
0000
0010
0000
0100
0000
0000
1000
0000
0000
0001
0000
,
0100
0000
0010
0000
1000
0000
0100
0000
0010
0000
0001
0000
1000
0001
1000
0000
,
0110
0000
0000
0010
1000
0000
1000
0000
0001
0000
0001
0000
0010
0000
0010
0000
,
0100
0000
1000
0100
1000
0000
0001
0000
0100
0000
0010
0000
1000
0000
0001
0000
,
0101
0000
0000
0100
0001
0000
0001
0000
0010
0000
0010
0000
0100
0000
0100
0000
,
2000
0000
0000
0000
3001
0000
0000
0001
0100
0000
0000
0100
1000
0000
0000
1000
,
0010
0000
0000
0010
0100
0000
0100
0000
0001
0000
0001
0000
0010
0000
0010
0000
,
0100
0000
1000
0010
1000
0000
0001
0000
0010
0000
0100
0000
1000
0000
0001
0000
,
1001
0000
0000
1000
0001
0000
0001
0000
0100
0000
0100
0000
0010
0000
0010
0000
,
2000
0000
0000
0000
3001
0000
0000
0100
0010
0000
0000
0010
1000
0000
0001
0000
,
0011
0000
0000
0000
0000
0000
0000
0000
0000
0010
0000
0000
0001
0000
0000
0010
0000
0000
0000
0000
0100
0000
0000
0000
1000
0000
0000
0000
0010
0000
0000
0000
0100
0000
0000
0000
0001
0000
0000
0000
0000
0000
1000
0000
0000
0000
0000
0000
,
1001
0000
0010
0100
0010
0000
1000
0000
0001
0000
0010
0000
0100
0000
1000
0000
,
1010
0000
0000
0010
1000
0000
1000
0000
0010
0000
0010
0000
0100
0000
0100
0000
,
0002
0000
0000
0000
0013
0000
0000
0010
1000
0000
0000
1000
0100
0000
0000
0100
,
0001
0000
0000
0001
0100
0000
0100
0000
0010
0000
0010
0000
1000
0000
1000
0000
,
1001
0000
0001
0010
0001
0000
1000
0100
1000
0000
0010
0100
0010
0000
0100
0000
,
2002
0000
0000
0000
,
0000
0000
0000
0000
,
3003
0000
0000
0000
;

//---------------dance-single - ----------------
#NOTES:
     dance-single:
     :
     Medium:
     7:
     0.447286,0.404871,0.593810,0.208219,0.000000,302.000000,77.000000,27.000000,0.000000,0.000000,0.000000,0.447286,0.404871,0.593810,0.208219,0.000000,302.000000,77.000000,27.000000,0.000000,0.000000,0.000000:
// measure 0
0000
0000
0000
0000
,  // measure 1
0000
0000
0000
0000
,  // measure 2
0000
0000
0000
0000
,  // measure 3
0000
0000
0000
0000
,  // measure 4
2001
0000
0100
0000
0100
0000
3100
0010
,  // measure 5
0002
0000
0100
0000
0100
0000
0103
0001
,  // measure 6
0020
0000
1000
0000
1000
0000
1030
0010
,  // measure 7
0200
0000
0010
0000
0010
0000
0310
0001
,  // measure 8
1000
0000
1001
0000
0010
0000
0100
0001
,  // measure 9
1000
0000
1100
0000
1000
0000
0010
0100
,  // measure 10
0001
0000
0101
0000
0001
0000
0010
0001
,  // measure 11
1000
1001
0010
0110
,  // measure 12
0010
0000
1010
0000
0100
0001
1000
0000
,  // measure 13
0100
0000
0011
0000
0100
1000
0010
0000
,  // measure 14
0100
0000
1001
0000
0001
0010
0100
0000
,  // measure 15
1100
0000
0011
0000
0100
1000
0010
0000
,  // measure 16
0100
0000
1001
0000
0001
0010
0100
0000
,  // measure 17
1000
0000
0011
0000
0100
1000
0010
0000
,  // measure 18
0100
0000
1001
0000
0001
0100
0010
0000
,  // measure 19
0220
0000
0000
0330
,  // measure 20
0110
0000
1001
0000
0010
1000
0100
0000
,  // measure 21
0011
0000
1100
0000
1000
0001
0100
0000
,  // measure 22
1010
0000
0110
0000
0100
0001
1000
0000
,  // measure 23
1100
0011
1100
0011
,  // measure 24
0110
0000
1001
0000
0001
0100
0010
0000
,  // measure 25
1010
0000
0101
0000
0001
1000
0100
0000
,  // measure 26
0110
0000
1001
0000
0010
1000
0001
0000
,  // measure 27
0011
1100
0011
1100
,  // measure 28
1001
0000
0110
0000
0010
1000
0100
1000
,  // measure 29
0001
0000
0101
0000
0100
0010
0100
0000
,  // measure 30
0001
0000
0011
0000
0010
0001
1000
0010
,  // measure 31
0100
0000
0101
0010
0000
1000
1001
0000
,  // measure 32
1000
0100
0020
0000
0130
1000
0001
0100
,  // measure 33
0010
0000
0100
0001
0000
0001
1000
0000
,  // measure 34
1100
0000
0011
0000
0100
1000
0010
0000
,  // measure 35
0110
0000
1001
0000
0001
0010
0100
1000
,  // measure 36
0001
0001
0100
0100
,  // measure 37
0010
0010
2000
3001
,  // measure 38
0001
0001
0010
0010
,  // measure 39
0100
0100
0020
0130
,  // measure 40
2000
3020
0230
0302
,  // measure 41
1003
0100
1000
0100
2000
0000
3001
0000
,  // measure 42
0020
0000
0230
0000
0320
0000
0002
0030
,  // measure 43
0103
0010
0100
0010
2000
0000
3001
0000
,  // measure 44
0010
0011
0100
1100
,  // measure 45
0001
0100
0001
0100
0020
0000
0130
0000
,  // measure 46
0001
0101
0010
1010
,  // measure 47
1000
0001
1000
0001
0020
0000
0130
0000
,  // measure 48
1000
0100
0010
0001
,  // measure 49
1000
0001
1000
0001
0100
0000
0010
0000
,  // measure 50
1000
0100
0010
0001
,  // measure 51
2002
0000
0000
3003
,  // measure 52
2001
0000
3001
0100
,  // measure 53
0020
0100
0100
0100
,  // measure 54
0130
0000
0101
0000
0001
1000
0100
0000
,  // measure 55
0011
0110
1100
1001
,  // measure 56
0001
0000
0100
0000
0010
1000
0100
0000
,  // measure 57
0110
0001
1000
0010
,  // measure 58
0100
0000
0101
0000
0010
1000
0001
0000
,  // measure 59
0011
0110
1100
1001
,  // measure 60
0001
0000
0100
0000
0010
0100
0001
0000
,  // measure 61
1000
0000
1100
0000
0100
1000
0010
0000
,  // measure 62
0100
0000
1001
0000
0001
0010
0100
0000
,  // measure 63
1100
0011
1100
0011
,  // measure 64
0100
0000
1100
0000
1000
0001
0100
0000
,  // measure 65
0010
0000
0110
0000
0010
1000
0001
0000
,  // measure 66
0011
0000
1100
0000
0001
0100
0010
0000
,  // measure 67
0110
1001
0011
1100
,  // measure 68
2002
0000
0000
0000
,  // measure 69
0000
0000
0000
0000
,  // measure 70
3003
0000
0000
0000
;

//---------------dance-single - ----------------
#NOTES:
     dance-single:
     :
     Easy:
     5:
     0.365761,0.393303,0.293049,0.401015,0.000000,242.000000,38.000000,52.000000,0.000000,0.000000,0.000000,0.365761,0.393303,0.293049,0.401015,0.000000,242.000000,38.000000,52.000000,0.000000,0.000000,0.000000:
// measure 0
0000
0000
0000
0000
,  // measure 1
0000
0000
0000
0000
,  // measure 2
0000
0000
0000
0000
,  // measure 3
0000
0000
0000
0000
,  // measure 4
1000
1000
0001
0001
,  // measure 5
1000
1000
0001
0001
,  // measure 6
0100
0100
0010
0010
,  // measure 7
0100
0100
0010
0010
,  // measure 8
1000
0010
0100
0001
,  // measure 9
0010
0100
1000
0001
,  // measure 10
0100
0010
1000
0001
,  // measure 11
0010
0100
0100
0100
,  // measure 12
0010
0110
0100
0110
,  // measure 13
0001
1001
1000
1001
,  // measure 14
0010
0110
0100
1001
,  // measure 15
0100
0110
0001
1001
,  // measure 16
0010
0100
0001
1000
,  // measure 17
0100
0010
0001
1000
,  // measure 18
0010
0001
0100
1000
,  // measure 19
0020
0000
0000
0000
,  // measure 20
0230
0301
2000
3100
,  // measure 21
0010
0100
1000
0001
,  // measure 22
0200
0310
2000
3001
,  // measure 23
0011
0011
1100
1100
,  // measure 24
2000
3010
0200
0301
,  // measure 25
0101
0101
1010
1010
,  // measure 26
0020
0130
0002
1003
,  // measure 27
1001
1001
0110
0110
,  // measure 28
0020
0130
2000
3001
,  // measure 29
0200
0310
2000
3100
,  // measure 30
0010
0001
1000
0010
,  // measure 31
0200
0000
0300
0002
0000
0003
0100
0000
,  // measure 32
0010
1000
0001
0010
,  // measure 33
0200
0000
0300
2000
0000
3000
0001
0000
,  // measure 34
0100
0110
0010
1000
,  // measure 35
0001
0010
0100
1000
,  // measure 36
2001
0001
0001
3001
,  // measure 37
0100
0010
1000
0100
,  // measure 38
0020
0100
0100
0130
,  // measure 39
1000
0010
0100
0001
,  // measure 40
0200
0001
0001
0301
,  // measure 41
0001
0100
0010
1000
,  // measure 42
0002
1000
1000
1000
,  // measure 43
1003
0001
2002
3003
,  // measure 44
0001
0010
0100
1000
,  // measure 45
0020
0100
0130
0000
,  // measure 46
0001
0010
0100
1000
,  // measure 47
0002
1000
1003
0000
,  // measure 48
0001
0010
0100
1000
,  // measure 49
0200
0010
0310
0000
,  // measure 50
0010
0001
0100
0010
,  // measure 51
2000
0000
3000
0000
,  // measure 52
0002
0000
0103
0000
,  // measure 53
0020
0000
1030
1000
,  // measure 54
2000
3010
0200
0301
,  // measure 55
1001
1001
0110
0110
,  // measure 56
0200
1300
0020
0230
,  // measure 57
0301
0010
0100
1000
,  // measure 58
2000
3100
0020
0031
,  // measure 59
0011
0011
1100
1100
,  // measure 60
0020
0230
0302
2003
,  // measure 61
3100
0010
0001
0100
,  // measure 62
0002
0023
0230
2300
,  // measure 63
3010
0110
1001
0110
,  // measure 64
0002
0023
0230
2300
,  // measure 65
3001
0010
0001
0100
,  // measure 66
0020
2030
3002
0203
,  // measure 67
0310
0110
1001
0110
,  // measure 68
1001
0000
0000
0000
;
