#TITLE:オタサー☆レボリューション;
#SUBTITLE:;
#ARTIST:ARM(IOSYS) feat. miko & キム;
#TITLETRANSLIT:Otasa Revolution;
#SUBTITLETRANSLIT:;
#ARTISTTRANSLIT:ARM(IOSYS) feat. miko & quim;
#CREDIT:;
#BANNER:HTFDisco-bn.png;
#BACKGROUND:TurntableSpace-bg.png;
#LYRICSPATH:;
#CDTITLE:;
#MUSIC:[ROUND 2] - Otasa Revolution.mp3;
#OFFSET:-0.533;
#SAMPLESTART:67.960;
#SAMPLELENGTH:12.055;
#SELECTABLE:YES;
#BPMS:0.000=185.000;
#STOPS:;
#BGCHANGES:;

//---------------dance-single - ----------------
#NOTES:
     dance-single:
     :
     Hard:
     10:
     0.768,1.000,0.591,0.214,0.339: // measure 1
0000
0000
0000
0000
,  // measure 2
0000
0000
0000
0000
,  // measure 3
0000
0000
0000
0000
,  // measure 4
0000
0000
0000
0000
,  // measure 5
0000
0000
0000
0000
0000
0100
0001
0100
,  // measure 6
1001
0000
0000
0000
,  // measure 7
0000
0000
0000
0000
0000
0001
0010
0001
,  // measure 8
0011
0000
1100
0000
,  // measure 9
0100
0000
0010
0000
0001
0000
0100
0000
0001
0100
0001
0100
0001
0010
0001
0010
,  // measure 10
0001
0100
0001
0100
0001
0000
1000
0100
1000
0100
1000
0000
0100
0000
0010
0000
,  // measure 11
0001
0000
0100
0000
0010
0000
0100
0000
0001
1000
0001
0000
0100
0000
0001
0000
,  // measure 12
0010
0001
0010
0001
0010
0000
0100
0010
0100
0010
0100
0000
1000
0000
0100
0000
,  // measure 13
1000
0000
0100
0010
0001
0000
0100
0000
0010
0000
1000
0010
0100
0000
0010
0000
,  // measure 14
1000
0010
1000
0010
1000
0000
0001
0010
0001
0010
0001
0000
1000
0000
0100
0000
,  // measure 15
1000
0000
0010
0000
1000
0000
0010
0000
1000
0010
1000
0010
0100
0001
0100
0001
,  // measure 16
0100
0001
1000
0000
0011
1000
0000
0101
,  // measure 17
0000
0010
1000
0010
1001
0000
0000
0100
,  // measure 18
0001
0100
0000
0100
0001
0001
0010
0001
,  // measure 19
0010
0001
0100
0010
1000
1000
0100
1000
,  // measure 20
0001
0001
0010
0001
0100
0010
0000
0010
,  // measure 21
0100
0001
0001
1000
0001
0100
0001
1000
,  // measure 22
0010
0100
0010
1000
0010
0010
0000
1000
,  // measure 23
0100
1000
0000
0110
0000
0001
0010
0000
,  // measure 24
1000
0100
0000
0100
0010
0000
0100
1000
,  // measure 25
0001
0000
0100
0000
0010
0000
0100
0000
0001
0000
1000
0000
0100
0000
1000
0100
,  // measure 26
1000
0000
0010
1000
0010
0000
1000
0001
1000
0001
1000
0000
0100
0000
1000
0100
,  // measure 27
1000
0000
0001
0010
0001
0000
1000
0100
1000
0100
1000
0000
0001
0000
0010
0000
,  // measure 28
0001
0000
0000
1100
0000
0000
0010
0000
1000
0000
0000
0101
0000
0000
0010
0000
,  // measure 29
1000
0010
0000
0100
0000
0010
0100
0000
0002
0000
0000
0000
1003
0000
0010
0000
,  // measure 30
0100
0000
0001
0000
0100
0000
0010
1000
0010
1000
0010
1000
0000
0000
0001
1000
,  // measure 31
0001
0000
0000
0000
1000
0100
1000
0100
1000
0001
1000
0001
0200
0000
0300
0000
,  // measure 32
0022
0033
2002
3003
0202
0303
2020
3030
,  // measure 33
0001
0000
0000
0000
1000
0000
0000
0001
0000
0000
0100
0000
0110
0000
0000
0000
,  // measure 34
0001
0001
0100
0010
0101
0000
1001
0000
,  // measure 35
1000
0010
1000
0100
0011
0000
1001
0000
,  // measure 36
1100
0000
0000
0001
0100
0000
0000
0000
,  // measure 37
0010
1000
0100
1000
,  // measure 38
0001
0010
0001
1000
1100
0000
1001
0000
,  // measure 39
0000
0001
0100
0010
1010
0000
0110
0000
,  // measure 40
0000
0001
1000
0001
0010
0000
1000
0100
,  // measure 41
1000
0010
1000
0100
0020
0000
0030
0000
,  // measure 42
1000
0000
0000
1100
0000
0000
1001
0000
,  // measure 43
0001
0000
0000
1100
0000
0000
0011
0000
,  // measure 44
0001
0000
0000
0110
0000
0000
1100
0000
,  // measure 45
0001
0000
0000
1010
0000
0000
1001
0000
,  // measure 46
1100
0110
0011
0110
,  // measure 47
1100
1001
1010
0101
,  // measure 48
1000
0001
1000
0010
0100
0001
0100
0010
,  // measure 49
1000
0100
1000
0001
0100
0001
1000
0001
1000
0001
0100
0001
,  // measure 50
2000
0001
0010
0001
,  // measure 51
0100
0010
0002
3003
,  // measure 52
1000
0000
0001
0010
0001
0000
1000
0000
0100
0000
0000
0000
1001
0000
0000
0000
,  // measure 53
1000
0010
1000
0001
0010
0001
0010
0001
,  // measure 54
1000
0000
0000
0001
0010
0000
0100
0000
1000
0000
0000
0000
0001
0000
0100
0000
,  // measure 55
0010
0000
0000
1000
0001
1000
0010
0100
,  // measure 56
0001
0010
0001
1000
0200
0000
0300
0000
,  // measure 57
1001
0000
1000
0100
0010
0000
0011
1000
,  // measure 58
0000
0001
0010
0100
1000
0000
0001
0100
,  // measure 59
0110
0000
0001
0100
0110
0000
1000
0100
,  // measure 60
1000
0000
0000
0000
0101
0000
0000
0000
0110
0000
0000
0100
0001
0000
1000
0000
,  // measure 61
0010
1000
0010
0100
0001
1000
0001
1000
,  // measure 62
0001
0000
0000
0100
0010
0000
1000
0000
0001
0000
0000
0000
1000
0000
0100
0000
,  // measure 63
1000
0000
1100
0010
0001
1000
0001
0010
,  // measure 64
0100
1000
0100
1000
2002
0000
3003
0000
,  // measure 65
1100
0000
0010
0001
1000
0000
0001
0101
,  // measure 66
0000
1000
0010
0100
0001
0000
0001
1000
,  // measure 67
1001
0000
0100
0010
0110
0000
0100
0001
,  // measure 68
0101
1010
2002
3003
,  // measure 69
1020
0100
1000
0130
,  // measure 70
2001
0010
0001
3100
,  // measure 71
0011
1000
0000
0000
1010
0001
0000
0000
,  // measure 72
0110
0011
1100
1001
,  // measure 73
0220
0000
0000
0000
0330
0000
0000
0000
1000
0000
0010
0100
0001
0000
1000
0000
,  // measure 74
0001
0001
1000
0100
1000
0010
1000
0010
,  // measure 75
1000
0001
1000
0001
1000
0000
0001
0010
0001
0010
0001
0000
1000
0000
0001
0000
,  // measure 76
1000
0000
0001
0010
0001
0000
1000
0000
0001
1000
0001
0000
1000
0000
0010
0000
,  // measure 77
1000
0010
1000
0010
1000
0000
0001
0010
0001
0010
0001
0000
1000
0000
0100
0000
,  // measure 78
1000
0000
0001
0010
0001
0000
1000
0000
0001
0000
0100
0010
0100
0000
0001
0000
,  // measure 79
1000
0010
1000
0010
1000
0000
0001
0100
0001
0100
0001
0000
1000
0000
0100
0000
,  // measure 80
1000
0000
0001
0000
0010
0000
0001
0000
0100
0001
0100
0001
1000
0010
1000
0010
,  // measure 81
1000
0010
1000
1000
0001
0010
0000
0011
,  // measure 82
0000
1000
0010
0100
0102
0000
1000
0000
,  // measure 83
0100
0000
0000
0000
1003
0000
0000
0000
0011
0000
0000
0010
0100
0000
2200
0000
,  // measure 84
0000
0000
0000
0000
,  // measure 85
0000
0000
0000
0000
,  // measure 86
3300
0000
0000
0000
,  // measure 87
0000
0000
0000
0000
,  // measure 88
0110
0000
0000
0000
;

//---------------dance-single - ----------------
#NOTES:
     dance-single:
     :
     Easy:
     4:
     0.310,0.410,0.206,0.086,0.009:
0000
0000
0000
0000
,
0000
0000
0000
0000
,
0000
0000
0000
0000
,
0000
0000
0000
0000
,
0000
0000
0000
0000
,
0010
0000
0000
0000
,
0000
0000
0000
0000
,
0010
0000
0010
0000
,
0100
0100
0001
1000
,
0001
0000
0000
0100
0000
0000
0001
0000
,
1000
1000
0001
0000
,
1000
0000
0000
0001
0000
0000
1000
0000
,
0001
0100
0001
0000
,
0010
0000
0000
1000
0000
0000
0010
0000
,
1000
1000
0010
0010
,
1001
0000
0000
0000
1000
0000
0000
0100
,
0000
1000
0100
0000
,
1000
0000
0001
0001
,
0100
0001
0001
0000
,
0010
0010
1000
0000
,
0001
0000
0100
0100
,
0001
0001
0001
0000
,
0100
0000
0000
0001
0000
0000
0100
0000
,
0001
0001
1000
0000
,
1001
0110
0000
0000
,
1000
1000
1000
0100
,
0010
0010
0010
0001
,
1000
0000
0000
0100
0000
0000
1000
0000
0001
0000
0000
0100
0000
0000
0001
0000
,
1000
1000
1001
0000
,
1000
1000
0100
1000
,
0010
0010
0100
0001
,
1000
0001
1001
0000
,
0220
0000
0000
0330
,
1000
0001
1001
1000
,
0001
0010
0110
0100
,
0010
0000
1000
0000
,
0001
0001
1000
0010
,
0100
0000
0110
0110
,
0001
0000
1001
1001
,
1000
0000
1000
0000
,
0100
1000
0020
0030
,
1001
0000
0000
0000
,
1000
0000
0000
0000
,
0100
0000
0000
0000
,
1000
0000
0000
0000
,
0001
0000
1000
0000
,
0001
0000
0010
0000
,
0001
0010
0001
0100
,
0001
1000
0010
1000
,
0002
0000
0000
0000
,
0000
0000
0000
0000
,
0003
0000
0000
0000
,
1000
0000
1000
1000
,
0100
0010
0001
0010
,
0001
0000
1000
0100
,
1000
1000
0100
0000
,
1000
0000
0000
0000
1001
0000
0000
0001
,
0000
0001
1001
0000
,
1000
0000
1000
0000
,
0100
1000
0200
0300
,
0001
0000
0001
0001
,
1000
0001
0100
0001
,
0100
0000
0001
1000
,
0001
0001
1001
0000
,
1000
0000
0000
0000
0110
0000
0000
0001
,
0000
0001
0110
0000
,
1001
0000
1001
0000
,
0100
0010
0001
0000
,
0002
0000
1000
1003
,
0120
0000
0100
0130
,
1001
0000
0110
0000
,
1000
1000
0100
1000
,
0220
0000
0330
0000
,
0001
0001
0100
0100
,
0001
0000
0000
1000
0000
0000
0001
0000
,
1000
1000
0001
0000
,
0010
0000
0000
0100
0000
0000
0010
0000
,
1000
1000
0010
0000
,
0001
0010
0001
0010
,
0001
1000
0001
1000
,
0010
0000
0000
0000
0010
0000
0000
0100
,
0000
0001
1000
1000
,
1000
1000
1000
0002
,
0000
0000
0000
0000
,
0000
0000
0000
0000
,
0003
0000
0000
0000
,
0000
0000
0000
0000
,
1000
0000
0000
0000
;

//---------------dance-single - ----------------
#NOTES:
     dance-single:
     :
     Beginner:
     2:
     0.182,0.261,0.146,0.000,0.000:
0000
0000
0000
0000
,
0000
0000
0000
0000
,
0000
0000
0000
0000
,
0000
0000
0000
0000
,
0000
0000
0000
0000
,
1000
0000
0000
0000
,
0000
0000
0000
0000
,
1000
0000
0001
0000
,
1000
0000
0000
0000
,
0010
0000
0000
0000
,
0010
0000
0100
0000
,
0010
0000
0000
0000
,
0001
0000
0100
0000
,
0001
0000
0000
0000
,
1000
0000
0010
0000
,
1000
0000
1000
0000
,
0001
0000
1001
0000
,
1000
0000
0000
0000
,
0100
0000
0010
0000
,
0100
0000
0001
0000
,
0001
0000
0000
0000
,
1000
0000
1000
0000
,
0100
0000
1000
0000
,
0001
0000
0001
0000
,
0010
0000
0000
0000
,
1001
0000
1000
0000
,
0010
0000
0001
0000
,
0010
0000
0010
0000
,
0001
0000
1001
0000
,
1000
0000
1000
0000
,
0001
0000
0001
0000
,
1000
0000
0000
0000
,
0100
0000
1001
0000
,
0001
0000
1001
0000
,
0010
0000
0110
0000
,
0001
0000
1000
0000
,
0001
0000
1000
0000
,
0100
0000
0010
0000
,
0100
0000
0010
0000
,
0001
0000
1000
0000
,
1000
0000
1001
0000
,
1000
0000
0000
0000
,
0100
0000
0000
0000
,
1000
0000
0000
0000
,
0001
0000
0000
0000
,
1000
0000
1000
0000
,
0001
0000
0001
0000
,
1000
0000
0001
0000
,
0010
0000
0010
0000
,
1001
0000
0000
0000
,
0000
0000
0000
0000
,
0000
0000
0000
0000
,
1000
0000
1000
0000
,
1001
0000
0010
0000
,
0001
0000
0100
0000
,
0001
0000
1001
0000
,
1000
0000
0100
0000
,
1000
0000
1000
0000
,
0001
0000
0100
0000
,
0001
0000
1001
0000
,
1000
0000
0001
0000
,
1000
0000
1001
0000
,
0010
0000
0010
0000
,
0100
0000
0001
0000
,
1001
0000
0100
0000
,
1001
0000
0010
0000
,
0001
0000
1000
0000
,
0001
0000
0100
0000
,
1001
0000
0000
0000
,
0110
0000
0000
0000
,
1000
0000
1000
0000
,
0001
0000
0010
0000
,
0001
0000
0000
0000
,
1000
0000
0100
0000
,
1000
0000
0000
0000
,
1000
0000
0100
0000
,
1000
0000
0000
0000
,
0001
0000
0010
0000
,
1000
0000
0000
0000
,
1000
0000
0001
0000
,
1001
0000
0100
0000
,
0010
0000
0001
0000
,
0001
0000
0001
0000
,
1000
0000
0000
0000
,
0000
0000
0000
0000
,
0000
0000
0000
0000
,
0000
0000
0000
0000
,
0010
0000
0000
0000
;

//---------------dance-single - ----------------
#NOTES:
     dance-single:
     :
     Medium:
     7:
     0.514,0.597,0.411,0.223,0.026:
0000
0000
0000
0000
,
0000
0000
0000
0000
,
0000
0000
0000
0000
,
0000
0000
0000
0000
,
0000
0000
0000
1000
,
0012
0000
0000
0000
,
0000
0000
0000
0000
0000
0103
0001
0000
,
0101
0000
1001
0000
,
1000
0000
1000
0000
0001
0100
0001
0100
,
0001
0000
0001
0100
0000
0100
0010
0000
,
1000
0100
1000
0100
1000
0000
1001
0000
,
0010
0000
0010
0001
0000
0001
0100
0000
,
0001
0100
0001
0100
0001
0000
1010
0000
,
1000
0000
1000
0100
0000
0100
0010
0000
,
0001
1000
0001
1000
0001
0000
0110
0000
,
0001
0000
0101
0000
0010
1000
0000
1000
,
0000
1000
0100
0000
2002
0000
3003
0000
,
1000
0000
1001
0000
0001
0000
0100
0100
,
0001
0000
0100
0000
0001
0001
1001
0000
,
0010
0000
0101
0000
0001
0010
0000
0000
,
0100
0001
2002
3003
,
1000
0000
0110
0000
0001
0010
0000
0010
,
0001
1000
0000
0100
0000
0010
0001
0000
,
1000
0000
0100
0000
0001
0000
0100
0010
,
1000
0100
1000
0100
1000
0000
1001
0000
,
0001
0100
0001
0000
1000
0000
0110
0000
,
1000
0010
1000
0000
0001
0000
0101
0000
,
1000
0000
0110
0000
0001
0010
0001
0000
,
1000
0000
0000
0100
0000
0000
1000
0000
0011
0000
0000
0000
1001
0000
0000
0000
,
0001
0010
0001
0000
1000
0000
1001
0000
,
0100
0001
0100
0000
0001
0000
0011
0000
,
1000
0001
1000
0001
,
0100
0000
0000
0000
0001
0000
0000
0100
0000
0000
0002
0000
1003
0000
0000
0000
,
0001
0000
1000
1000
0100
0000
0110
0000
,
0001
0000
0100
0100
0001
0000
1001
0000
,
0010
0000
0000
1000
1000
0000
0000
0000
,
0001
0001
1000
0100
,
1000
0100
0110
0011
,
0001
0100
1010
1001
,
0100
0001
0100
0010
,
1000
0000
0001
1000
0020
0000
0030
0000
,
2000
0000
0000
3001
,
0200
0000
0000
0310
,
0002
0000
0000
0103
,
0020
0000
0000
1030
,
0100
0001
0100
0010
,
0100
0001
1000
0100
,
1000
0010
1000
0010
0100
0001
0100
0001
,
0100
0000
0100
0001
0000
0001
0010
0000
0010
0001
0000
0001
,
2000
0000
0000
0000
,
3000
0000
0000
0000
,
1000
0000
0100
1000
0001
0000
1001
0000
,
0001
0000
0001
0010
0001
0010
0001
0000
,
1000
0000
0001
0010
0001
0000
1000
0000
,
0020
0000
1030
0000
0001
0000
0100
0001
,
0100
0010
2000
3001
,
0100
0000
0001
0000
1000
0000
1000
0001
,
0000
0001
0010
1001
,
1000
1100
0010
0011
,
1000
0100
2000
3001
,
1000
0000
0100
1000
0100
1000
0100
0000
,
1000
0000
0010
1000
0010
0000
1001
0000
,
0002
0000
0013
0000
0100
0000
1000
0100
,
1000
0001
0200
0310
,
1000
0000
0110
0000
0001
0000
0001
0100
,
0000
0100
0001
1001
,
1000
1010
0100
0011
,
1000
0100
2002
3003
,
0102
0000
1000
1003
,
2010
0000
0001
3001
,
0100
0001
0000
0000
0100
0001
0000
0000
,
0100
0001
0010
0001
,
2002
3003
1000
0110
,
1000
0000
0100
1000
0001
1000
0001
1000
,
1001
0000
0001
0010
0000
0010
0001
0000
,
1000
0100
1000
0100
1000
0000
0110
0000
,
0010
0000
0010
0001
0000
0001
1000
0000
,
0100
0010
0100
0010
0100
0000
1001
0000
,
0001
0000
0001
0100
0000
0100
0010
0000
,
0010
1000
0010
1000
0001
0100
0001
0100
,
0001
0000
0001
0000
1010
1000
0000
1000
,
0000
0001
0010
0000
2010
0000
0001
0000
,
0010
0000
0001
0000
3010
0000
0001
0220
,
0000
0000
0000
0000
,
0000
0000
0000
0000
,
0330
0000
0000
0000
,
0000
0000
0000
0000
,
1010
0000
0000
0000
;
