#TITLE:Lacrimosa;
#SUBTITLE:;
#ARTIST:Kalafina;
#TITLETRANSLIT:;
#SUBTITLETRANSLIT:;
#ARTISTTRANSLIT:;
#GENRE:;
#CREDIT:;
#BANNER:;
#BACKGROUND:Lacrimosa-BG.png;
#LYRICSPATH:;
#CDTITLE:;
#MUSIC:Lacrimosa.ogg;
#OFFSET:-1.840000;
#SAMPLESTART:49.929001;
#SAMPLELENGTH:15.000000;
#SELECTABLE:YES;
#BPMS:0.000000=192.000000
;
#STOPS:
;
#BGCHANGES:;
#KEYSOUNDS:;
#ATTACKS:;

//---------------dance-single - ----------------
#NOTES:
     dance-single:
     :
     Hard:
     8:
     0.533658,0.566098,0.537313,0.724947,0.000000,290.000000,63.000000,85.000000,0.000000,0.000000,0.000000,0.533658,0.566098,0.537313,0.724947,0.000000,290.000000,63.000000,85.000000,0.000000,0.000000,0.000000:
0000
0000
0000
0000
,
0000
0000
0000
0000
,
0000
0000
0000
0000
,
0000
0000
0000
0000
,
0000
0000
0000
0000
,
0000
0000
0000
0000
,
1002
0000
0010
0010
,
0000
1000
2003
0000
,
0010
0010
0000
0001
,
3001
0000
0010
0100
0000
0010
0100
0000
,
1000
0000
1000
0000
1001
0000
0001
0100
,
0000
0100
0010
0000
1000
0000
1000
0000
,
1001
0000
1000
0100
0000
0100
0010
0000
,
0001
0100
1000
0100
0001
0000
0000
0000
,
1002
0000
2003
0000
3200
0000
0000
0001
,
0001
0000
2300
0000
0000
0010
3010
0000
,
1010
0100
0102
2003
,
0000
0100
0100
0000
3002
0000
0010
0000
,
0203
0000
0310
1000
0000
1000
0001
0000
,
1000
0100
0001
0100
1000
0000
0000
0000
,
2001
0000
3002
0000
0203
0000
0000
1000
,
1000
0000
0302
0000
0000
0010
0013
0000
,
0011
0000
0001
1000
2100
0000
3002
0000
,
0100
2000
0003
0010
,
3200
0000
0310
0001
0000
0001
1000
0000
,
1010
0000
0010
0000
0110
0000
0010
1000
,
0000
1000
0001
0000
0011
0000
0010
0000
,
0120
0000
0031
0102
,
2003
3010
0120
0000
,
1030
2100
3002
0013
,
0210
0000
2300
0010
,
3002
0100
2003
0000
,
3001
1001
1010
0010
,
0120
0000
1030
2100
,
3002
0013
0120
0000
,
0031
0102
2003
3010
,
0210
0000
0302
0010
,
0000
1000
2003
0000
3100
0010
0000
0100
,
0010
0001
0011
0001
,
0102
0000
0010
0203
,
0000
0000
1000
0000
0320
0000
0000
1030
,
0100
0110
1100
1000
,
2010
0000
3002
0203
,
0000
0000
1000
0000
0302
0000
0000
1000
,
1003
0000
2100
0000
3002
0000
0000
1003
,
0100
0000
0100
1000
0001
0000
0102
0000
,
2003
0000
0000
3001
0100
0000
0100
0001
,
0000
0001
1000
0000
0000
0000
1002
0000
,
0203
0000
1000
0000
0000
0001
0301
0000
,
0000
2001
3200
0001
,
0000
1000
1300
0000
1010
0000
1000
0000
,
2100
0000
0010
3200
,
0000
0000
0001
0000
0320
0000
0000
0031
,
0100
0110
0101
0001
,
0012
0000
2003
3200
,
0000
0000
0001
0000
2300
0000
0000
0001
,
3001
0000
0102
0000
2003
0000
0000
3001
,
0100
0000
0100
0001
1000
0000
2100
0000
,
3002
0000
0000
1003
0100
0000
0100
1000
,
0000
1000
0001
0000
0000
0000
0000
0000
,
0012
0000
2003
0000
0000
3100
0010
0000
,
0010
0100
1000
0000
2010
0000
3002
0000
,
0000
0103
0010
0000
0010
0100
0001
0000
,
1000
0100
0000
0100
0010
0000
0110
0000
,
0100
0000
1100
0000
1002
0000
0000
0100
,
0103
0110
0100
0101
,
0012
0000
0000
1003
0100
0000
0120
0000
,
0000
0031
0100
0000
0120
0000
0000
1030
,
0200
0001
2300
0010
,
3001
0100
0000
0100
0010
0000
0110
0000
,
0100
0000
0101
0000
2001
0000
0000
0100
,
3100
0110
0100
1100
,
2010
0000
0000
3001
0100
0000
0120
0000
,
0000
1030
0100
0000
0120
0000
0000
0031
,
0200
1000
0302
0010
,
1003
0100
0000
1000
0100
0000
0110
0000
,
0010
0000
0011
0000
0001
0100
0000
0001
,
0100
0110
0010
1010
,
2001
0000
0000
0000
,
0000
0000
3002
0000
,
0000
0000
0000
0000
,
0023
0000
0000
0000
,
0000
0000
0230
0000
,
0000
2300
0000
0000
,
0002
0000
0000
0000
,
0000
0000
0000
0000
,
0000
0000
0000
0000
,
0000
0000
0000
0000
,
0000
0000
3003
0000
;

//---------------dance-single - ----------------
#NOTES:
     dance-single:
     :
     Medium:
     5:
     0.397198,0.490618,0.494669,0.392324,0.000000,222.000000,58.000000,46.000000,0.000000,0.000000,0.000000,0.397198,0.490618,0.494669,0.392324,0.000000,222.000000,58.000000,46.000000,0.000000,0.000000,0.000000:
0000
0000
0000
0000
,
0000
0000
0000
0000
,
0000
0000
0000
0000
,
0000
0000
0000
0000
,
0000
0000
0000
0000
,
0000
0000
0000
0000
,
2001
0000
0100
0100
,
0000
0000
3002
0000
,
0100
0100
0000
1000
,
1003
0010
0100
0001
,
0001
1001
0012
0000
,
0000
1000
0010
0103
,
2010
0000
0000
0001
,
0010
3100
1001
0000
,
1000
1100
0000
0100
,
0110
0000
0100
1100
,
1000
0001
1001
0000
,
0001
0101
0000
0100
,
0110
0000
0100
0101
,
0001
1000
1001
0000
,
1000
1010
0000
0010
,
0110
0000
0010
1010
,
1000
0001
1001
0000
,
0001
0011
0000
0010
,
0110
0000
0010
0011
,
0001
1000
1001
0000
,
1000
1010
1000
0001
,
2001
0000
0100
3100
,
0000
0000
1002
0000
,
0100
0103
0000
0000
,
2010
0000
0010
3200
,
0000
0001
2300
0000
,
0001
3001
0000
0000
,
1002
0000
0100
0103
,
0000
0000
2001
0000
,
0100
3100
0000
0000
,
0012
0000
0010
0203
,
0000
1000
0302
0000
,
1000
1003
1001
0001
,
2001
0000
0100
3020
,
0000
0001
0230
0000
,
0302
1003
1001
1000
,
1002
0000
0100
0023
,
0000
1000
0230
0000
,
2300
3010
0100
0010
,
1000
0000
0001
0010
,
0100
0010
0001
0000
,
1001
1001
0000
1000
,
0100
0010
0100
1000
,
0001
1000
0001
0100
,
0010
0100
0110
1001
,
1002
0000
0010
0203
,
0000
1000
0320
0000
,
2030
3001
1001
0001
,
2001
0000
0010
3200
,
0000
0001
0320
0000
,
0032
0103
0010
0100
,
0001
0000
1000
0100
,
0010
0100
1000
0000
,
1001
1001
0000
0001
,
0100
0010
0100
0001
,
1000
0001
1000
0100
,
0010
0100
0110
1001
,
0012
0000
1000
1003
,
0000
0000
2010
0000
3002
0000
0000
0010
,
0013
0110
0000
0120
,
0032
0000
0000
1000
1003
0000
1001
0000
,
0000
0001
1000
0000
,
1000
0001
0000
0000
,
2010
0000
0001
3001
,
0000
0000
0012
0000
2003
0000
0000
0010
,
3010
0110
0000
0120
,
2030
0000
0000
0001
3001
0000
1001
0000
,
0000
1000
0001
0000
,
0001
1000
0000
0000
,
0001
0100
0000
0100
0001
0000
1000
0000
,
1001
0000
1001
0000
1000
0100
0000
0100
,
1000
0001
1001
1001
,
1002
0000
0000
0000
,
0000
0000
2003
0000
,
0000
0000
0000
0000
,
3020
0000
0000
0000
,
0000
0000
0230
0000
,
0000
0302
0000
0000
,
2000
0000
0000
0000
,
0000
0000
0000
0000
,
0000
0000
0000
0000
,
0000
0000
0000
0000
,
0000
0000
3003
0000
;

//---------------dance-single - ----------------
#NOTES:
     dance-single:
     :
     Easy:
     4:
     0.361864,0.452878,0.477612,0.375267,0.000000,197.000000,56.000000,44.000000,0.000000,0.000000,0.000000,0.361864,0.452878,0.477612,0.375267,0.000000,197.000000,56.000000,44.000000,0.000000,0.000000,0.000000:
// measure 0
0000
0000
0000
0000
,  // measure 1
0000
0000
0000
0000
,  // measure 2
0000
0000
0000
0000
,  // measure 3
0000
0000
0000
0000
,  // measure 4
0000
0000
0000
0000
,  // measure 5
0000
0000
0000
0000
,  // measure 6
2001
0000
0000
0000
,  // measure 7
0000
0000
3002
0000
,  // measure 8
0000
0000
0000
0000
,  // measure 9
1003
1000
0001
0001
,  // measure 10
1001
1001
0011
0000
,  // measure 11
0000
1000
1000
1000
,  // measure 12
1010
0000
0000
0001
,  // measure 13
0001
0001
1001
0000
,  // measure 14
0001
0101
0000
0100
,  // measure 15
0010
0000
0010
1010
,  // measure 16
1000
1000
1001
0000
,  // measure 17
1000
1100
0000
0100
,  // measure 18
0010
0000
0010
0011
,  // measure 19
0001
0001
1001
0000
,  // measure 20
0001
0101
0000
0100
,  // measure 21
0010
0000
0010
1010
,  // measure 22
1000
1000
1001
0000
,  // measure 23
1000
1100
0000
0100
,  // measure 24
0010
0000
0010
0011
,  // measure 25
0001
0001
1001
0000
,  // measure 26
1000
1010
1000
1000
,  // measure 27
2001
0000
0100
3100
,  // measure 28
0000
0000
1002
0000
,  // measure 29
0100
0103
0000
0000
,  // measure 30
2010
0000
0000
3200
,  // measure 31
0000
0000
0320
0000
,  // measure 32
0001
0031
0000
0000
,  // measure 33
1002
0000
0100
0103
,  // measure 34
0000
0000
2001
0000
,  // measure 35
0100
3100
0000
0000
,  // measure 36
0012
0000
0000
0203
,  // measure 37
0000
0000
0320
0000
,  // measure 38
1000
1030
1001
0001
,  // measure 39
2001
0000
0000
3200
,  // measure 40
0000
0000
0302
0000
,  // measure 41
0023
1030
1001
1000
,  // measure 42
1002
0000
0000
0203
,  // measure 43
0000
0000
2300
0000
,  // measure 44
3020
0031
0100
0010
,  // measure 45
1000
0000
1000
0010
,  // measure 46
0100
0001
1001
0000
,  // measure 47
1001
1001
0000
1000
,  // measure 48
0100
0010
0001
0000
,  // measure 49
0000
0000
0001
0010
,  // measure 50
0100
1000
1001
0001
,  // measure 51
1002
0000
0000
0203
,  // measure 52
0000
0000
2300
0000
,  // measure 53
3020
0031
1001
0001
,  // measure 54
2001
0000
0000
3200
,  // measure 55
0000
0000
0302
0000
,  // measure 56
0023
1030
0100
0010
,  // measure 57
0001
0000
0001
0010
,  // measure 58
0100
1000
1001
0000
,  // measure 59
1001
1001
0000
0001
,  // measure 60
0100
0010
1000
0000
,  // measure 61
0000
0000
1000
0100
,  // measure 62
0010
0001
1001
1001
,  // measure 63
0012
0000
1000
1003
,  // measure 64
0000
2010
3002
0010
,  // measure 65
0013
0110
0000
0120
,  // measure 66
0032
1000
1003
1001
,  // measure 67
0000
0001
1000
0000
,  // measure 68
1000
0001
0000
0000
,  // measure 69
2010
0000
0001
3001
,  // measure 70
0000
0012
2003
0010
,  // measure 71
3010
0110
0000
0120
,  // measure 72
2030
0001
3001
1001
,  // measure 73
0000
1000
0001
0000
,  // measure 74
0001
1000
0000
0000
,  // measure 75
0001
1000
0001
1000
,  // measure 76
1001
1001
1000
0001
,  // measure 77
1000
0001
1001
1001
,  // measure 78
1002
0000
0000
0000
,  // measure 79
0000
0000
2003
0000
,  // measure 80
0000
0000
0000
0000
,  // measure 81
3020
0000
0000
0000
,  // measure 82
0000
0000
0230
0000
,  // measure 83
0000
0302
0000
0000
,  // measure 84
2000
0000
0000
0000
,  // measure 85
0000
0000
0000
0000
,  // measure 86
0000
0000
0000
0000
,  // measure 87
0000
0000
0000
0000
,  // measure 88
0000
0000
3003
0000
;
