#TITLE:Elvis;
#SUBTITLE:;
#ARTIST:AOA;
#TITLETRANSLIT:;
#SUBTITLETRANSLIT:;
#ARTISTTRANSLIT:;
#GENRE:;
#CREDIT:;
#BANNER:Elvis - AOAbn.png;
#BACKGROUND:Elvis - AOAbg.png;
#LYRICSPATH:;
#CDTITLE:encorerebirth.png;
#MUSIC:Elvis - AOA.ogg;
#OFFSET:-0.475;
#SAMPLESTART:49.399;
#SAMPLELENGTH:15.111;
#SELECTABLE:YES;
#BPMS:0.000=135.000
;
#STOPS:
;
#BGCHANGES:;
#KEYSOUNDS:;
#ATTACKS:;

//---------------dance-single - Spork!----------------
#NOTES:
     dance-single:
     :
     Beginner:
     1:
     0.111,0.160,0.067,0.133,0.000,52.000,6.000,12.000,0.000,0.000,0.000,0.111,0.160,0.067,0.133,0.000,52.000,6.000,12.000,0.000,0.000,0.000: // measure 0
0000
0000
0000
0000
,  // measure 1
0000
0000
0000
0000
,  // measure 2
0000
0000
0000
0000
,  // measure 3
0000
0000
0000
0000
,  // measure 4
0002
0000
0000
0000
,  // measure 5
0003
0000
0000
0000
,  // measure 6
2000
0000
0000
0000
,  // measure 7
3000
0000
0000
0000
,  // measure 8
0010
0000
0010
0000
,  // measure 9
0100
0000
0000
0000
,  // measure 10
0100
0000
0100
0000
,  // measure 11
0010
0000
0000
0000
,  // measure 12
1000
0000
1000
0000
,  // measure 13
1000
0000
0000
0000
,  // measure 14
0001
0000
0001
0000
,  // measure 15
0001
0000
0000
0000
,  // measure 16
0100
0000
0100
0000
,  // measure 17
0010
0000
0000
0000
,  // measure 18
0010
0000
0010
0000
,  // measure 19
0100
0000
0000
0000
,  // measure 20
2002
0000
0000
0000
,  // measure 21
3003
0000
0000
0000
,  // measure 22
0100
0000
0010
0000
,  // measure 23
0100
0000
0000
0000
,  // measure 24
2002
0000
0000
0000
,  // measure 25
3003
0000
0000
0000
,  // measure 26
0100
0000
0010
0000
,  // measure 27
0100
0000
0000
0000
,  // measure 28
0001
0000
0001
0000
,  // measure 29
0010
0000
0010
0000
,  // measure 30
0200
0000
0000
0000
,  // measure 31
0300
0000
0000
0000
,  // measure 32
1000
0000
1000
0000
,  // measure 33
0010
0000
0010
0000
,  // measure 34
0200
0000
0000
0000
,  // measure 35
0300
0000
0000
0000
,  // measure 36
0001
0000
0000
0000
,  // measure 37
1000
0000
0000
0000
,  // measure 38
0001
0000
1000
0000
,  // measure 39
0020
0000
0030
0000
,  // measure 40
1000
0000
0000
0000
,  // measure 41
0001
0000
0000
0000
,  // measure 42
1000
0000
0001
0000
,  // measure 43
0200
0000
0300
0000
,  // measure 44
1001
0000
0000
0000
,  // measure 45
0110
0000
0000
0000
,  // measure 46
0110
0000
0000
0000
,  // measure 47
2002
0000
0000
0000
,  // measure 48
3003
0000
0000
0000
;

//---------------dance-single - Spork!----------------
#NOTES:
     dance-single:
     :
     Easy:
     3:
     0.257,0.267,0.133,0.167,0.000,135.000,12.000,15.000,0.000,0.000,0.000,0.257,0.267,0.133,0.167,0.000,135.000,12.000,15.000,0.000,0.000,0.000:
0000
0000
0000
0000
,
0000
0000
0000
0000
,
0000
0000
0000
0000
,
0000
0000
0000
0000
,
1000
0010
0100
0000
,
0100
0001
2000
0000
,
3001
0100
0010
0000
,
0010
1000
0002
1000
,
1003
0100
1000
0010
,
1000
1000
0000
0001
,
0001
0010
0001
0100
,
0001
0001
0000
0000
,
1001
0100
0001
0100
,
0010
1000
0002
0003
,
1001
0100
1000
0100
,
0010
0001
2000
3001
,
0001
0100
0001
0010
,
0001
0001
0000
1000
,
1000
0010
1000
0100
,
1000
1000
0000
0000
,
1001
0000
0100
0000
,
0110
0000
0010
0000
,
1000
0100
0001
0100
,
2000
0000
3001
0000
,
1001
0000
0010
0000
,
0110
0000
0100
0000
,
0001
0010
1000
0010
,
0002
0000
1003
1000
,
0010
0000
0000
0010
0000
0000
0010
0000
,
0100
0000
0000
0100
0000
0000
0100
0000
,
0001
0001
0001
0001
,
1001
0000
0000
0010
0000
0000
0100
0000
,
1000
0000
0000
1000
0000
0000
1000
0000
,
0001
0000
0000
0001
0000
0000
0001
0000
,
0200
0000
0310
0000
,
0110
0000
0000
1001
0000
0000
0000
0000
,
2000
0000
3100
0100
,
2000
0000
3001
0001
,
2000
0000
3010
0100
,
0001
0010
0100
1000
,
0002
0000
0013
0010
,
0002
0000
1003
1000
,
0002
0000
0103
0010
,
0110
0000
0000
1001
0000
0000
0000
0000
,
1000
0001
0010
0010
,
0001
1000
0010
0010
,
1000
0001
0100
0100
,
0220
0000
0000
0000
,
0330
0000
0000
0000
;

//---------------dance-single - Spork!----------------
#NOTES:
     dance-single:
     :
     Hard:
     8:
     0.565,0.517,0.444,0.267,0.078,292.000,40.000,24.000,0.000,0.000,0.000,0.565,0.517,0.444,0.267,0.078,292.000,40.000,24.000,0.000,0.000,0.000:
0000
0000
0000
0000
,
0000
0000
0000
0000
,
0000
0000
0000
0000
,
0000
0000
0000
0000
,
0010
1000
0100
1000
0010
1000
0100
1000
,
0010
0001
0010
1000
0002
0000
0000
0003
,
0010
0001
0100
0001
0010
0001
0100
0001
,
0010
1000
0010
0001
2000
0001
0001
3001
,
0101
1100
0101
1100
,
0101
0000
1100
0000
0002
1000
1000
1003
,
1010
0011
1010
0011
,
1010
0011
2010
0000
3002
0000
0023
0000
,
0031
0001
0001
0100
0010
0010
0010
1000
,
0100
0001
0100
1000
0002
0000
0000
0000
,
1003
0010
1000
0010
1000
0000
0100
0000
0010
0000
0010
0000
0010
0000
0000
0000
,
0001
0100
1000
0100
0002
1000
1000
1003
,
1100
0101
1100
0101
,
1100
0000
0101
0000
2000
0001
0001
3001
,
0011
1010
0011
1010
,
0011
0000
1010
0000
0012
0000
0000
0000
1003
0000
0000
1000
0001
0000
0000
0000
,
1000
0010
1000
0010
0100
0001
0100
0001
,
1000
0100
1000
0100
0010
0001
0010
0001
,
1000
0100
0010
0001
0100
0010
1000
0001
,
1000
0100
0001
0100
1000
0100
0010
0010
,
0001
0100
0001
0100
0010
1000
0010
1000
,
0001
0010
0001
0010
0100
1000
0100
1000
,
0001
0100
0010
1000
0001
0010
0100
1000
,
0001
0101
0000
1100
0000
0110
0000
0001
,
2000
0000
0100
3002
0000
1003
0001
0100
,
0010
0010
0010
1010
0000
0110
0100
0001
,
1000
1000
0100
0100
0010
0010
0001
0001
,
0020
0000
0100
0032
0000
1003
0001
0010
,
0200
0000
0010
2300
0000
3001
1000
0010
,
0100
0100
0100
0101
0000
1001
0000
1000
,
0001
0001
0010
0001
0100
0010
0010
0010
,
1000
0001
0000
0000
0000
0000
0001
1000
0000
0000
0000
0000
0100
0000
0000
0000
,
1000
0100
0020
0000
0100
0100
0001
0031
,
0001
0100
0020
0000
0100
0100
1000
1030
,
0010
1000
0002
0000
0100
0100
1000
0013
,
0001
0000
0100
0000
0010
0000
1000
0000
0100
0010
0000
0001
0000
0001
1000
0000
,
0001
0010
0200
0000
0010
0010
1000
1300
,
1000
0010
0200
0000
0010
0010
0001
0301
,
0100
0001
2000
0000
0100
0100
3001
1000
,
0001
1000
0000
0000
0000
0000
1000
0001
0000
0000
0000
0000
0010
0000
0000
0000
,
0001
0000
0000
0010
0000
0000
0100
0000
1001
0000
1001
0000
0000
0000
0000
0000
,
1000
0000
0000
0010
0000
0000
0001
0000
0110
0000
0110
0000
0000
0000
0000
0000
,
1000
0000
0000
0100
0000
0000
0010
0000
1001
0000
1001
0000
0000
0000
0000
0000
,
0001
0000
0100
0000
1000
0000
0100
0000
0001
0000
0100
0000
0010
0100
0010
0000
,
0220
0000
0000
0000
,
0330
0000
0000
0000
;

//---------------dance-single - Spork!----------------
#NOTES:
     dance-single:
     :
     Medium:
     6:
     0.368,0.347,0.344,0.211,0.000,182.000,31.000,19.000,0.000,0.000,0.000,0.368,0.347,0.344,0.211,0.000,182.000,31.000,19.000,0.000,0.000,0.000:
0000
0000
0000
0000
,
0000
0000
0000
0000
,
0000
0000
0000
0000
,
0000
0000
0000
0000
,
0100
0000
1000
0000
0001
1000
0001
0000
,
0010
0001
1002
0003
,
0100
0000
0001
0000
1000
0001
1000
0000
,
0010
1000
1001
0100
,
1100
0110
1100
0110
,
0011
1001
0000
0100
,
0101
0110
0101
0110
,
0010
1000
0001
0000
0000
0000
0000
0000
,
0001
0010
0001
0000
1000
0001
1000
0000
,
0010
1000
0200
0300
,
1000
0010
1000
0000
0001
1000
0001
0000
,
0010
0001
0200
0310
,
1010
1001
1010
1001
,
0101
0110
0000
0001
,
0011
1001
0011
1001
,
1000
0010
0200
0000
0000
0000
0300
0000
,
0001
0010
0200
0010
,
1300
0010
0200
0010
,
0301
1000
0001
0001
,
1000
0010
1000
0010
0100
0001
0100
0001
,
1000
0100
0020
0100
,
0031
0100
0020
0100
,
1030
0001
1000
1000
,
0000
0001
0000
1000
0000
0001
0000
0000
,
0101
0010
1100
1000
,
0001
0100
0110
0100
,
0001
0100
0010
0000
1000
0010
0100
0000
,
0001
1000
0100
0110
,
0010
0000
0001
1000
0001
1000
0010
0000
,
0010
0000
1000
0001
1000
0001
0100
0000
,
0100
0001
0010
0100
,
0110
0000
0000
1001
0000
0000
0000
0000
,
2000
0000
3100
0000
1000
0001
1000
0000
,
0002
0000
0013
0000
0001
1000
0001
0000
,
0200
0310
0100
0100
,
0001
1000
0100
0010
,
0002
0000
0103
0000
0010
1000
0001
0000
,
2000
0000
3010
0000
0100
0001
1000
0000
,
0200
0310
0100
0100
,
1001
0000
0000
0110
0000
0000
0000
0000
,
0001
0100
0020
1030
,
1000
0100
0020
0031
,
0001
1000
0020
0130
,
0220
0000
0000
0000
,
0330
0000
0000
0000
;

//---------------dance-single - Spork!----------------
#NOTES:
     dance-single:
     :
     Challenge:
     11:
     0.755,0.708,0.755,0.678,0.339,347.000,68.000,61.000,26.000,26.000,4.000,0.755,0.708,0.755,0.678,0.339,347.000,68.000,61.000,26.000,26.000,4.000:
0000
0000
0000
0000
,
0000
0000
0000
0000
,
0000
0000
0000
0000
,
0000
0000
0000
0000
0000
0000
0000
0000
0010
0000
0000
0010
0100
0000
0100
0000
,
0001
1000
1100
0100
1000
0010
1010
0010
,
0100
0000
0001
0000
0010
0001
0000
0001
1000
0000
2100
0000
0000
0000
3010
0000
,
1000
0100
0110
0010
0001
1000
1100
0100
,
1000
0010
0001
0010
2000
0001
0010
3100
,
0210
0000
101M
0300
0120
0000
M101
0030
,
0210
0000
101M
0300
0002
1000
0010
0103
,
0120
0000
110M
0030
0210
0000
M011
0300
,
0120
0000
0100
0000
110M
0000
0030
0000
0100
0000
0001
1000
0001
0000
0010
0000
,
0004
0000
1000
0000
0103
0000
0100
0010
4000
0000
0001
0000
3010
0000
0010
0000
,
0110
0000
0100
0000
0001
0000
0010
0000
0110
0000
0100
1000
0100
1000
0010
1000
,
0040
0100
0000
0100
0030
0000
1000
0001
0400
0000
0010
0000
0301
0000
0000
0000
,
0001
0010
1000
0010
0002
1000
0010
0103
,
0120
0000
110M
0030
0210
0000
M011
0300
,
0120
0000
110M
0030
2000
0001
0010
3100
,
0210
0000
101M
0300
0120
0000
M101
0030
,
0210
0000
0010
0000
101M
0000
0300
0000
0010
0000
1000
0001
1000
0000
0100
0000
,
2000
0000
0020
3000
0002
0030
0200
0003
0001
0300
0020
0000
1000
0030
0002
0000
,
1000
0003
0200
0000
0001
0300
0020
0000
0001
0030
0200
0000
1000
0300
0002
0000
,
0000
0000
1003
0010
0000
0000
1000
0001
0000
0000
1000
0100
0000
0000
0100
0010
,
0001
0000
0001
0100
0001
0010
0100
1000
0010
0100
0001
1000
0100
0010
0001
1000
,
0002
0000
0020
0003
2000
0030
0200
3000
1000
0300
0020
0000
0001
0030
2000
0000
,
0001
3000
0200
0000
1000
0300
0020
0000
1000
0030
0200
0000
0001
0300
2000
0000
,
0000
3020
2030
3002
0023
0230
0300
1000
,
0001
0000
0001
0100
0000
0000
0100
0010
0000
0000
0010
1000
0001
0100
0001
1000
,
0200
0000
0000
0000
0010
0000
102M
0000
0000
0300
M101
0000
0001
0030
1000
0000
,
0001
0000
0100
0000
1000
0000
1200
0000
0000
0000
M011
0000
0310
0100
0010
0000
,
1010
1000
1100
0100
0110
0010
0011
0001
,
0201
0000
0000
0000
0010
0000
M021
0300
0000
0000
110M
0000
0130
0001
0010
0000
,
0021
0000
0000
0000
0100
0000
M201
0030
0000
0000
101M
0000
0310
0100
0010
0000
,
0001
0100
1000
1200
0000
M011
0310
0100
,
0001
1000
0100
1000
0001
0010
0100
1000
,
0001
0100
0000
0000
0000
0000
0001
1000
0001
1000
0010
1000
0010
0100
0001
0100
,
0020
0000
0000
0000
1M01
0000
0000
0030
1010
0000
0010
0000
0110
0000
0100
0000
,
0002
0000
0000
0000
M110
0000
0000
0003
1100
0000
1000
0000
1001
0000
0001
0000
,
0020
0000
0000
0000
1M01
0000
0000
0030
0001
0000
0100
0000
1000
0000
0100
0000
,
0001
0000
1000
0000
0100
0000
0001
0000
0100
1000
0000
0010
0000
0100
0001
0000
,
0020
0000
0000
0000
1M01
0000
0000
0030
0011
0000
0010
0000
0110
0000
0100
0000
,
2000
0000
0000
0000
011M
0000
0000
3000
0101
0000
0001
0000
1001
0000
1000
0000
,
0020
0000
0000
0000
1M01
0000
0000
0030
1000
0000
0100
0000
0001
0000
0100
0000
,
1000
0010
0000
0000
0000
0000
1000
0001
1000
0001
0010
0001
0010
0100
1000
0100
,
1000
0001
0000
0100
0000
0100
0010
0000
1010
0000
0110
0000
0200
0000
0000
0000
,
0301
1000
0000
0010
0000
0010
0100
0000
0101
0000
0110
0000
0020
0000
0000
0000
,
1030
0001
0000
0010
0000
0010
0100
0000
0110
0000
1001
0000
0002
0000
0000
0000
,
1003
0010
0100
0000
0001
0010
0100
0000
1000
0001
1000
0001
0100
0010
0100
0010
,
0220
0000
0000
0000
,
0330
0000
0000
0000
;
