#VERSION:0.82;
#TITLE:DANCE ALL NIGHT;
#SUBTITLE:;
#ARTIST:Sota Fujimori;
#TITLETRANSLIT:;
#SUBTITLETRANSLIT:;
#ARTISTTRANSLIT:;
#GENRE:;
#ORIGIN:;
#CREDIT:;
#BANNER:[Round 2] - DANCE ALL NIGHT.png;
#BACKGROUND:[Round 2] - DANCE ALL NIGHT-bg.png;
#PREVIEWVID:;
#JACKET:[Round 2] - DANCE ALL NIGHT-jacket.png;
#CDIMAGE:;
#DISCIMAGE:;
#LYRICSPATH:;
#CDTITLE:cdtitle.png;
#MUSIC:[ROUND 2] - DANCE ALL NIGHT.ogg;
#OFFSET:-0.010762;
#SAMPLESTART:76.436722;
#SAMPLELENGTH:14.222000;
#SELECTABLE:YES;
#BPMS:0.000=135.000;
#STOPS:;
#DELAYS:;
#WARPS:;
#TIMESIGNATURES:0.000=4=4;
#TICKCOUNTS:0.000=4;
#COMBOS:0.000=1;
#SPEEDS:0.000=1.000=0.000=0;
#SCROLLS:0.000=1.000;
#FAKES:;
#LABELS:0.000=Song Start;
#BGCHANGES:;
#KEYSOUNDS:;
#ATTACKS:
;

//---------------dance-single - ----------------
#NOTEDATA:;
#CHARTNAME:;
#STEPSTYPE:dance-single;
#DESCRIPTION:;
#CHARTSTYLE:;
#DIFFICULTY:Hard;
#METER:8;
#RADARVALUES:0.606072,0.564687,0.290817,0.205283,0.354968,438.000000,34.000000,24.000000,0.000000,0.000000,0.000000,0.000000,0.000000,0.606072,0.564687,0.290817,0.205283,0.354968,438.000000,34.000000,24.000000,0.000000,0.000000,0.000000,0.000000,0.000000;
#CREDIT:;
#OFFSET:-0.010762;
#BPMS:0.000000=135.000000
;
#STOPS:;
#DELAYS:;
#WARPS:;
#TIMESIGNATURES:0.000000=4=4
;
#TICKCOUNTS:0.000000=4
;
#COMBOS:0.000000=1
;
#SPEEDS:0.000000=1.000000=0.000000=0
;
#SCROLLS:0.000000=1.000000
,53.000000=0.750000
,53.250000=1.250000
,53.750000=1.000000
,148.000000=0.330000
,148.333328=1.330000
,149.000000=1.000000
;
#FAKES:;
#LABELS:0.000000=Song Start
;
#NOTES:
// measure 0
0000
0000
0000
0000
,  // measure 1
1001
0000
0000
0000
0001
0000
0010
0000
0200
0000
0000
0010
0000
0000
1300
0000
,  // measure 2
0001
0100
1000
0200
0000
1300
0100
0001
,  // measure 3
1000
0000
0000
0000
0001
0000
0100
0000
0020
0000
0000
0001
0000
0000
1030
0000
,  // measure 4
0001
0010
1000
0020
0000
0031
0010
0100
,  // measure 5
1000
0000
0000
0000
1000
0000
0100
0000
0020
0000
0000
0100
0000
0000
0031
0000
,  // measure 6
1000
0010
0001
0020
0000
0031
0010
1000
,  // measure 7
0100
0000
0000
0000
1001
0000
1000
0000
0001
0000
0000
0010
0000
0000
0100
0000
,  // measure 8
1000
0100
0001
0100
0000
1000
0010
0100
,  // measure 9
0110
0000
0000
0000
0101
0000
0000
1001
0000
0001
1000
0001
1000
0000
0000
0000
,  // measure 10
0010
0100
0001
0100
1000
0100
0001
0000
,  // measure 11
1000
0100
1000
0000
0010
0100
0001
1000
,  // measure 12
0100
0010
0100
1000
0001
0010
1000
0010
,  // measure 13
0001
0000
0000
0000
1000
0000
0000
1001
0000
0001
1000
0001
1000
0000
0000
0000
,  // measure 14
0010
0100
1000
0100
0001
0010
0100
0000
,  // measure 15
0010
0001
0010
0000
0100
1000
0001
1000
,  // measure 16
0010
0100
0001
0001
1000
0100
1001
0000
,  // measure 17
0101
0000
0000
0000
1010
0000
0000
0000
0100
0001
0100
0001
1000
0000
0200
0000
,  // measure 18
0000
0001
0000
1000
0000
0001
0000
1300
,  // measure 19
0100
0000
0000
1000
0000
0000
0001
0000
0000
0100
0000
0000
0020
0000
0030
0000
,  // measure 20
0000
1000
0100
1000
0000
0001
0100
0001
1000
0000
1000
0010
0000
0000
1000
0000
,  // measure 21
1010
0000
0000
0000
0101
0000
0000
0000
1000
0010
1000
0010
0100
0000
0020
0000
,  // measure 22
0000
0001
0000
1000
0000
0001
0000
1030
,  // measure 23
0010
0000
0010
0000
0000
0000
0100
0000
0000
0001
0000
0000
2000
0000
3000
0000
,  // measure 24
0000
0001
0100
0001
0000
1000
0100
1000
0001
0000
0010
0000
0100
0000
0000
0000
,  // measure 25
1000
0100
0000
0000
1100
0000
0000
0000
0000
1000
0000
0100
0000
1000
0100
1000
,  // measure 26
0001
0100
0000
0000
0101
0000
0100
0001
0000
0000
0000
0000
0000
0000
0100
0001
,  // measure 27
1000
0010
0000
0000
1010
0000
0000
0000
0000
1000
0000
0010
0000
1000
0010
1000
,  // measure 28
0001
0010
0000
0000
0011
0000
0001
0010
0001
0000
0000
1000
0000
0000
0010
0000
,  // measure 29
1000
0001
0010
0001
0100
0010
1000
0001
,  // measure 30
0010
0100
0001
0100
0010
0001
0100
1000
,  // measure 31
0100
0010
0010
1000
0001
0010
0001
1000
,  // measure 32
0100
0000
0100
0000
0010
0000
0010
0000
0110
0000
0000
1001
0000
0000
0000
0000
,  // measure 33
1010
0000
0000
0000
0101
0000
0000
1001
0000
0000
1000
0000
0010
0000
0010
0000
,  // measure 34
0000
0100
0001
0000
0001
1000
0000
0000
1000
0000
0100
0000
0010
0000
0010
0000
,  // measure 35
0001
0000
1000
0000
0000
0010
0000
0010
0000
0100
0000
0100
0010
0000
0000
0000
,  // measure 36
2000
0000
3100
0000
0002
0000
0103
0000
1000
0001
1000
0000
0220
0000
0330
0000
,  // measure 37
2000
3000
0000
0000
0101
0000
0000
1000
0000
0000
0001
0000
0010
0000
0010
0000
,  // measure 38
0000
0001
1000
0000
1000
0010
0000
0000
0010
0000
0100
0000
0001
0000
0001
0000
,  // measure 39
0010
0000
0100
0000
0000
1000
0000
1000
0000
0001
0000
0001
0100
0000
0100
0000
,  // measure 40
0110
0000
0010
0000
1000
0000
0001
0000
1000
0100
0010
0001
0000
0000
0000
0000
,  // measure 41
1001
1000
1000
1000
,  // measure 42
0001
0000
0001
0000
0001
0010
1100
0000
,  // measure 43
1001
0001
0200
0000
0301
1000
0200
0000
,  // measure 44
1300
0000
0001
0010
0100
0000
1000
0000
0000
0010
0100
0000
0002
0000
0000
0000
,  // measure 45
1003
0100
0010
0001
1000
0100
0010
0001
,  // measure 46
0100
0010
1000
0001
0010
0100
1000
0000
,  // measure 47
0100
1000
0002
0000
0103
0001
2000
0000
,  // measure 48
3010
0000
0100
0001
0010
0000
0100
0000
0000
0010
0001
0000
2000
0000
0000
0000
,  // measure 49
3010
0000
0000
1000
0000
0000
0001
0000
0000
0001
0010
0000
0100
0000
1000
0000
,  // measure 50
0010
0100
0110
1001
,  // measure 51
0001
0000
0100
0000
1000
0000
0000
1000
0001
0000
0010
0000
1000
0000
0000
0000
,  // measure 52
0100
0000
0010
0001
1000
0000
0100
0000
0000
1000
0001
0000
0200
0000
0000
0000
,  // measure 53
0301
0100
0010
1000
0001
0100
0010
1000
,  // measure 54
0100
0010
0001
1000
0010
0100
0010
1000
,  // measure 55
0001
0000
0010
0000
1000
0000
0000
1000
0001
0000
0100
0000
1000
0000
0000
0000
,  // measure 56
0001
0000
0100
0001
0010
0000
1000
0000
0000
0010
0001
0000
0200
0000
0000
0000
,  // measure 57
0301
0000
0000
1000
0000
0000
0100
0000
0000
1000
0001
0000
0010
0000
0100
0000
,  // measure 58
1000
0000
0001
0100
0001
0000
1000
0010
1000
0010
0000
0000
1001
0000
0000
0000
,  // measure 59
0101
0000
0000
0000
1010
0000
0000
1001
0000
0001
0010
0001
2000
0000
3000
0000
,  // measure 60
0010
0100
1000
0100
0001
0010
0100
0000
,  // measure 61
1000
0001
0100
0000
0010
0001
1000
0100
,  // measure 62
0010
0100
0010
0100
0010
0000
0000
0010
1000
0000
0001
0000
0110
0000
1001
0000
;

//---------------dance-single - ----------------
#NOTEDATA:;
#CHARTNAME:;
#STEPSTYPE:dance-single;
#DESCRIPTION:;
#CHARTSTYLE:;
#DIFFICULTY:Medium;
#METER:6;
#RADARVALUES:0.427672,0.402546,0.222389,0.222389,0.047044,298.000000,26.000000,26.000000,0.000000,0.000000,0.000000,0.000000,0.000000,0.427672,0.402546,0.222389,0.222389,0.047044,298.000000,26.000000,26.000000,0.000000,0.000000,0.000000,0.000000,0.000000;
#CREDIT:;
#OFFSET:-0.010762;
#BPMS:0.000000=135.000000
;
#STOPS:;
#DELAYS:;
#WARPS:;
#TIMESIGNATURES:0.000000=4=4
;
#TICKCOUNTS:0.000000=4
;
#COMBOS:0.000000=1
;
#SPEEDS:0.000000=1.000000=0.000000=0
;
#SCROLLS:0.000000=1.000000
;
#FAKES:;
#LABELS:0.000000=Song Start
;
#NOTES:
// measure 0
0000
0000
0000
0000
,  // measure 1
1001
0000
0000
0000
1000
0000
0000
0000
0100
0000
0000
0100
0000
0000
0000
0000
,  // measure 2
1000
0100
1000
0002
0000
0000
0103
0000
,  // measure 3
0001
0000
0000
0000
0001
0000
0000
0000
1000
0000
0000
1000
0000
0000
0000
0000
,  // measure 4
0001
0010
0001
2000
0000
0000
3100
0000
,  // measure 5
1000
0000
0000
0000
0010
0000
0000
0000
0100
0000
0000
0100
0000
0000
0000
0000
,  // measure 6
0001
1000
0100
2000
0000
0000
3001
0000
,  // measure 7
0200
0000
0000
0000
0300
0000
0000
0000
0100
0000
0000
0100
0000
0000
0000
0000
,  // measure 8
0010
1000
0001
0100
0000
0000
1001
0000
,  // measure 9
0001
0000
0000
0000
0010
0000
0000
0001
0000
0000
0000
0000
1000
0000
0000
0000
,  // measure 10
0010
0000
1000
0000
0001
0100
0001
0000
,  // measure 11
1000
0100
0001
0100
,  // measure 12
1000
0000
0010
0000
0100
0100
0100
0000
,  // measure 13
0010
0000
0000
0000
0100
0000
0000
0010
0000
0000
0000
0000
1000
0000
0000
0000
,  // measure 14
0010
0000
1000
0000
0001
0010
0001
0000
,  // measure 15
1000
0010
0001
0010
,  // measure 16
1000
0000
0001
0001
0001
0000
0010
0000
,  // measure 17
0100
1001
1000
0001
,  // measure 18
0000
1000
0000
0001
0000
1000
0000
0001
,  // measure 19
0100
0010
1000
0001
,  // measure 20
0010
0000
0000
0000
0010
0000
0000
0000
0100
0000
0000
0110
0000
0000
0000
0000
,  // measure 21
0010
1001
0001
1000
,  // measure 22
0000
0001
0000
1000
0000
0001
0000
1000
,  // measure 23
0010
0100
0001
1000
,  // measure 24
0010
0100
0010
0100
0010
0100
0010
0000
,  // measure 25
1000
0100
1000
0001
,  // measure 26
0100
0110
0100
0110
,  // measure 27
0001
0010
0001
1000
,  // measure 28
0010
0000
0110
0000
0010
0100
0100
0000
,  // measure 29
0001
0010
0001
0000
1000
0100
1000
0000
,  // measure 30
0001
0100
0001
0000
1000
0010
1000
0000
,  // measure 31
0001
0001
0010
0000
0100
0100
1000
0000
,  // measure 32
1000
0000
0010
0000
0100
0000
0000
0000
0110
0000
0000
0110
0000
0000
0000
0000
,  // measure 33
1001
0000
1100
0000
0001
1000
0100
0000
,  // measure 34
1000
0001
0100
0000
0010
1000
0100
0000
,  // measure 35
0010
0001
0000
1000
0000
1000
0010
0000
,  // measure 36
0200
0310
0200
0310
0100
0001
1000
0000
,  // measure 37
0001
0000
1001
0000
1000
0001
0010
0000
,  // measure 38
0001
1000
0010
0000
0100
0001
0010
0000
,  // measure 39
0100
1000
0000
0001
0000
0001
0100
0000
,  // measure 40
0020
0130
0020
0130
0001
1000
0100
0000
,  // measure 41
1000
1000
1000
1000
,  // measure 42
1000
0000
1000
0000
1000
0100
0010
0000
,  // measure 43
0012
1003
2001
3010
,  // measure 44
0020
0130
0200
0301
,  // measure 45
1000
0100
1000
0000
0001
0010
0001
0000
,  // measure 46
1000
0010
1000
0000
0001
0100
0001
0000
,  // measure 47
0102
1003
2001
3100
,  // measure 48
0200
0310
0020
0031
,  // measure 49
1000
0000
0000
0010
0000
0000
0001
0000
0000
0000
0010
0000
1000
0000
0002
0000
,  // measure 50
2000
3003
0110
1001
,  // measure 51
2100
3001
1002
0103
,  // measure 52
0200
0310
0020
1030
,  // measure 53
0001
0010
0001
0000
1000
0100
1000
0000
,  // measure 54
0001
0100
0001
0000
1000
0010
1000
0000
,  // measure 55
2010
3001
1002
0013
,  // measure 56
0020
0130
0200
1300
,  // measure 57
0001
0000
0000
0010
0000
0000
1000
0000
0000
0000
0010
0000
0001
0000
1000
0000
,  // measure 58
0001
0010
0100
0010
0100
0000
0110
0000
,  // measure 59
1000
0000
0000
0000
0001
0000
0000
1000
0000
0000
0000
0000
1001
0000
0000
0000
,  // measure 60
0001
0000
0010
0000
0100
1000
0100
0000
,  // measure 61
1000
0000
0010
0000
0100
0100
0100
0000
,  // measure 62
0001
1000
0001
0000
0010
0100
1001
0000
;

//---------------dance-single - ----------------
#NOTEDATA:;
#CHARTNAME:;
#STEPSTYPE:dance-single;
#DESCRIPTION:;
#CHARTSTYLE:;
#DIFFICULTY:Easy;
#METER:4;
#RADARVALUES:0.339694,0.322037,0.171069,0.290817,0.008553,224.000000,20.000000,34.000000,0.000000,0.000000,0.000000,0.000000,0.000000,0.339694,0.322037,0.171069,0.290817,0.008553,224.000000,20.000000,34.000000,0.000000,0.000000,0.000000,0.000000,0.000000;
#CREDIT:;
#NOTES:
// measure 0
0000
0000
0000
0000
,  // measure 1
1001
1000
0100
1000
,  // measure 2
0001
0100
0100
0000
,  // measure 3
0001
0001
0100
0001
,  // measure 4
1000
0100
1000
0000
,  // measure 5
0010
0010
0100
0001
,  // measure 6
1000
0100
0100
0000
,  // measure 7
2000
3000
1000
0001
,  // measure 8
0110
0000
0000
0110
0000
0000
0110
0000
,  // measure 9
1000
0001
1000
0100
,  // measure 10
0010
0010
0010
0000
,  // measure 11
0001
0010
0100
1000
,  // measure 12
0001
0100
0010
0010
,  // measure 13
1000
0000
0000
0000
0001
0000
0000
1001
0000
0000
0000
0000
0000
0000
0000
0000
,  // measure 14
1000
1000
1000
0000
,  // measure 15
1000
0100
0010
0001
,  // measure 16
1000
0010
0100
0001
,  // measure 17
1000
0001
0010
0010
,  // measure 18
0000
0001
0000
0001
0000
1000
0000
1000
,  // measure 19
0200
0300
2000
3000
,  // measure 20
0010
0000
0000
0000
0010
0000
0000
0000
0010
0000
0000
0010
0000
0000
0000
0000
,  // measure 21
1000
0001
0100
0100
,  // measure 22
0000
0001
0000
0001
0000
1000
0000
1000
,  // measure 23
0020
0030
0200
0300
,  // measure 24
0001
0001
1000
1001
,  // measure 25
0001
1100
0000
1100
,  // measure 26
1000
0101
0000
0101
,  // measure 27
0001
0110
0000
0110
,  // measure 28
1000
0110
0000
0110
,  // measure 29
0002
0013
0002
1003
,  // measure 30
0002
0103
0002
1003
,  // measure 31
2000
3100
2000
3001
,  // measure 32
2000
3010
1001
0000
,  // measure 33
0001
0010
0100
0010
,  // measure 34
0001
0100
0010
0100
,  // measure 35
1000
0100
0010
0100
,  // measure 36
0001
0010
0100
1000
,  // measure 37
0001
1001
1000
0100
,  // measure 38
0010
0100
0001
0100
,  // measure 39
0010
0001
1000
0001
,  // measure 40
0100
0100
0100
0000
,  // measure 41
2002
0000
0000
0000
,  // measure 42
3003
0000
0000
0000
0000
1000
0001
0000
,  // measure 43
2000
3100
0200
0310
,  // measure 44
0020
0031
0002
1003
,  // measure 45
0010
0100
0010
1000
,  // measure 46
0100
0010
0001
1000
,  // measure 47
0002
0103
0200
0310
,  // measure 48
0020
1030
2000
3001
,  // measure 49
0010
0100
1000
0100
,  // measure 50
0010
0000
0110
1001
,  // measure 51
2000
3010
0020
0130
,  // measure 52
0200
0301
0002
1003
,  // measure 53
0010
0100
0010
1000
,  // measure 54
0001
0100
0010
1000
,  // measure 55
0002
0013
0020
0130
,  // measure 56
0200
1300
2000
3001
,  // measure 57
0100
0010
1000
0001
,  // measure 58
2002
3003
1000
0001
,  // measure 59
0010
0100
0010
0001
,  // measure 60
1000
0010
0100
0010
,  // measure 61
1000
0001
0200
0320
,  // measure 62
1030
0000
0001
0000
1000
0001
1000
0000
;

//---------------dance-single - ----------------
#NOTEDATA:;
#CHARTNAME:;
#STEPSTYPE:dance-single;
#DESCRIPTION:;
#CHARTSTYLE:;
#DIFFICULTY:Beginner;
#METER:2;
#RADARVALUES:0.139299,0.134182,0.034214,0.085534,0.000000,100.000000,4.000000,10.000000,0.000000,0.000000,0.000000,0.000000,0.000000,0.139299,0.134182,0.034214,0.085534,0.000000,100.000000,4.000000,10.000000,0.000000,0.000000,0.000000,0.000000,0.000000;
#CREDIT:;
#NOTES:
// measure 0
0000
0000
0000
0000
,  // measure 1
1000
0000
1000
0000
,  // measure 2
1000
0000
0000
0000
,  // measure 3
0001
0000
0001
0000
,  // measure 4
0001
0000
0000
0000
,  // measure 5
0100
0000
0100
0000
,  // measure 6
0100
0000
0000
0000
,  // measure 7
0010
0000
0010
0000
,  // measure 8
0010
0000
0000
0000
,  // measure 9
2000
3000
0000
0000
,  // measure 10
0200
0300
0000
0000
,  // measure 11
0020
0030
0000
0000
,  // measure 12
0001
0000
0001
0000
,  // measure 13
0200
0300
0000
0000
,  // measure 14
0020
0030
0000
0000
,  // measure 15
2000
3000
0000
0000
,  // measure 16
0001
0000
0001
0000
,  // measure 17
1000
0000
1000
0000
,  // measure 18
0000
0100
0000
0100
,  // measure 19
0000
1000
0000
1000
,  // measure 20
0000
0001
0000
0000
,  // measure 21
0001
0000
0001
0000
,  // measure 22
0000
0100
0000
0100
,  // measure 23
0000
0010
0000
0010
,  // measure 24
0000
2000
3000
0000
,  // measure 25
1000
0000
0000
0100
,  // measure 26
0100
0000
0100
0000
,  // measure 27
1000
0000
0000
0001
,  // measure 28
0001
0000
0001
0000
,  // measure 29
0100
0000
0100
0000
,  // measure 30
0010
0000
0010
0000
,  // measure 31
1000
0000
1000
0000
,  // measure 32
0001
0000
0000
0000
,  // measure 33
1001
0000
0000
0000
,  // measure 34
0000
0000
0000
0000
,  // measure 35
0110
0000
0000
0000
,  // measure 36
0000
0000
0000
0000
,  // measure 37
1001
0000
0000
0000
,  // measure 38
0000
0000
0000
0000
,  // measure 39
0110
0000
0000
0000
,  // measure 40
0000
0000
0000
0000
,  // measure 41
2000
0000
3000
0000
,  // measure 42
0000
0000
0000
0001
,  // measure 43
0100
0000
0100
0000
,  // measure 44
0100
0100
0100
0000
,  // measure 45
0001
0000
1000
0000
,  // measure 46
0001
0000
1000
0000
,  // measure 47
0010
0000
0010
0000
,  // measure 48
0010
0010
0010
0000
,  // measure 49
1000
0000
0001
0000
,  // measure 50
2000
0000
3000
0000
,  // measure 51
0001
0000
0001
0000
,  // measure 52
0001
0001
0001
0000
,  // measure 53
0010
0000
0100
0000
,  // measure 54
0010
0000
0100
0000
,  // measure 55
1000
0000
1000
0000
,  // measure 56
1000
1000
1000
0000
,  // measure 57
0010
0000
0100
0000
,  // measure 58
0002
0000
0003
0000
,  // measure 59
1000
0000
0001
0000
,  // measure 60
0010
0000
0100
0000
,  // measure 61
1000
0000
0010
0000
,  // measure 62
0100
0000
0001
0001
;

//---------------dance-single - ----------------
#NOTEDATA:;
#CHARTNAME:;
#STEPSTYPE:dance-single;
#DESCRIPTION:;
#CHARTSTYLE:;
#DIFFICULTY:Challenge;
#METER:10;
#RADARVALUES:0.810133,0.887366,0.478993,0.461886,0.838237,553.000000,56.000000,54.000000,0.000000,0.000000,0.000000,0.000000,0.000000,0.810133,0.887366,0.478993,0.461886,0.838237,553.000000,56.000000,54.000000,0.000000,0.000000,0.000000,0.000000,0.000000;
#CREDIT:;
#OFFSET:-0.010762;
#BPMS:0.000000=135.000000
;
#STOPS:;
#DELAYS:;
#WARPS:;
#TIMESIGNATURES:0.000000=4=4
;
#TICKCOUNTS:0.000000=4
;
#COMBOS:0.000000=1
;
#SPEEDS:0.000000=1.000000=0.000000=0
;
#SCROLLS:0.000000=1.000000
,53.000000=0.750000
,53.250000=1.250000
,53.750000=1.000000
,148.000000=0.330000
,148.333328=1.330000
,149.000000=1.000000
,162.750000=0.000000
,163.500000=0.500000
,170.000000=1.000000
;
#FAKES:;
#LABELS:0.000000=Song Start
;
#NOTES:
// measure 0
0000
0000
0000
0000
,  // measure 1
1001
0000
0000
0000
0001
0000
0010
0000
0200
0000
0000
0001
0000
0000
1300
0000
,  // measure 2
0001
0100
1000
0200
0000
1300
0100
0001
,  // measure 3
1000
0000
0000
0000
0001
0000
0100
0000
0020
0000
0000
0001
0000
0000
1030
0000
,  // measure 4
0001
0010
1000
0020
0000
0031
0010
0100
,  // measure 5
1000
0000
0000
0000
1000
0000
0100
0000
0020
0000
0000
1000
0000
0000
0031
0000
,  // measure 6
1000
0010
0001
0020
0000
0031
0010
1000
,  // measure 7
0100
0000
0000
0000
1001
0000
1000
0000
0001
0000
0000
0010
0000
0000
0100
0000
,  // measure 8
1100
1000
0001
0101
0000
0100
0010
1000
,  // measure 9
1010
0000
0000
0000
0101
0000
0000
1001
0000
0001
0010
0100
1000
0000
0100
0000
,  // measure 10
1000
0000
0001
0000
0100
0000
0010
1000
0010
0100
0001
0010
0100
1000
0000
0001
,  // measure 11
0100
0010
0100
0000
0001
0000
0000
0001
0020
0000
0230
0000
2300
0000
3200
0000
,  // measure 12
0310
0001
0010
0100
0000
1000
0100
1000
0002
0000
0203
0000
0320
0000
2030
0000
,  // measure 13
3001
0000
0000
0000
0101
0000
0000
1010
0000
1000
0010
0100
0001
0000
1000
0000
,  // measure 14
0100
0000
0010
0000
0100
0000
1000
0100
1000
0001
0100
0010
1000
0100
0000
1000
,  // measure 15
0001
0010
0001
0000
1000
0000
0000
1000
0200
0000
0320
0000
0032
0000
0023
0000
,  // measure 16
0130
1000
0100
0010
0001
0000
0001
0000
0011
0000
0110
0000
1100
0000
1001
0000
,  // measure 17
0101
0000
0000
0000
1001
0000
0000
0000
1000
0010
1000
0010
0100
0000
2000
0000
,  // measure 18
0000
0001
0000
0100
0000
0001
0000
3100
,  // measure 19
0010
0000
0000
1000
0000
0000
0001
0000
0000
0010
0000
0000
0200
0000
0300
0000
,  // measure 20
0000
1000
0100
1000
0000
0001
0100
0001
0010
0100
0010
0110
0000
0000
1100
0000
,  // measure 21
1001
0000
0000
0000
0101
0000
0000
0000
0001
0100
0001
0100
0010
0000
0002
0000
,  // measure 22
0000
1000
0000
0010
0000
1000
0000
0013
,  // measure 23
0100
0000
0100
0000
0000
0000
0001
0000
0000
0010
0000
0000
0100
0000
0000
0000
,  // measure 24
1000
0000
0000
0001
0000
0000
1000
0000
0000
0001
0000
0000
1000
0000
0001
0000
1000
0000
0001
0000
0000
1000
0000
0000
0001
0000
0000
0000
0000
0000
1000
0000
0000
0000
0000
0000
0110
0000
0000
0000
0000
0000
0000
0000
0000
0000
0000
0000
,  // measure 25
0001
0001
0000
0000
1100
0000
0000
0000
0000
1000
0000
0001
0000
1000
0001
0010
,  // measure 26
0100
0100
0000
0000
1100
0000
1000
0001
0000
0000
0000
0000
0000
0000
1000
0001
,  // measure 27
0100
0100
0000
0000
0110
0000
0000
0000
0000
0010
0000
1000
0000
0001
1000
0100
,  // measure 28
0010
0010
0000
0000
0011
0000
0001
0010
0100
0000
0000
1000
0000
0000
0001
0000
,  // measure 29
1000
0010
0100
0010
1000
0001
0010
0001
1000
0001
0010
0100
1000
0010
0001
0010
,  // measure 30
0100
0000
0001
0000
0010
0000
1000
0000
0001
0000
0100
0000
1000
0000
0010
0000
0001
0000
0010
0000
0100
0000
0001
0000
0010
0000
0100
0000
0001
0000
0100
1000
,  // measure 31
0100
1000
0001
0100
0001
0100
1000
0001
0010
1000
0100
0001
0100
1000
0001
0010
,  // measure 32
0100
1000
0100
1000
0001
0100
0001
0100
0101
0000
0000
1010
0000
0000
0000
0000
,  // measure 33
1001
0000
0000
0000
0011
0000
0000
1100
0000
0100
1000
0000
0002
0000
0103
0100
,  // measure 34
0000
0010
1000
0000
1000
0100
0000
0000
0010
0001
0010
0001
1000
0100
1000
0100
,  // measure 35
0010
0000
0100
0000
0000
1000
0000
0001
0000
1000
0010
0100
0002
0000
1003
0001
,  // measure 36
0200
0000
0000
0000
0000
0000
0302
0000
0000
0000
0000
0000
2003
0000
0000
0000
0000
0000
3200
0000
0000
0000
0000
0000
0310
0000
0000
0100
0000
0000
0010
0000
0000
0100
0000
0000
0010
0000
0100
0000
0010
0000
0100
0000
0000
0010
0000
0000
,  // measure 37
0200
0300
0000
0000
1001
0000
0000
0110
0000
0001
0010
0100
2000
0000
3100
0100
,  // measure 38
0000
0010
0001
0000
0001
1000
0000
0000
0100
0010
0100
0010
0001
1000
0001
1000
,  // measure 39
0010
0000
0100
0000
0000
0001
0000
1000
0000
0001
0000
1000
0020
0000
0130
0010
,  // measure 40
2001
0000
3002
0000
0203
0000
0320
0000
1030
0100
0010
0002
0003
0000
0000
0000
,  // measure 41
2002
0000
0000
0000
,  // measure 42
0000
0000
0000
0000
0000
0000
0000
0000
0000
0000
0000
0000
3003
0000
0000
0000
0000
0000
0000
0000
0000
0000
0000
0000
0001
0000
1000
0000
0001
0000
1000
0000
0000
0001
0000
0000
1000
0000
0000
0000
0000
0000
0000
0000
0000
0000
0000
0000
,  // measure 43
0110
0001
2020
3030
0110
1000
0202
0303
,  // measure 44
1001
0000
0100
0010
0100
0000
1001
0000
0000
0010
0100
0000
2002
0000
3003
0000
,  // measure 45
1000
0100
0010
0001
1000
0100
0010
0001
1000
0100
0010
0001
1000
0100
0010
0000
,  // measure 46
0001
0100
0010
1000
0001
0100
0010
1000
0001
0010
0100
1000
0001
0010
0100
1000
,  // measure 47
0100
1000
0202
0303
0110
0001
2020
3030
,  // measure 48
1100
0000
0010
0001
0010
0000
1100
0000
0000
0010
0001
0000
2200
0000
3300
0000
,  // measure 49
0001
0000
0000
0010
0000
0000
1000
0000
0000
1000
0100
0000
0001
0000
0010
0000
,  // measure 50
0100
0100
0110
1001
,  // measure 51
1100
0000
0001
0000
0010
0100
0000
0010
0000
0000
0001
0000
0000
0000
1000
0000
,  // measure 52
0101
0000
1000
0000
0010
0100
0010
1000
0000
0000
0001
0000
0000
0000
1000
0000
,  // measure 53
0001
0100
0010
1000
0001
0100
0010
1000
0001
0100
0010
1000
0001
0100
0010
0000
,  // measure 54
1000
0100
0010
0001
1000
0100
0010
0001
1000
0010
0100
0001
1000
0010
0100
0001
,  // measure 55
1000
0000
0001
0000
0010
1000
0000
0010
0000
0000
0001
0000
0000
0000
1000
0000
,  // measure 56
0001
0000
0100
0000
1000
0100
0010
0100
0000
0000
0001
0000
0000
0000
1000
0000
,  // measure 57
0010
0000
0000
0001
0000
0000
0100
0000
0000
0100
1000
0000
0001
0000
0010
0000
,  // measure 58
0100
0000
0000
0000
1000
0000
0010
0000
1000
0000
0000
0000
0001
0000
1000
0010
1000
0000
0001
0000
0000
0000
0000
0000
0011
0000
0000
0000
0000
0000
0000
0000
,  // measure 59
1100
0000
0000
0000
1001
0000
0000
0101
0000
0100
0010
1000
0002
0000
1003
0000
,  // measure 60
0100
0000
0010
0000
0100
0000
1000
0001
0010
0100
1000
0010
0100
0001
0000
1000
,  // measure 61
0010
0100
0010
0000
1000
0000
0000
0001
0020
0000
0230
0000
2300
0000
3200
0000
,  // measure 62
0310
0001
1000
0010
0001
0000
0000
0010
1000
0000
0001
0000
0110
0000
1001
0000
;
