#TITLE:Crystal Sea;
#SUBTITLE:;
#ARTIST:Arlie;
#TITLETRANSLIT:;
#SUBTITLETRANSLIT:;
#ARTISTTRANSLIT:;
#GENRE:;
#CREDIT:;
#BANNER:Crystal Sea.png;
#BACKGROUND:Crystal Sea-bg.png;
#LYRICSPATH:;
#CDTITLE:;
#MUSIC:Crystal Sea.ogg;
#OFFSET:-0.500000;
#SAMPLESTART:61.864998;
#SAMPLELENGTH:15.000000;
#SELECTABLE:YES;
#BPMS:0.000000=128.000000
;
#STOPS:
;
#BGCHANGES:;
#KEYSOUNDS:;
#ATTACKS:;

//---------------dance-single - ----------------
#NOTES:
     dance-single:
     :
     Hard:
     6:
     0.398997,0.405765,0.064124,0.334872,0.420372,336.000000,9.000000,47.000000,0.000000,0.000000,0.000000,0.398997,0.405765,0.064124,0.334872,0.420372,336.000000,9.000000,47.000000,0.000000,0.000000,0.000000:
0000
0000
0000
0000
,
0000
0000
0000
0000
,
0000
0000
0000
0000
,
0000
0000
0000
0000
,
1000
0000
0001
0000
,
0100
0001
0100
0010
,
1000
0000
0000
0001
0000
0010
0000
0100
0000
1000
0000
0000
,
0001
0000
0000
0000
0100
0000
0000
0000
0001
0000
0000
0000
0100
0000
0000
0100
,
0010
0000
0000
0000
1000
0000
0000
0000
0010
0000
0000
0000
1000
0000
0000
1000
,
0100
0000
0000
0010
0000
0000
0001
0000
0000
0010
0001
0100
,
0010
0000
0000
0000
1000
0000
0100
0000
0010
0000
0000
0001
0000
0100
0000
0010
,
0000
0000
1000
0000
0000
0100
0000
0000
0001
0000
0000
0100
0000
0000
0010
0000
,
0000
0001
0000
0000
1000
0000
0000
0010
0000
0000
0000
0000
0000
0000
0000
0000
,
1000
0000
0000
0010
0000
0000
0000
0000
0000
0100
0000
0000
0000
0000
0000
0000
0000
0000
0000
0000
0000
0000
0000
0000
0000
0000
0000
0000
0000
0000
0000
0000
0100
0000
0000
0000
0001
0000
0000
0000
0010
0000
0000
0000
0100
0000
0000
0000
,
1000
0000
0000
0000
0010
0000
0000
0000
0100
0000
0000
0000
0001
0000
0000
0000
0100
0000
0000
0000
0010
0000
0000
0000
1000
0000
0000
0000
0000
0000
0000
0000
0000
0000
0000
0000
0100
0000
0000
0000
0000
0000
0000
0000
0000
0100
0000
0000
,
1000
0010
0200
0000
0000
0000
0000
0300
,
0000
0000
0000
0000
,
1001
0000
0001
0000
0100
0010
0100
0001
,
0010
0000
0110
0000
0100
1000
0001
0100
,
0010
0000
1010
0000
1000
0001
0100
0010
,
1000
0000
1100
0000
0100
0010
0001
2000
,
0010
3000
1010
0010
0100
0002
0000
2003
,
0000
3200
0000
0320
0000
0032
0000
0203
,
0000
0310
2000
0000
0001
0000
0100
0000
,
0010
0000
3001
0000
0001
0100
0010
1000
,
0100
0000
0010
0000
0001
0000
0000
1000
0001
0000
0100
0000
0010
0000
0000
0000
,
1000
0000
0001
0000
0100
0000
0000
0100
0010
0000
1000
0000
0100
0000
0000
0000
,
1000
0000
0100
0000
0010
0000
0000
0010
0001
0000
0100
0000
0010
0000
0000
0000
,
0100
0000
0001
0000
0010
0000
0000
0010
0100
0000
1000
0000
0001
0000
0000
0000
,
0200
0000
0000
0010
0300
0000
0000
0000
0100
0000
0001
0000
0000
0000
0011
0000
,
0000
0110
0000
1100
0200
1000
0000
0010
,
0000
0000
0301
0000
0000
0000
0000
0100
0000
1000
0000
0010
0000
0001
0000
0000
,
0000
0010
0000
1000
0000
0001
0000
0000
0000
0010
0000
0100
0000
1000
0000
0000
,
1001
0000
0000
0000
0000
0002
0000
0103
0000
0000
0000
0000
0000
0200
0000
0310
,
0000
0000
0000
0000
0000
0020
0000
1030
0000
0000
0000
0000
0000
0200
0000
0310
,
0000
0000
0000
0100
0000
1000
0000
0000
0000
0000
0000
0000
0000
1000
0000
0002
,
0000
0100
0003
0000
0000
0010
0000
0000
0000
1000
0000
0000
0000
0100
0000
0020
,
0000
0030
0000
0000
0000
0001
0000
0200
0000
0300
0000
0000
0000
0100
0000
0020
,
0000
0030
0000
0000
0000
0010
0000
2000
0000
3000
0000
0000
0000
1000
0000
0002
,
0000
0000
0000
0103
0000
0020
0000
0000
1000
0000
0000
0000
0001
0000
0000
0000
,
0100
0000
0000
0000
1000
0000
0000
0000
0130
0000
0000
0010
1000
0000
0001
0000
,
0020
0000
0130
1000
0020
0000
0130
0001
,
0020
0000
0031
1000
0020
0000
0130
0001
,
2000
0000
3010
0100
2000
0000
3001
0010
,
2000
0000
3100
0010
2000
0000
3010
0001
,
0200
0000
0310
1000
0200
0000
0310
0001
,
0200
0000
0301
0010
0200
0000
1300
0010
,
0002
0000
0000
0013
0000
0100
0000
0000
0002
0000
0003
0000
0020
0000
0030
0000
,
0200
0300
1000
0001
0100
1000
0001
0010
,
0200
0000
0020
0300
,
0000
0000
0030
0000
0000
0000
1000
0001
,
0010
0000
0000
0100
0010
0000
0001
0000
0100
0000
0000
0010
1000
0000
0001
0000
,
0010
0000
0000
0100
0010
0000
0001
0000
1000
0000
0000
0001
1000
0000
0010
0000
,
0100
0000
0000
0100
0010
0000
1000
0000
0100
0000
0000
0100
0010
0000
0001
0000
,
0100
0000
0000
0100
0001
0000
0010
0000
0100
0000
0000
0100
1000
0000
0001
0000
,
0010
0000
0000
0010
0001
0000
0100
0000
0010
0000
0000
0010
1000
0000
0100
0000
,
0010
0000
0000
0010
0001
0000
1000
0000
0010
0000
0000
0010
0100
0000
0001
0000
,
2000
0000
0000
0000
3000
1000
0100
0020
,
0000
0000
0000
0030
0000
0020
0000
0000
0000
0000
0032
0000
0000
0000
0000
0000
,
2003
0000
0000
3001
0000
0100
0000
0010
0000
0000
0000
1000
0000
0100
0000
0010
,
0000
0000
0000
0001
0000
0100
0000
0010
0000
0100
0000
0001
0000
1000
0000
0001
,
0000
0000
0000
0010
0000
0100
0000
1000
0000
0000
0000
0001
0000
1000
0000
0010
,
0000
0100
0000
0001
0000
0100
0000
0010
0000
1000
0000
0200
0000
0000
0300
0000
,
0100
0000
0000
1000
0000
0001
0000
1000
0000
0000
0000
0100
0000
0010
0000
0100
,
0000
0000
0000
0010
0000
0001
0000
0010
0000
0100
0000
1000
0000
0100
0000
0000
,
0020
0000
0000
0000
,
0000
0000
0000
0000
,
0030
0000
0000
0000
;

//---------------dance-single - ----------------
#NOTES:
     dance-single:
     :
     Medium:
     4:
     0.203570,0.262554,0.000000,0.185249,0.263623,174.000000,0.000000,26.000000,0.000000,0.000000,0.000000,0.203570,0.262554,0.000000,0.185249,0.263623,174.000000,0.000000,26.000000,0.000000,0.000000,0.000000:
0000
0000
0000
0000
,
0000
0000
0000
0000
,
0000
0000
0000
0000
,
0000
0000
0000
0000
,
1000
0000
0100
0000
,
0010
0001
0010
0100
,
1000
0000
0000
0010
0000
0200
0000
0000
0000
0300
0000
0000
,
0001
0100
0001
0100
,
0010
0000
0000
0000
1000
0000
0000
0000
0010
0000
0000
0000
1000
0000
0000
0200
,
0300
0010
0100
0020
,
0030
0000
0000
0000
0100
0000
1000
0000
0100
0000
0000
0010
0000
0001
0000
0010
,
0000
0000
0000
0100
0000
0000
1000
0000
0000
0010
0000
0000
0100
0000
0000
0001
,
0000
0000
0010
0000
0000
0100
0000
0000
1000
0000
0000
0000
0000
0000
0000
0000
,
0100
0000
0000
0010
0000
0000
0000
0000
0000
0000
0000
0000
0002
0000
0000
0000
,
0000
0000
0000
0103
,
0010
0000
0200
0000
0000
0000
0000
0300
,
0000
0000
0000
0000
,
1000
0000
0001
0000
0100
0010
0100
0000
,
0010
0000
1000
0000
0100
0010
0100
0000
,
0010
0000
0001
0000
1000
0100
1000
0000
,
0010
0000
0100
0000
1000
0100
0001
0020
,
0000
0030
0000
0100
1000
0010
0000
0100
,
0000
0001
0000
0010
0000
0100
0000
1000
,
0000
0001
0200
0000
0000
0000
0000
0000
,
0000
0000
0000
0000
0000
0000
0000
0000
0300
0000
0000
0020
0000
0000
0000
0000
,
0000
0000
0000
0000
,
0000
0000
0000
0000
0000
0000
0000
0000
0030
0100
0000
0000
0000
0002
0000
0000
,
0000
0000
0000
0003
,
0000
0000
0000
0000
0000
0000
0000
0010
0000
0100
0000
1000
0000
0010
0000
0001
,
0000
0000
0000
0010
0000
0000
0000
0200
0000
0300
0000
0000
0000
0001
0000
0000
,
0000
0010
0000
0000
0000
0100
0000
1000
0000
0100
0000
0000
0000
0020
0000
0000
,
0000
0000
0000
0000
0000
0000
0000
0130
0000
1000
0000
0001
0000
0200
0000
0000
,
0000
0000
0000
0000
,
0310
0000
0000
1000
0010
0000
0000
0100
,
0010
0000
0000
0001
0010
0000
0000
1000
,
0100
0000
0000
0010
0000
0001
0000
0000
0000
0000
0000
0000
0000
0100
0000
0001
,
0000
0010
0000
0100
0000
1000
0000
0000
0000
0001
0000
0000
0000
0100
0000
0010
,
0000
0000
0000
0000
0000
1000
0000
0010
0000
0000
0000
0000
0000
0001
0000
0010
,
0000
0000
0000
0000
0000
1000
0000
0010
0000
0000
0000
0000
0000
0100
0000
0001
,
0000
0000
0000
0010
0000
0200
0000
0000
0000
0000
0000
0000
0000
0000
0000
0000
,
0000
0000
0000
0000
,
1300
0000
0000
0001
0100
0000
0000
0010
,
0100
0000
0000
1000
0100
0000
0000
0001
,
0010
0000
0000
0100
0000
1000
0000
0000
0000
0000
0000
0000
0100
0000
1000
0000
,
0010
0000
0100
0000
0001
0000
0010
0000
0000
0010
0000
0000
0000
0010
0000
0100
,
0000
0000
0000
0000
0000
0100
0000
1000
0000
0000
0000
0000
0000
1000
0000
0001
,
0000
0000
0000
0000
0000
0001
0000
0100
0000
0000
0000
0000
0000
0100
0000
0010
,
0000
0000
0000
1000
0000
0002
0000
0000
0000
0000
0000
0000
0000
0000
0000
0000
,
0000
0000
0000
0000
,
0023
0000
0000
0000
0000
0000
0000
0200
0000
0000
0000
0000
0000
0000
0000
0000
,
0030
0300
0000
2000
,
0000
0000
0000
0000
,
0000
0000
0000
0002
,
3000
0000
0000
0203
,
0000
0000
0000
0320
,
0000
0000
0000
0000
0000
0000
0000
0000
0000
0000
0000
2000
0030
0000
0000
0000
,
0000
0000
0000
0000
,
3001
0000
0000
0000
0000
0100
0000
0010
,
0000
0000
0000
0000
0000
0100
0000
0000
0000
0001
0000
0000
0000
0000
0000
0010
,
0000
0000
0000
0100
0000
0000
0000
1000
0000
0000
0000
0001
0000
0000
0000
0100
,
0000
0000
0000
0010
0000
0000
0000
0000
,
0020
0000
0000
0000
,
0230
0000
0000
0000
,
0302
0000
0000
0000
,
2003
0000
0000
0000
,
3200
0000
0000
0000
,
0000
0000
0000
0000
,
0300
0000
0000
0000
;

//---------------dance-single - ----------------
#NOTES:
     dance-single:
     :
     Easy:
     1:
     0.110946,0.190948,0.000000,0.121124,0.071249,92.000000,0.000000,17.000000,0.000000,0.000000,0.000000,0.110946,0.190948,0.000000,0.121124,0.071249,92.000000,0.000000,17.000000,0.000000,0.000000,0.000000:
// measure 0
0000
0000
0000
0000
,  // measure 1
0000
0000
0000
0000
,  // measure 2
0000
0000
0000
0000
,  // measure 3
0000
0000
0000
0000
,  // measure 4
1000
0000
0000
0000
,  // measure 5
0001
0000
0000
0000
,  // measure 6
0010
0100
0000
0000
,  // measure 7
0100
0000
0000
0000
,  // measure 8
0010
0000
0000
0000
,  // measure 9
0001
0000
0100
0000
,  // measure 10
0010
0000
0000
0000
1000
0000
0000
0000
0100
0000
0000
0010
0000
0000
0000
0001
,  // measure 11
0000
0000
0000
0100
0000
0000
0000
0000
0000
0010
0000
0000
0000
0000
0000
0100
,  // measure 12
0000
0000
0000
0000
0000
0001
0000
0000
0000
0000
0000
0000
0000
0000
0000
0000
,  // measure 13
0010
0000
0000
0200
,  // measure 14
0000
0000
0000
0000
,  // measure 15
0000
0000
0000
0000
0000
0000
0000
0300
,  // measure 16
0000
0000
0000
0000
,  // measure 17
1000
0000
0001
0100
,  // measure 18
0010
0000
1000
0001
,  // measure 19
0010
0000
0100
0010
,  // measure 20
0001
0000
0100
0010
,  // measure 21
1000
0000
0000
0100
0000
0010
0000
0001
,  // measure 22
0000
0100
0000
0010
0000
1000
0000
0200
,  // measure 23
0000
0000
0000
0000
,  // measure 24
0000
0000
0000
0000
0000
0000
0000
0000
0300
0000
0000
0020
0000
0000
0000
0000
,  // measure 25
0000
0000
0000
0000
,  // measure 26
0000
0000
0000
0000
0000
0000
0000
0000
0030
0001
0000
0000
0000
0200
0000
0000
,  // measure 27
0000
0000
0000
0300
,  // measure 28
0000
0000
0000
0000
0000
0000
0000
0010
0000
0000
0000
1000
0000
0000
0000
0200
,  // measure 29
0000
0000
0000
0000
0000
0000
0000
0310
0000
0000
0000
0100
0000
0000
1000
0000
,  // measure 30
0000
0001
0000
0100
0000
0010
0000
0100
,  // measure 31
0000
0000
0000
0000
0000
0000
0000
0010
0000
0000
0000
1000
0000
0000
0000
0100
,  // measure 32
0000
0000
0000
0000
,  // measure 33
0010
0000
0001
0000
,  // measure 34
0010
0000
0100
0000
,  // measure 35
1000
0000
0010
0000
,  // measure 36
1000
0000
0001
0000
,  // measure 37
0100
0000
0010
0000
,  // measure 38
0100
0000
0000
0000
0000
0000
0000
0000
0001
0000
0000
0000
0000
0000
0000
2000
,  // measure 39
0000
0000
0000
0000
,  // measure 40
0000
0000
0000
0000
,  // measure 41
3001
0000
0100
0000
,  // measure 42
0001
0000
0010
0000
,  // measure 43
0100
0000
1000
0000
,  // measure 44
0100
0000
0010
0000
,  // measure 45
0001
0000
1000
0000
,  // measure 46
0001
0000
0000
0000
0000
0000
0000
0000
0100
0000
0000
0000
0000
0000
0000
0020
,  // measure 47
0000
0000
0000
0000
,  // measure 48
0000
0000
0000
0000
,  // measure 49
1030
0000
0200
0000
,  // measure 50
0000
0000
0000
0000
0000
0000
0000
0000
0000
0000
0000
0320
0000
0000
0000
0000
,  // measure 51
0000
0000
0000
0000
,  // measure 52
0030
0000
0000
0200
,  // measure 53
0000
0000
0000
0320
,  // measure 54
0000
0000
0000
2030
,  // measure 55
0000
0000
0000
0000
,  // measure 56
0000
0000
0000
3000
,  // measure 57
0200
0000
0000
0000
,  // measure 58
0000
0000
0000
0000
,  // measure 59
0302
0000
0000
0000
,  // measure 60
0000
0000
0000
0000
,  // measure 61
0203
0000
0000
0000
,  // measure 62
0000
0000
0000
0000
,  // measure 63
0320
0000
0000
0000
,  // measure 64
0000
0000
0000
0000
,  // measure 65
0032
0000
0000
0000
,  // measure 66
0000
0000
0000
0000
,  // measure 67
0003
0000
0000
0000
;
